自购原抓音乐圈:只有自购、合购、原抓级高解析(hires、sacd、dsd)正版音乐资源分享!【点我打开
广告

[摇滚] 台湾流行摇滚:美秀集团《电火王》2018/FLAC/BD

[复制链接]
捌零赖子 发表于 2021-10-4 08:30:44 | 显示全部楼层 |阅读模式 打印 上一主题 下一主题
曲目列表:
1、Intro
2、电火王
3、总裁水鸳鸯
4、这几年
5、昨暝阿爸无转来
6、做事人
7、生活袂晓过
8、米儿
9、小老婆
10、挡一根
11、鲁之歌[Bonus track]



链接:https://pan.baidu.com/s/16OIME0W-lfIAJmSx96L7jQ
本帖隐藏的内容提取码:
付费主题

已有0人支付






Exact Audio Copy V1.3 from 2. September 2016

EAC extraction logfile from 4. October 2021, 0:35

美秀集团 / 电火王

Used drive  : ATAPI   iHAS324   E   Adapter: 1  ID: 0

Read mode               : Secure
Utilize accurate stream : Yes
Defeat audio cache      : Yes
Make use of C2 pointers : No

Read offset correction                      : 6
Overread into Lead-In and Lead-Out          : No
Fill up missing offset samples with silence : Yes
Delete leading and trailing silent blocks   : No
Null samples used in CRC calculations       : Yes
Used interface                              : Native Win32 interface for Win NT & 2000
Gap handling                                : Not detected, thus appended to previous track

Used output format              : User Defined Encoder
Selected bitrate                : 768 kBit/s
Quality                         : High
Add ID3 tag                     : No
Command line compressor         : e:\Exact Audio Copy\FLAC\FLAC.EXE
Additional command line options : -6 -V -T "ARTIST=%artist%" -T "TITLE=%title%" -T "ALBUM=%albumtitle%" -T "DATE=%year%" -T "TRACKNUMBER=%tracknr%" -T "GENRE=%genre%" -T "COMMENT=%comment%" -T "BAND=%albuminterpret%" -T "ALBUMARTIST=%albuminterpret%" -T "COMPOSER=%composer%" %haslyrics%--tag-from-file=LYRICS="%lyricsfile%"%haslyrics% -T "DISCNUMBER=%cdnumber%" -T "TOTALDISCS=%totalcds%" -T "TOTALTRACKS=%numtracks%" %hascover%--picture="%coverfile%"%hascover% %source% -o %dest%


TOC of the extracted CD

     Track |   Start  |  Length  | Start sector | End sector
    ---------------------------------------------------------
        1  |  0:00.00 |  1:45.09 |         0    |     7883   
        2  |  1:45.09 |  5:03.19 |      7884    |    30627   
        3  |  6:48.28 |  2:27.41 |     30628    |    41693   
        4  |  9:15.69 |  4:30.57 |     41694    |    62000   
        5  | 13:46.51 |  5:24.30 |     62001    |    86330   
        6  | 19:11.06 |  4:36.53 |     86331    |   107083   
        7  | 23:47.59 |  5:18.29 |    107084    |   130962   
        8  | 29:06.13 |  5:04.65 |    130963    |   153827   
        9  | 34:11.03 |  5:15.56 |    153828    |   177508   
       10  | 39:26.59 |  3:56.10 |    177509    |   195218   
       11  | 43:22.69 |  4:13.50 |    195219    |   214243   


Track  1

     Filename E:\EAC抓轨文件夹1. 美秀集团 - Intro.wav

     Peak level 100.0 %
     Extraction speed 4.3 X
     Track quality 100.0 %
     Test CRC C12DC746
     Copy CRC C12DC746
     Accurately ripped (confidence 1)  [4F8FFB42]  (AR v2)
     Copy OK

Track  2

     Filename E:\EAC抓轨文件夹2. 美秀集团 - 电火王.wav

     Peak level 100.0 %
     Extraction speed 5.6 X
     Track quality 100.0 %
     Test CRC 277B4D00
     Copy CRC 277B4D00
     Accurately ripped (confidence 1)  [78F0194F]  (AR v2)
     Copy OK

Track  3

     Filename E:\EAC抓轨文件夹3. 美秀集团 - 总裁水鸳鸯.wav

     Peak level 100.0 %
     Extraction speed 5.5 X
     Track quality 100.0 %
     Test CRC 7D106395
     Copy CRC 7D106395
     Accurately ripped (confidence 1)  [B0028993]  (AR v2)
     Copy OK

Track  4

     Filename E:\EAC抓轨文件夹4. 美秀集团 - 这几年.wav

     Peak level 100.0 %
     Extraction speed 6.4 X
     Track quality 100.0 %
     Test CRC 4941D1E7
     Copy CRC 4941D1E7
     Accurately ripped (confidence 1)  [6DA9D13C]  (AR v2)
     Copy OK

Track  5

     Filename E:\EAC抓轨文件夹5. 美秀集团 - 昨暝阿爸无转来.wav

     Peak level 100.0 %
     Extraction speed 7.1 X
     Track quality 100.0 %
     Test CRC CA88C11B
     Copy CRC CA88C11B
     Accurately ripped (confidence 1)  [DFCBC747]  (AR v2)
     Copy OK

Track  6

     Filename E:\EAC抓轨文件夹6. 美秀集团 - 做事人.wav

     Peak level 100.0 %
     Extraction speed 7.5 X
     Track quality 100.0 %
     Test CRC 3617CD49
     Copy CRC 3617CD49
     Accurately ripped (confidence 1)  [33EF8479]  (AR v2)
     Copy OK

Track  7

     Filename E:\EAC抓轨文件夹7. 美秀集团 - 生活袂晓过.wav

     Peak level 100.0 %
     Extraction speed 7.0 X
     Track quality 99.9 %
     Test CRC 3D4F84B9
     Copy CRC 3D4F84B9
     Accurately ripped (confidence 1)  [D2C0177D]  (AR v2)
     Copy OK

Track  8

     Filename E:\EAC抓轨文件夹8. 美秀集团 - 米儿.wav

     Peak level 100.0 %
     Extraction speed 8.4 X
     Track quality 100.0 %
     Test CRC 9BCCB47F
     Copy CRC 9BCCB47F
     Accurately ripped (confidence 1)  [C968B83D]  (AR v2)
     Copy OK

Track  9

     Filename E:\EAC抓轨文件夹9. 美秀集团 - 小老婆.wav

     Peak level 100.0 %
     Extraction speed 7.7 X
     Track quality 99.9 %
     Test CRC 76F3DA6A
     Copy CRC 76F3DA6A
     Accurately ripped (confidence 1)  [CAC8E2BF]  (AR v2)
     Copy OK

Track 10

     Filename E:\EAC抓轨文件夹10. 美秀集团 - 挡一根.wav

     Peak level 100.0 %
     Extraction speed 8.9 X
     Track quality 100.0 %
     Test CRC BD306C35
     Copy CRC BD306C35
     Accurately ripped (confidence 1)  [38DDFDB7]  (AR v2)
     Copy OK

Track 11

     Filename E:\EAC抓轨文件夹11. 美秀集团 - 鲁之歌(Bonus track).wav

     Peak level 100.0 %
     Extraction speed 7.7 X
     Track quality 99.9 %
     Test CRC 5A0E4AE9
     Copy CRC 5A0E4AE9
     Accurately ripped (confidence 1)  [CD9BD617]  (AR v2)
     Copy OK


All tracks accurately ripped

No errors occurred

End of status report

---- CUETools DB Plugin V2.1.6

[CTDB TOCID: 1BBmfQ.2aYlDVHivGiiH1ZqZ_eU-] found
Submit result: 1BBmfQ.2aYlDVHivGiiH1ZqZ_eU- has been confirmed
Track | CTDB Status
  1   | (28/28) Accurately ripped
  2   | (27/28) Accurately ripped
  3   | (27/28) Accurately ripped
  4   | (28/28) Accurately ripped
  5   | (27/28) Accurately ripped
  6   | (27/28) Accurately ripped
  7   | (27/28) Accurately ripped
  8   | (27/28) Accurately ripped
  9   | (28/28) Accurately ripped
10   | (27/28) Accurately ripped
11   | (27/28) Accurately ripped


==== Log checksum 732798C6088261F76B4A75B86BA899FD4F4C0971BD49E0911ACBF0B94D432B78 ====

欢迎来到捌零音乐论坛,我是赖子。继续为大家分享大包子
回复

使用道具 举报

您需要登录后才可以回帖 登录 | 立即注册 微信登录

本版积分规则

关注1

粉丝42

帖子13666

发布主题
阅读排行更多+
关闭

站长推荐上一条 /1 下一条

活动提示

赞助永久VIP会员送3T硬盘一块 限时活动

地址:立刻参加

我知道了
收藏帖子 返回列表 这是一个自定义按钮
音乐分享,音乐下载。
微信公众号
微信号:hires_
意见反馈:admin@maomicd.com

加入我们的官方QQ群和微信群

Powered by Discuz! X3.4 Archiver|手机版|小黑屋|捌零音乐论坛 ( 苏ICP备20015413号 )|( 苏公网安备 32030502000272号) 繁體

GMT+8, 2021-10-19 17:34