自购原抓音乐圈:只有自购、合购、原抓级高解析(hires、sacd、dsd)正版音乐资源分享!【点我打开
广告

自抓:TV动画原声《卡通王国》(全粤语)4CD/2010/FLAC/BD

[复制链接]
捌零赖子 发表于 2021-9-27 08:24:03 | 显示全部楼层 |阅读模式 打印 上一主题 下一主题
专辑曲目列表:

CD 1
01. 足球小将(足球小将片尾曲) - 张卫健
02. 美少女战士 - 王馨平 汤宝如 周慧敏
03. IQ博士 - 梅艳芳
04. 现代足球小将(现代足球小将) - 李克勤
05. 伙头仔昆布 - 草蜢
06. 蓝精灵 - 小太阳儿童合唱团
07. 数数小精灵 (宝可梦) - 陈浩民
08. 龙珠 (龙珠Z) - 张崇基+张崇德
09. 黄金战士 - 胡渭康
10. 你让我找到未来(高智能方程式) - 草蜢
11. 新世纪福音战士(新世纪福音战士) -杨千嬅
12. 跅跅步哈姆太郎 (哈姆太郎) - 2R
13. 宝贝甜心 (妈妈是小学四年生) - 汤宝如
14. 忍者 (忍者小灵精) - 小太阳儿童合唱团
15. 时代节奏 (童梦) - 刘锡明、

CD 2
01. 梦中天使 (长腿叔叔) - 唐韦琪
02. 我系小忌廉 - 戴蕴慧
03. 多拉A梦 - 陈慧琳
04. 问题天天都多(樱桃小丸子) - 欧倩怡
05. 小甜甜 - 路家敏
06. 人人爱愉快 (得意快兽仔) - 杨千嬅
07. 皇家双妹唛 - 欧倩怡
08. 美少女变身(美少女战士R) - 陈琪
09. 爱心一百次(飞天小女猪事丁) - 戴恩玲
10. 命运斗士(铠甲圣斗士) - 张卫健
11. 神秘的花园 - 何咏琳
12. 情谊心中印 (龙猫) - 江欣燕
13. 超人小子 (超人小子) - 黎瑞恩
14. 每点爱都记住 (娱乐金鱼眼) - 车沅沅
15. 降魔者 (仙魔大战) - 刘彩玉

CD 3
01. 超人的主题曲 (超人迪加)- 陈奕迅
02. 城市猎人 - 刘德华
03. 宇宙大帝 - 张国荣
04. 千年女王 - 露云娜
05. 魔法咕噜咕噜 (咕噜咕噜魔法阵) - 滕丽名
06. 圣斗士星矢 - 谭耀文
07. 达尔大冒险 - 蘇永康
08. 战士高狄安 - 蒋庆龙
09. 忍者乱太郎 - 郑嘉颖
10. 魔法时代 (魔动王) - 曾航生
11. 跟你啄一啄 (福星大咀鸟) - 李彩桦
12. 伏魔小皇子 - 梁汉文
13. 无名小子(伙头智多星) - 黄凯芹
14. 冰河战士 - 黄思雯
15. 剑神传说 (反斗剑神) - 许志安

CD 4
01. 传说 (千年女王) - 露云娜
02. 百变小樱 (百变小樱MAGIC咭) - 曾嘉莉
03. 足球小旋风 - 李克勤
04. 爆裂旋风 (爆旋陀螺) - 郭富城
05. 超速龙球 (超速摇摇) - 方力申
06. 超级小黑咪 - 陈慧琳
07. 小丸子的心事(樱桃小丸子) - 何韵诗
08. 变出我精彩(七小花) - 2R
09. 弹珠人的爱心炸弹 (BOMBOM弹珠人) - 杨千嬅
10. 正义 (无敌3x1) - 黎瑞恩
11. 虎威战士 - 林子祥
12. 脑波子 - 陈美龄
13. 四驱小子 - 吴婉芳
14. 一股歪风 (电子神童) - 梅艳芳
15. 海 (冒险少女娜丁亚) - 吴国敬

Exact Audio Copy V1.3 from 2. September 2016

EAC extraction logfile from 6. August 2017, 0:50

群星 / 卡通王國

Used drive  : ATAPI   iHAS324   E   Adapter: 1  ID: 0

Read mode               : Secure
Utilize accurate stream : Yes
Defeat audio cache      : Yes
Make use of C2 pointers : No

Read offset correction                      : 6
Overread into Lead-In and Lead-Out          : No
Fill up missing offset samples with silence : Yes
Delete leading and trailing silent blocks   : No
Null samples used in CRC calculations       : Yes
Used interface                              : Native Win32 interface for Win NT & 2000
Gap handling                                : Not detected, thus appended to previous track

Used output format              : User Defined Encoder
Selected bitrate                : 768 kBit/s
Quality                         : High
Add ID3 tag                     : No
Command line compressor         : e:\Exact Audio Copy\FLAC\FLAC.EXE
Additional command line options : -6 -V -T "ARTIST=%artist%" -T "TITLE=%title%" -T "ALBUM=%albumtitle%" -T "DATE=%year%" -T "TRACKNUMBER=%tracknr%" -T "GENRE=%genre%" -T "COMMENT=%comment%" -T "BAND=%albuminterpret%" -T "ALBUMARTIST=%albuminterpret%" -T "COMPOSER=%composer%" %haslyrics%--tag-from-file=LYRICS="%lyricsfile%"%haslyrics% -T "DISCNUMBER=%cdnumber%" -T "TOTALDISCS=%totalcds%" -T "TOTALTRACKS=%numtracks%" %hascover%--picture="%coverfile%"%hascover% %source% -o %dest%


TOC of the extracted CD

     Track |   Start  |  Length  | Start sector | End sector
    ---------------------------------------------------------
        1  |  0:00.00 |  2:20.27 |         0    |    10526   
        2  |  2:20.27 |  2:54.13 |     10527    |    23589   
        3  |  5:14.40 |  1:07.19 |     23590    |    28633   
        4  |  6:21.59 |  2:43.26 |     28634    |    40884   
        5  |  9:05.10 |  2:20.49 |     40885    |    51433   
        6  | 11:25.59 |  1:54.42 |     51434    |    60025   
        7  | 13:20.26 |  3:32.17 |     60026    |    75942   
        8  | 16:52.43 |  3:28.63 |     75943    |    91605   
        9  | 20:21.31 |  2:04.21 |     91606    |   100926   
       10  | 22:25.52 |  3:30.70 |    100927    |   116746   
       11  | 25:56.47 |  3:37.73 |    116747    |   133094   
       12  | 29:34.45 |  2:20.69 |    133095    |   143663   
       13  | 31:55.39 |  4:27.65 |    143664    |   163753   
       14  | 36:23.29 |  2:13.23 |    163754    |   173751   
       15  | 38:36.52 |  4:59.17 |    173752    |   196193   


Track  1

     Filename E:\EAC抓轨文件夹1. 張衛健 - 足球小將(足球小將).wav

     Peak level 99.9 %
     Extraction speed 1.7 X
     Track quality 100.0 %
     Test CRC D1AEA428
     Copy CRC D1AEA428
     Accurately ripped (confidence 4)  [1056C603]  (AR v2)
     Copy OK

Track  2

     Filename E:\EAC抓轨文件夹2. 王馨平 & 湯寶如 & 周慧敏 - 美少女戰士(美少女戰士).wav

     Peak level 98.5 %
     Extraction speed 1.9 X
     Track quality 100.0 %
     Test CRC 455CF922
     Copy CRC 455CF922
     Accurately ripped (confidence 5)  [F267141D]  (AR v2)
     Copy OK

Track  3

     Filename E:\EAC抓轨文件夹3. 梅艷芳 - IQ 博士(IQ 博士).wav

     Peak level 95.5 %
     Extraction speed 1.5 X
     Track quality 100.0 %
     Test CRC 90F2F436
     Copy CRC 90F2F436
     Accurately ripped (confidence 4)  [66A3335D]  (AR v2)
     Copy OK

Track  4

     Filename E:\EAC抓轨文件夹4. 李克勤 - 現代足球小將(現代足球小將).wav

     Peak level 98.1 %
     Extraction speed 1.7 X
     Track quality 99.9 %
     Test CRC ED937067
     Copy CRC ED937067
     Accurately ripped (confidence 3)  [02C7789F]  (AR v2)
     Copy OK

Track  5

     Filename E:\EAC抓轨文件夹5. 草蜢 - 伙頭仔昆布(伙頭仔昆布).wav

     Peak level 99.9 %
     Extraction speed 2.1 X
     Track quality 100.0 %
     Test CRC 04667529
     Copy CRC 04667529
     Accurately ripped (confidence 4)  [1CB05B4E]  (AR v2)
     Copy OK

Track  6

     Filename E:\EAC抓轨文件夹6. 小太陽兒童合唱團 - 藍精靈(藍精靈).wav

     Peak level 99.9 %
     Extraction speed 2.1 X
     Track quality 100.0 %
     Test CRC 494D0D3B
     Copy CRC 494D0D3B
     Accurately ripped (confidence 4)  [CB096517]  (AR v2)
     Copy OK

Track  7

     Filename E:\EAC抓轨文件夹7. 陳浩民 - 數數小精靈(寵物小精靈).wav

     Peak level 88.8 %
     Extraction speed 2.5 X
     Track quality 100.0 %
     Test CRC 4EDC3CD4
     Copy CRC 4EDC3CD4
     Accurately ripped (confidence 3)  [C81F0037]  (AR v2)
     Copy OK

Track  8

     Filename E:\EAC抓轨文件夹8. 張崇基 & 張崇德 - 龍珠(龍珠 Z).wav

     Peak level 99.9 %
     Extraction speed 2.3 X
     Track quality 99.9 %
     Test CRC 9D468BA1
     Copy CRC 9D468BA1
     Accurately ripped (confidence 4)  [8B993341]  (AR v2)
     Copy OK

Track  9

     Filename E:\EAC抓轨文件夹9. 胡渭康 - 黃金戰士(黃金戰士).wav

     Peak level 99.9 %
     Extraction speed 2.5 X
     Track quality 100.0 %
     Test CRC 3D3B8304
     Copy CRC 3D3B8304
     Accurately ripped (confidence 4)  [8509F1AA]  (AR v2)
     Copy OK

Track 10

     Filename E:\EAC抓轨文件夹10. 草蜢 - 你讓我找到未來(高智能方程式).wav

     Peak level 91.2 %
     Extraction speed 2.8 X
     Track quality 100.0 %
     Test CRC 85D798C0
     Copy CRC 85D798C0
     Accurately ripped (confidence 3)  [12B16BB7]  (AR v2)
     Copy OK

Track 11

     Filename E:\EAC抓轨文件夹11. 楊千嬅 - 新世紀福音戰士(新世紀福音戰士).wav

     Peak level 82.7 %
     Extraction speed 3.0 X
     Track quality 100.0 %
     Test CRC C8819609
     Copy CRC C8819609
     Accurately ripped (confidence 2)  [34566D31]  (AR v2)
     Copy OK

Track 12

     Filename E:\EAC抓轨文件夹12. 2R - 跅跅步哈姆太郎(哈姆太郎).wav

     Peak level 93.8 %
     Extraction speed 2.8 X
     Track quality 100.0 %
     Test CRC 57434CF6
     Copy CRC 57434CF6
     Accurately ripped (confidence 2)  [BB81A447]  (AR v2)
     Copy OK

Track 13

     Filename E:\EAC抓轨文件夹13. 湯寶如 - 寶貝甜心(媽媽是小學四年生).wav

     Peak level 99.9 %
     Extraction speed 3.2 X
     Track quality 100.0 %
     Test CRC 22C32EDA
     Copy CRC 22C32EDA
     Accurately ripped (confidence 4)  [528E50DD]  (AR v2)
     Copy OK

Track 14

     Filename E:\EAC抓轨文件夹14. 小太陽兒童合唱團 - 忍者(忍者小靈精).wav

     Peak level 99.9 %
     Extraction speed 3.0 X
     Track quality 100.0 %
     Test CRC D6A50DB6
     Copy CRC D6A50DB6
     Accurately ripped (confidence 4)  [4A5C15B3]  (AR v2)
     Copy OK

Track 15

     Filename E:\EAC抓轨文件夹15. 劉錫明 - 時代節奏(童夢).wav

     Peak level 99.9 %
     Extraction speed 3.5 X
     Track quality 100.0 %
     Test CRC F177C7B8
     Copy CRC F177C7B8
     Accurately ripped (confidence 3)  [A9FFC4B1]  (AR v2)
     Copy OK


All tracks accurately ripped

No errors occurred

End of status report

---- CUETools DB Plugin V2.1.6

[CTDB TOCID: KXMCia9rIpnX6WVtHlcgmkT3Yoc-] found
Submit result: KXMCia9rIpnX6WVtHlcgmkT3Yoc- has been confirmed
Track | CTDB Status
  1   | (12/12) Accurately ripped
  2   | (12/12) Accurately ripped
  3   | (12/12) Accurately ripped
  4   | (12/12) Accurately ripped
  5   | (12/12) Accurately ripped
  6   | (12/12) Accurately ripped
  7   | (12/12) Accurately ripped
  8   | (12/12) Accurately ripped
  9   | (12/12) Accurately ripped
10   | (12/12) Accurately ripped
11   | (12/12) Accurately ripped
12   | (12/12) Accurately ripped
13   | (12/12) Accurately ripped
14   | (12/12) Accurately ripped
15   | (11/12) Accurately ripped


==== Log checksum 041BFB6C788DAFE34A71BD89F8A4788BC83F2CE379154D29772F0707591AD106 ====

下载链接:百度盘
链接:https://pan.baidu.com/s/1FLGuFb33LRHI-0gFRfOTDw
本帖隐藏的内容
付费主题

已有0人支付



欢迎来到捌零音乐论坛,我是赖子。继续为大家分享大包子
回复

使用道具 举报

您需要登录后才可以回帖 登录 | 立即注册 微信登录

本版积分规则

关注1

粉丝43

帖子13664

发布主题
阅读排行更多+
关闭

站长推荐上一条 /1 下一条

活动提示

赞助永久VIP会员送3T硬盘一块 限时活动

地址:立刻参加

我知道了
收藏帖子 返回列表 这是一个自定义按钮
音乐分享,音乐下载。
微信公众号
微信号:hires_
意见反馈:admin@maomicd.com

加入我们的官方QQ群和微信群

Powered by Discuz! X3.4 Archiver|手机版|小黑屋|捌零音乐论坛 ( 苏ICP备20015413号 )|( 苏公网安备 32030502000272号) 繁體

GMT+8, 2021-10-26 01:33