[有损AAC单曲/EP] (Electronic / Electro House, Electro Progressive, Dance) Groove Coverage - Riot On The Dancefloor (Remixes) - EP (Web) - 2012, AAC (Tracks), 256 Kbps [+ Video, Web-DL, 640x480]

[复制链接]
fqw1001 发表于 2021-9-25 13:39:03 | 显示全部楼层 |阅读模式 打印 上一主题 下一主题
Groove Coverage - Riot On the Dancefloor (Remixes)Жанр: Electronic / Electro House, Electro Progressive, Dance
Страна: Deutschland
Год издания: 2012
Издатель (лейбл): Suprime Records
Аудио кодек: AAC
Тип рипа: tracks
Битрейт аудио: 256 kbps
Продолжительность: 00:16:04 + 00:03:00 (Video)
Тексты: вшиты
Наличие сканов в содержимом раздачи: нет
Треклист:
01. Riot On the Dancefloor [2:57]
02. Riot On the Dancefloor (DJane HouseKat Remix) [4:28]
03. Riot On the Dancefloor (Bodybangers Remix) [4:53]
04. Riot On the Dancefloor (Extended Version) [3:46]
05. Riot On the Dancefloor (Video) [3:00]Released: 20 July 2012
ПАРАМЕТРЫ ВИДЕО
Качество: WEB-DL
Продолжительность: 00:03:00
Формат: MPEG-4 (контейнер m4v)
Видео: H.264, 640 x 480 px (16:9), 25.000 fps, 1591 Кбит/сек, без анаморфа
Аудио: Английский (AAC Stereo, 242 Кбит/сек, 44,1 КГц)
MediaInfo

Общее
Полное имя                       : F:\Groove Coverage - Riot On the Dancefloor (Remixes) - EP (2012) (AAC)\05 Riot On the Dancefloor.m4v
Формат                           : MPEG-4
Идентификатор кодека             : M4V
Размер файла                     : 40,6 Мбайт
Продолжительность                : 3 м. 0 с.
Общий поток                      : 1893 Кбит/сек
Название фильма                  : Riot On the Dancefloor
Альбом                           : Riot On the Dancefloor (Remixes) - EP
Альбом/Исполнитель               : Groove Coverage
Трек/Положение                   : 5
Трек/Всего                       : 0
Исполнитель                      : Groove Coverage
Жанр                             : Dance
Дата записи                      : UTC 2012-07-20 07:00:00
Дата кодирования                 : UTC 2012-07-11 15:47:17
Дата пометки                     : UTC 2012-07-11 15:47:18
Обложка                          : Yes
cnID                             : 542180670
rtng                             : 0
atID                             : 21444058
plID                             : 542180396
geID                             : 1617
sfID                             : 143443
stik                             : 6
purd                             : 2012-07-19 23:03:50
xid                              : SonyBMG:isrc:DEC691200281
flvr                             : 6:640x480LC-256
iTunMOVI                         :  /  /  /  /  asset-info /   /   file-size /   42622504 /   flavor /   6:640x480LC-256 /   screen-format /   widescreen /   /  /
Видео
Идентификатор                    : 1
Формат                           : AVC
Формат/Информация                : Advanced Video Codec
Профиль формата                  : Baseline@L3.0
Параметр CABAC формата           : Нет
Параметр ReFrames формата        : 1 кадр
Идентификатор кодека             : avc1
Идентификатор кодека/Информация  : Advanced Video Coding
Продолжительность                : 3 м. 0 с.
Битрейт                          : 1591 Кбит/сек
Ширина                           : 640 пикселей
Высота                           : 480 пикселей
Соотношение сторон               : 16:9
Режим частоты кадров             : Постоянный
Частота кадров                   : 25,000 кадров/сек
Цветовое пространство            : YUV
Субдискретизация насыщенности    : 4:2:0
Битовая глубина                  : 8 бит
Тип развёртки                    : Прогрессивная
Бит/(Пиксели*Кадры)              : 0.207
Размер потока                    : 34,2 Мбайт (84%)
Язык                             : English
Дата кодирования                 : UTC 2012-07-11 15:47:17
Дата пометки                     : UTC 2012-07-11 15:47:18
Основные цвета                   : BT.601-6 525, BT.1358 525, BT.1700 NTSC, SMPTE 170M
Характеристики трансфера         : BT.709-5, BT.1361
Коэффициенты матрицы             : BT.601-6 525, BT.1358 525, BT.1700 NTSC, SMPTE 170M
Аудио
Идентификатор                    : 2
Формат                           : AAC
Формат/Информация                : Advanced Audio Codec
Профиль формата                  : LC
Идентификатор кодека             : 40
Продолжительность                : 3 м. 0 с.
Вид битрейта                     : Постоянный
Битрейт                          : 256 Кбит/сек
Каналы                           : 2 канала
Расположение каналов             : Front: L R
Частота                          : 44,1 КГц
Метод сжатия                     : С потерями
Размер потока                    : 5,33 Мбайт (13%)
Язык                             : English
Дата кодирования                 : UTC 2012-07-11 15:47:17
Дата пометки                     : UTC 2012-07-11 15:47:18
Material_Duration                : 180164
Material_StreamSize              : 5591909


Скриншоты





                                                                                       
                       
                       
                       
                       
                       
                                磁力下载:
                                                               
                                       
付费主题

已有0人支付


                                               
  • 73.6 MB
  • 温馨提示

    记得善用社区搜索功能,那里可能会有你想要的资源;论坛站内搜索

    如果你有什么需要的资源可以去资源求档发帖,求助社区的网友,我们会在第一时间给你回复哦;资源求档

    对于本社区网盘链接失效密码错误各种报错请在反馈板块反馈报错发帖,您的支持,是我们发展的最大动力;投诉建议

    回复

    使用道具 举报

    您需要登录后才可以回帖 登录 | 立即注册 微信登录

    本版积分规则

    关注0

    粉丝1

    帖子31726

    发布主题
    阅读排行更多+
    关闭

    站长推荐上一条 /1 下一条

    活动提示

    赞助永久VIP会员送3T硬盘一块 限时活动

    地址:立刻参加

    我知道了
    收藏帖子 返回列表 这是一个自定义按钮
    音乐分享,音乐下载。
    微信公众号
    微信号:hires_
    意见反馈:admin@maomicd.com

    加入我们的官方QQ群和微信群

    Powered by Discuz! X3.4 Archiver|手机版|小黑屋|捌零音乐论坛 ( 苏ICP备20015413号 )|( 苏公网安备 32030502000272号) 繁體

    GMT+8, 2021-10-20 12:19