[有损AAC单曲/EP] (ROCK / RAP) Noize MC (W. apofeoz orkestra, coin) - 4 singles, 2 EP - 2013-2017, AAC (Tracks), 256 kbps [Web] [+ Video, Web-DL, 720p]

[复制链接]
全球搬运 发表于 2021-9-25 13:38:39 | 显示全部楼层 |阅读模式 打印 上一主题 下一主题
Noize MC
Жанр: Rock / Rap
Год издания: 2013-2017
Страна: Россия
Аудио кодек: aac
Тип рипа: tracks
Битрейт аудио: 256 kbps
Продолжительность: 00:54:11
Источник: iTunes Store
Вшитые тексты: частично
Наличие сканов в содержимом раздачи: нет
2013 - Бестолковый день (w. Apofeoz Orkestra) - Single (3:10)
Треклист:
01. Бестолковый день (feat. Noize MC) [3:10]

2015 - Jingle Bellz - Single (3:53)
Треклист:
01. Jingle Bellz [3:53]
02. Jingle Bellz (Video)
Качество: WEB-DL
Продолжительность: 00:03:45
Формат: MPEG-4
Видео: H.264, 720 x 362, 29.970 fps, 1 888 Kbps, без анаморфа
Аудио: Русский (AAC Stereo, 256 Kbps, 48 KHz)
Отчёт MediaInfo
Общее
Полное имя : F:\Мои Раздачи\!iTunes\Noize MC\2015 - Jingle Bellz - Single\02 Jingle Bellz.m4v
Формат : MPEG-4
Идентификатор кодека : M4V (M4V /mp42/isom)
Размер файла : 50,7 Мбайт
Продолжительность : 3 м. 45 с.
Режим общего битрейта : Переменный
Общий поток : 1888 Кбит/сек
Название фильма : Jingle Bellz
Альбом : Jingle Bellz
Альбом/Исполнитель : Noize MC
Часть/Положение : 1
Часть/Всего : 1
Трек/Положение : 2
Трек/Всего : 2
Исполнитель : Noize MC
Жанр : Хип-хоп/рэп
Тип содержимого : Music Video
Дата записи : UTC 2015-12-18 08:00:00
Дата кодирования : UTC 2016-01-13 14:20:25
Дата пометки : UTC 2016-01-13 14:20:26
Авторское право : ℗ 2015 Первое музыкальное Издательство
Обложка : Yes
Оценка : None
ownr : Евгений Степанов
Flavour : 8:480p
PurchaseDate : 2017-06-11 21:40:09
ITUNEXTC : ||0|
Видео
Идентификатор : 1
Формат : AVC
Формат/Информация : Advanced Video Codec
Профиль формата : Main@L3
Параметр CABAC формата : Нет
Параметр ReFrames формата : 2 кадра
Параметр GOP формата : M=2, N=90
Идентификатор кодека : avc1
Идентификатор кодека/Информация : Advanced Video Coding
Продолжительность : 3 м. 45 с.
Битрейт : 1593 Кбит/сек
Ширина : 720 пикселей
Высота : 362 пикселя
Соотношение сторон : 2,35:1
Режим частоты кадров : Постоянный
Частота кадров : 25,000 кадров/сек
Цветовое пространство : YUV
Субдискретизация насыщенности : 4:2:0
Битовая глубина : 8 бит
Тип развёртки : Прогрессивная
Бит/(Пиксели*Кадры) : 0.244
Размер потока : 42,8 Мбайт (84%)
Заголовок : Core Media Video
Язык : English
Дата кодирования : UTC 2016-01-13 14:20:25
Дата пометки : UTC 2016-01-13 14:20:26
Цветовой диапазон : Limited
Основные цвета : BT.709
Характеристики трансфера : BT.709
Коэффициенты матрицы : BT.709
Аудио
Идентификатор : 2
Формат : AAC
Формат/Информация : Advanced Audio Codec
Профиль формата : LC
Идентификатор кодека : 40
Продолжительность : 3 м. 45 с.
Продолжительность оригинала : 3 м. 45 с.
Вид битрейта : Переменный
Битрейт : 256 Кбит/сек
Максимальный битрейт : 339 Кбит/сек
Каналы : 2 канала
Расположение каналов : Front: L R
Частота : 48,0 КГц
Частота кадров : 46,875 кадров/сек (1024 spf)
Метод сжатия : С потерями
Размер потока : 6,80 Мбайт (13%)
Размер потока оригинала : 6,80 Мбайт (13%)
Заголовок : Core Media Audio
Язык : English
Дата кодирования : UTC 2016-01-13 14:20:25
Дата пометки : UTC 2016-01-13 14:20:26

Скриншоты







2016 - Lenin Has Risen - Single (4:22)
Треклист:
01. Lenin Has Risen [4:22]
02. Lenin Has Risen (Video)
Качество: WEB-DL
Продолжительность: 00:04:28
Формат: MPEG-4
Видео: H.264, 720 x 480, 29.970 fps, 1 567 Kbps, без анаморфа
Аудио: Русский (AAC Stereo, 256 Kbps, 48 KHz)
Отчёт MediaInfo
Общее
Полное имя : F:\Мои Раздачи\!iTunes\Noize MC\2016 - Lenin Has Risen - Single\02 Lenin Has Risen.m4v
Формат : MPEG-4
Идентификатор кодека : M4V (M4V /mp42/isom)
Размер файла : 59,1 Мбайт
Продолжительность : 4 м. 28 с.
Режим общего битрейта : Переменный
Общий поток : 1848 Кбит/сек
Название фильма : Lenin Has Risen
Альбом : Lenin Has Risen
Альбом/Исполнитель : Noize MC
Часть/Положение : 1
Часть/Всего : 1
Трек/Положение : 2
Трек/Всего : 2
Исполнитель : Noize MC
Жанр : Rap
Тип содержимого : Music Video
Дата записи : UTC 2016-05-01 07:00:00
Дата кодирования : UTC 2016-04-26 17:45:48
Дата пометки : UTC 2016-04-26 17:45:49
Обложка : Yes
Оценка : None
ownr : Евгений Степанов
Flavour : 8:480p
PurchaseDate : 2017-06-11 21:40:29
ITUNEXTC : ||0|
Видео
Идентификатор : 1
Формат : AVC
Формат/Информация : Advanced Video Codec
Профиль формата : Main@L3
Параметр CABAC формата : Нет
Параметр ReFrames формата : 2 кадра
Параметр GOP формата : M=2, N=90
Идентификатор кодека : avc1
Идентификатор кодека/Информация : Advanced Video Coding
Продолжительность : 4 м. 28 с.
Битрейт : 1567 Кбит/сек
Ширина : 720 пикселей
Высота : 480 пикселей
Соотношение сторон : 16:9
Соотношение сторон в оригинале : 16:9
Режим частоты кадров : Постоянный
Частота кадров : 25,000 кадров/сек
Цветовое пространство : YUV
Субдискретизация насыщенности : 4:2:0
Битовая глубина : 8 бит
Тип развёртки : Прогрессивная
Бит/(Пиксели*Кадры) : 0.181
Размер потока : 50,1 Мбайт (85%)
Заголовок : Core Media Video
Язык : English
Дата кодирования : UTC 2016-04-26 17:45:48
Дата пометки : UTC 2016-04-26 17:45:49
Цветовой диапазон : Limited
Основные цвета : BT.709
Характеристики трансфера : BT.709
Коэффициенты матрицы : BT.709
Аудио
Идентификатор : 2
Формат : AAC
Формат/Информация : Advanced Audio Codec
Профиль формата : LC
Идентификатор кодека : 40
Продолжительность : 4 м. 28 с.
Продолжительность оригинала : 4 м. 28 с.
Вид битрейта : Переменный
Битрейт : 256 Кбит/сек
Максимальный битрейт : 351 Кбит/сек
Каналы : 2 канала
Расположение каналов : Front: L R
Частота : 48,0 КГц
Частота кадров : 46,875 кадров/сек (1024 spf)
Метод сжатия : С потерями
Размер потока : 7,82 Мбайт (13%)
Размер потока оригинала : 7,82 Мбайт (13%)
Заголовок : Core Media Audio
Язык : English
Дата кодирования : UTC 2016-04-26 17:45:48
Дата пометки : UTC 2016-04-26 17:45:49

Скриншоты







2017 - Чайлдфри (23:36)
Треклист:
01. Чайлдфри (feat. Монеточка) [4:05]
02. Чайлдфри [3:05]
03. Марафон [3:07]
04. Чайлдфри (Инструментал) [4:00]
05. Чайлдфри (feat. Монеточка) [Акапелла] [3:24]
06. Марафон (Инструментал) [3:07]
07. Марафон (Акапелла) [2:47]

2017 - Лето в столице (feat. Sunsay & MC FAME) - Single (3:24)
Треклист:
01. Лето в столице (feat. Sunsay & MC FAME) [3:24]

2017 - Коррозия Хип-Хопа - EP (15:46)
Треклист:
01. Коррозия Хип-Хопа [4:00]
02. Коррозия Хип-Хопа (Инструментал) [4:00]
03. Коррозия Хип-Хопа (Акапелла) [3:46]
04. Коррозия Хип-Хопа [4:00]
                                                                                       
                       
                       
                       
                       
                       
                                磁力下载:
                                                               
                                       
付费主题

已有0人支付


                                               
  • 223.1 MB
  • 温馨提示

    记得善用社区搜索功能,那里可能会有你想要的资源;论坛站内搜索

    如果你有什么需要的资源可以去资源求档发帖,求助社区的网友,我们会在第一时间给你回复哦;资源求档

    对于本社区网盘链接失效密码错误各种报错请在反馈板块反馈报错发帖,您的支持,是我们发展的最大动力;投诉建议

    回复

    使用道具 举报

    您需要登录后才可以回帖 登录 | 立即注册 微信登录

    本版积分规则

    关注0

    粉丝19

    帖子71973

    发布主题
    阅读排行更多+
    关闭

    站长推荐上一条 /1 下一条

    活动提示

    赞助永久VIP会员送3T硬盘一块 限时活动

    地址:立刻参加

    我知道了
    收藏帖子 返回列表 这是一个自定义按钮
    音乐分享,音乐下载。
    微信公众号
    微信号:hires_
    意见反馈:admin@maomicd.com

    加入我们的官方QQ群和微信群

    Powered by Discuz! X3.4 Archiver|手机版|小黑屋|捌零音乐论坛 ( 苏ICP备20015413号 )|( 苏公网安备 32030502000272号) 繁體

    GMT+8, 2021-10-17 17:16