[有损AAC单曲/EP] (Indie, Alternative) Mummy Troll - Pirate Copies - EP - 2015, AAC (Tracks), 256 Kbps (Web) [+ Video, Web-DL, 480p]

[复制链接]
elmisy 发表于 2021-9-25 13:38:31 | 显示全部楼层 |阅读模式 打印 上一主题 下一主题
Мумий Тролль / Пиратские Копии EP
Жанр: Indie, Alternative
Страна: Russia
Год издания: 2015
Издатель (лейбл): ℗ 2014 Mumiy Troll
Аудио кодек: AAC
Тип рипа: tracks
Битрейт аудио: 256 kbps
Продолжительность: ♫ – 20:46 |
– 20:39
Источник: https://itunes.apple.com/ru/album/piratskie-kopii-ep/id955431671
Вшитые тексты: не добавлены
Наличие сканов в содержимом раздачи: нет
№ Time Track title
01. 06:28 Пиратские копии
02. 04:27 Кажется
03. 03:49 Мошка
04. 06:00 Ноябрь
05. 03:54 Пиратские копии

06. 04:38 Пиратские копии (Альтернативная версия)

07. 03:40 Кажется

08. 03:54 Мошка

09. 05:53 Ноябрь

05. Пиратские копии (Видео)
Видео - WEB-DL, MPEG-4 Video (H264), English, 1 574 Kbps, 640*480 (16:9), 25.000 fps
Аудио - English, 256 Kbps, 44.1 KHz, 2 channels, AAC (LC)





MediaInfo

General
Complete name                    : D:\磁力下载:s\2015 - Мумий Тролль - Пиратские копии EP\05 - Пиратские копии (Видео).m4v
Format                           : MPEG-4
Codec ID                         : M4V
File size                        : 52.3 MiB
Duration                         : 3mn 54s
Overall bit rate                 : 1 868 Kbps
Movie name                       : Пиратские копии (Видео)
Track name/Position              : 5
Track name/Total                 : 0
Performer                        : Мумий Тролль
Genre                            : Rock
Encoded date                     : UTC 2015-01-12 08:00:00
Tagged date                      : UTC 2015-01-05 14:09:08
Copyright                        : © 2014 Mumiy Troll
Cover                            : Yes
apID                             : i.am@svejaque.com
ownr                             : Andrey  Pinchuk
cnID                             : 955431680
rtng                             : 0
atID                             : 268782751
geID                             : 1621
sfID                             : 143469
stik                             : 6
purd                             : 2015-01-12 22:20:30
sonm                             : Пиратские копии (Видео)
soar                             : Мумий Тролль
xid                              : BelieveSAS:vendor_id:3614590619800_US3KM1490002
iTunEXTC                         : ||0|
iTunMOVI                         :  /  /  /  /  asset-info /   /   file-size /   54822288 /   flavor /   6:640x480LC-256 /   screen-format /   widescreen /   /  /
Video
ID                               : 1
Format                           : AVC
Format/Info                      : Advanced Video Codec
Format profile                   : Baseline@L3.0
Format settings, CABAC           : No
Format settings, ReFrames        : 1 frame
Codec ID                         : avc1
Codec ID/Info                    : Advanced Video Coding
Duration                         : 3mn 54s
Bit rate mode                    : Variable
Bit rate                         : 1 574 Kbps
Width                            : 640 pixels
Height                           : 480 pixels
Display aspect ratio             : 16:9
Frame rate mode                  : Constant
Frame rate                       : 25.000 fps
Color space                      : YUV
Chroma subsampling               : 4:2:0
Bit depth                        : 8 bits
Scan type                        : Progressive
Bits/(Pixel*Frame)               : 0.205
Stream size                      : 44.1 MiB (84%)
Language                         : English
Encoded date                     : UTC 2015-01-05 14:09:07
Tagged date                      : UTC 2015-01-05 14:09:08
Color primaries                  : BT.601-6 525, BT.1358 525, BT.1700 NTSC, SMPTE 170M
Transfer characteristics         : BT.709-5, BT.1361
Matrix coefficients              : BT.601-6 525, BT.1358 525, BT.1700 NTSC, SMPTE 170M
Audio
ID                               : 2
Format                           : AAC
Format/Info                      : Advanced Audio Codec
Format version                   : Version 4
Format profile                   : LC
Codec ID                         : 40
Duration                         : 3mn 54s
Bit rate mode                    : Constant
Bit rate                         : 256 Kbps
Channel(s)                       : 2 channels
Channel positions                : Front: L R
Sampling rate                    : 44.1 KHz
Stream size                      : 7.06 MiB (14%)
Language                         : English
Encoded date                     : UTC 2015-01-05 14:09:07
Tagged date                      : UTC 2015-01-05 14:09:08


06. Пиратские копии (Альтернативная версия) (Видео)
Видео - WEB-DL, MPEG-4 Video (H264), English, 1 588 Kbps, 640*480 (16:9), 25.000 fps
Аудио - English, 256 Kbps, 44.1 KHz, 2 channels, AAC (LC)





MediaInfo

General
Complete name                    : D:\磁力下载:s\2015 - Мумий Тролль - Пиратские копии EP\06 - Пиратские копии (Альтернативная версия).m4v
Format                           : MPEG-4
Codec ID                         : M4V
File size                        : 62.2 MiB
Duration                         : 4mn 38s
Overall bit rate                 : 1 872 Kbps
Movie name                       : Пиратские копии (Альтернативная версия)
Track name/Position              : 6
Track name/Total                 : 0
Performer                        : Мумий Тролль
Genre                            : Rock
Encoded date                     : UTC 2015-01-12 08:00:00
Tagged date                      : UTC 2015-01-05 14:29:35
Copyright                        : © 2014 Mumiy Troll
Cover                            : Yes
apID                             : i.am@svejaque.com
ownr                             : Andrey  Pinchuk
cnID                             : 955431682
rtng                             : 0
atID                             : 268782751
geID                             : 1621
sfID                             : 143469
stik                             : 6
purd                             : 2015-01-12 22:20:30
sonm                             : Пиратские копии (Альтернативная версия)
soar                             : Мумий Тролль
xid                              : BelieveSAS:vendor_id:3614590619800_US3KM1490004
iTunEXTC                         : ||0|
iTunMOVI                         :  /  /  /  /  asset-info /   /   file-size /   65231879 /   flavor /   6:640x480LC-256 /   screen-format /   widescreen /   /  /
Video
ID                               : 1
Format                           : AVC
Format/Info                      : Advanced Video Codec
Format profile                   : Baseline@L3.0
Format settings, CABAC           : No
Format settings, ReFrames        : 1 frame
Codec ID                         : avc1
Codec ID/Info                    : Advanced Video Coding
Duration                         : 4mn 38s
Bit rate mode                    : Variable
Bit rate                         : 1 588 Kbps
Width                            : 640 pixels
Height                           : 480 pixels
Display aspect ratio             : 16:9
Frame rate mode                  : Constant
Frame rate                       : 25.000 fps
Color space                      : YUV
Chroma subsampling               : 4:2:0
Bit depth                        : 8 bits
Scan type                        : Progressive
Bits/(Pixel*Frame)               : 0.207
Stream size                      : 52.8 MiB (85%)
Language                         : English
Encoded date                     : UTC 2015-01-05 14:29:34
Tagged date                      : UTC 2015-01-05 14:29:35
Color primaries                  : BT.601-6 525, BT.1358 525, BT.1700 NTSC, SMPTE 170M
Transfer characteristics         : BT.709-5, BT.1361
Matrix coefficients              : BT.601-6 525, BT.1358 525, BT.1700 NTSC, SMPTE 170M
Audio
ID                               : 2
Format                           : AAC
Format/Info                      : Advanced Audio Codec
Format version                   : Version 4
Format profile                   : LC
Codec ID                         : 40
Duration                         : 4mn 38s
Bit rate mode                    : Constant
Bit rate                         : 256 Kbps
Channel(s)                       : 2 channels
Channel positions                : Front: L R
Sampling rate                    : 44.1 KHz
Stream size                      : 8.28 MiB (13%)
Language                         : English
Encoded date                     : UTC 2015-01-05 14:29:34
Tagged date                      : UTC 2015-01-05 14:29:35


07. Кажется (Видео)
Видео - WEB-DL, MPEG-4 Video (H264), English, 1 601 Kbps, 640*480 (16:9), 25.000 fps
Аудио - English, 256 Kbps, 44.1 KHz, 2 channels, AAC (LC)





MediaInfo

General
Complete name                    : D:\磁力下载:s\2015 - Мумий Тролль - Пиратские копии EP\07 - Кажется (Видео).m4v
Format                           : MPEG-4
Codec ID                         : M4V
File size                        : 49.7 MiB
Duration                         : 3mn 40s
Overall bit rate                 : 1 891 Kbps
Movie name                       : Кажется (Видео)
Track name/Position              : 7
Track name/Total                 : 0
Performer                        : Мумий Тролль
Genre                            : Rock
Encoded date                     : UTC 2015-01-12 08:00:00
Tagged date                      : UTC 2015-01-05 13:54:44
Copyright                        : © 2014 Mumiy Troll
Cover                            : Yes
apID                             : i.am@svejaque.com
ownr                             : Andrey  Pinchuk
cnID                             : 955431683
rtng                             : 0
atID                             : 268782751
geID                             : 1621
sfID                             : 143469
stik                             : 6
purd                             : 2015-01-12 22:20:30
sonm                             : Кажется (Видео)
soar                             : Мумий Тролль
xid                              : BelieveSAS:vendor_id:3614590619800_US3KM1490001
iTunEXTC                         : ||0|
iTunMOVI                         :  /  /  /  /  asset-info /   /   file-size /   52145824 /   flavor /   6:640x480LC-256 /   screen-format /   widescreen /   /  /
Video
ID                               : 1
Format                           : AVC
Format/Info                      : Advanced Video Codec
Format profile                   : Baseline@L3.0
Format settings, CABAC           : No
Format settings, ReFrames        : 1 frame
Codec ID                         : avc1
Codec ID/Info                    : Advanced Video Coding
Duration                         : 3mn 40s
Bit rate mode                    : Variable
Bit rate                         : 1 601 Kbps
Width                            : 640 pixels
Height                           : 480 pixels
Display aspect ratio             : 16:9
Frame rate mode                  : Constant
Frame rate                       : 25.000 fps
Color space                      : YUV
Chroma subsampling               : 4:2:0
Bit depth                        : 8 bits
Scan type                        : Progressive
Bits/(Pixel*Frame)               : 0.208
Stream size                      : 42.1 MiB (85%)
Language                         : English
Encoded date                     : UTC 2015-01-05 13:54:43
Tagged date                      : UTC 2015-01-05 13:54:44
Color primaries                  : BT.601-6 525, BT.1358 525, BT.1700 NTSC, SMPTE 170M
Transfer characteristics         : BT.709-5, BT.1361
Matrix coefficients              : BT.601-6 525, BT.1358 525, BT.1700 NTSC, SMPTE 170M
Audio
ID                               : 2
Format                           : AAC
Format/Info                      : Advanced Audio Codec
Format version                   : Version 4
Format profile                   : LC
Codec ID                         : 40
Duration                         : 3mn 40s
Bit rate mode                    : Constant
Bit rate                         : 256 Kbps
Channel(s)                       : 2 channels
Channel positions                : Front: L R
Sampling rate                    : 44.1 KHz
Stream size                      : 6.49 MiB (13%)
Language                         : English
Encoded date                     : UTC 2015-01-05 13:54:43
Tagged date                      : UTC 2015-01-05 13:54:44


08. Мошка (Видео)
Видео - WEB-DL, MPEG-4 Video (H264), English, 1 550 Kbps, 640*480 (16:9), 25.000 fps
Аудио - English, 256 Kbps, 44.1 KHz, 2 channels, AAC (LC)





MediaInfo

General
Complete name                    : D:\磁力下载:s\2015 - Мумий Тролль - Пиратские копии EP\08 - Мошка (Видео).m4v
Format                           : MPEG-4
Codec ID                         : M4V
File size                        : 51.3 MiB
Duration                         : 3mn 54s
Overall bit rate                 : 1 838 Kbps
Movie name                       : Мошка (Видео)
Track name/Position              : 8
Track name/Total                 : 0
Performer                        : Мумий Тролль
Genre                            : Rock
Encoded date                     : UTC 2015-01-12 08:00:00
Tagged date                      : UTC 2015-01-05 14:00:43
Copyright                        : © 2014 Mumiy Troll
Cover                            : Yes
apID                             : i.am@svejaque.com
ownr                             : Andrey  Pinchuk
cnID                             : 955431685
rtng                             : 0
atID                             : 268782751
geID                             : 1621
sfID                             : 143469
stik                             : 6
purd                             : 2015-01-12 22:20:30
sonm                             : Мошка (Видео)
soar                             : Мумий Тролль
xid                              : BelieveSAS:vendor_id:3614590619800_US3KM1490003
iTunEXTC                         : ||0|
iTunMOVI                         :  /  /  /  /  asset-info /   /   file-size /   53800657 /   flavor /   6:640x480LC-256 /   screen-format /   widescreen /   /  /
Video
ID                               : 1
Format                           : AVC
Format/Info                      : Advanced Video Codec
Format profile                   : Baseline@L3.0
Format settings, CABAC           : No
Format settings, ReFrames        : 1 frame
Codec ID                         : avc1
Codec ID/Info                    : Advanced Video Coding
Duration                         : 3mn 54s
Bit rate mode                    : Variable
Bit rate                         : 1 550 Kbps
Width                            : 640 pixels
Height                           : 480 pixels
Display aspect ratio             : 16:9
Frame rate mode                  : Constant
Frame rate                       : 25.000 fps
Color space                      : YUV
Chroma subsampling               : 4:2:0
Bit depth                        : 8 bits
Scan type                        : Progressive
Bits/(Pixel*Frame)               : 0.202
Stream size                      : 43.3 MiB (84%)
Language                         : English
Encoded date                     : UTC 2015-01-05 14:00:42
Tagged date                      : UTC 2015-01-05 14:00:43
Color primaries                  : BT.601-6 525, BT.1358 525, BT.1700 NTSC, SMPTE 170M
Transfer characteristics         : BT.709-5, BT.1361
Matrix coefficients              : BT.601-6 525, BT.1358 525, BT.1700 NTSC, SMPTE 170M
Audio
ID                               : 2
Format                           : AAC
Format/Info                      : Advanced Audio Codec
Format version                   : Version 4
Format profile                   : LC
Codec ID                         : 40
Duration                         : 3mn 54s
Bit rate mode                    : Constant
Bit rate                         : 256 Kbps
Channel(s)                       : 2 channels
Channel positions                : Front: L R
Sampling rate                    : 44.1 KHz
Stream size                      : 6.89 MiB (13%)
Language                         : English
Encoded date                     : UTC 2015-01-05 14:00:42
Tagged date                      : UTC 2015-01-05 14:00:43


09. Ноябрь (Видео)
Видео - WEB-DL, MPEG-4 Video (H264), English, 1 061 Kbps, 640*480 (16:9), 25.000 fps, YUV
Аудио - English, 256 Kbps, 44.1 KHz, 2 channels, AAC (LC)





MediaInfo

General
Complete name                    : D:\磁力下载:s\2015 - Мумий Тролль - Пиратские копии EP\09 - Ноябрь (Видео).m4v
Format                           : MPEG-4
Codec ID                         : M4V
File size                        : 56.4 MiB
Duration                         : 5mn 53s
Overall bit rate                 : 1 340 Kbps
Movie name                       : Ноябрь (Видео)
Track name/Position              : 9
Track name/Total                 : 0
Performer                        : Мумий Тролль
Genre                            : Rock
Encoded date                     : UTC 2015-01-12 08:00:00
Tagged date                      : UTC 2015-01-05 15:47:00
Copyright                        : © 2014 Mumiy Troll
Cover                            : Yes
apID                             : i.am@svejaque.com
ownr                             : Andrey  Pinchuk
cnID                             : 955431689
rtng                             : 0
atID                             : 268782751
geID                             : 1621
sfID                             : 143469
stik                             : 6
purd                             : 2015-01-12 22:20:30
sonm                             : Ноябрь (Видео)
soar                             : Мумий Тролль
xid                              : BelieveSAS:vendor_id:3614590619800_US3KM1490005
iTunEXTC                         : ||0|
iTunMOVI                         :  /  /  /  /  asset-info /   /   file-size /   59189450 /   flavor /   6:640x480LC-256 /   screen-format /   widescreen /   /  /
Video
ID                               : 1
Format                           : AVC
Format/Info                      : Advanced Video Codec
Format profile                   : Baseline@L3.0
Format settings, CABAC           : No
Format settings, ReFrames        : 1 frame
Format settings, GOP             : M=1, N=22
Codec ID                         : avc1
Codec ID/Info                    : Advanced Video Coding
Duration                         : 5mn 53s
Bit rate mode                    : Variable
Bit rate                         : 1 061 Kbps
Width                            : 640 pixels
Height                           : 480 pixels
Display aspect ratio             : 16:9
Frame rate mode                  : Constant
Frame rate                       : 25.000 fps
Color space                      : YUV
Chroma subsampling               : 4:2:0
Bit depth                        : 8 bits
Scan type                        : Progressive
Bits/(Pixel*Frame)               : 0.138
Stream size                      : 44.7 MiB (79%)
Language                         : English
Encoded date                     : UTC 2015-01-05 15:46:59
Tagged date                      : UTC 2015-01-05 15:47:00
Color primaries                  : BT.601-6 525, BT.1358 525, BT.1700 NTSC, SMPTE 170M
Transfer characteristics         : BT.709-5, BT.1361
Matrix coefficients              : BT.601-6 525, BT.1358 525, BT.1700 NTSC, SMPTE 170M
Audio
ID                               : 2
Format                           : AAC
Format/Info                      : Advanced Audio Codec
Format version                   : Version 4
Format profile                   : LC
Codec ID                         : 40
Duration                         : 5mn 53s
Bit rate mode                    : Constant
Bit rate                         : 256 Kbps
Channel(s)                       : 2 channels
Channel positions                : Front: L R
Sampling rate                    : 44.1 KHz
Stream size                      : 10.6 MiB (19%)
Language                         : English
Encoded date                     : UTC 2015-01-05 15:46:59
Tagged date                      : UTC 2015-01-05 15:47:00

                                                                                       
                       
                       
                       
                       
                       
                                磁力下载:
                                                               
                                       
付费主题

已有0人支付


                                               
  • 313.5 MB
  • 温馨提示

    记得善用社区搜索功能,那里可能会有你想要的资源;论坛站内搜索

    如果你有什么需要的资源可以去资源求档发帖,求助社区的网友,我们会在第一时间给你回复哦;资源求档

    对于本社区网盘链接失效密码错误各种报错请在反馈板块反馈报错发帖,您的支持,是我们发展的最大动力;投诉建议

    回复

    使用道具 举报

    您需要登录后才可以回帖 登录 | 立即注册 微信登录

    本版积分规则

    关注0

    粉丝3

    帖子31723

    发布主题
    阅读排行更多+
    关闭

    站长推荐上一条 /1 下一条

    活动提示

    赞助永久VIP会员送3T硬盘一块 限时活动

    地址:立刻参加

    我知道了
    收藏帖子 返回列表 这是一个自定义按钮
    音乐分享,音乐下载。
    微信公众号
    微信号:hires_
    意见反馈:admin@maomicd.com

    加入我们的官方QQ群和微信群

    Powered by Discuz! X3.4 Archiver|手机版|小黑屋|捌零音乐论坛 ( 苏ICP备20015413号 )|( 苏公网安备 32030502000272号) 繁體

    GMT+8, 2021-10-17 18:42