[古典] (Orchestral) [WEB] Bruckner - Symphonie Nr.8 (Wiener Philharmoniker - Furtwangler) - Pristine XR-remastering, ambient stereo - 2010, FLAC (tracks) lossless

[复制链接]
如果有神 发表于 2021-9-10 16:56:59 | 显示全部楼层 |阅读模式 打印 上一主题 下一主题
Bruckner - Symphonie Nr.8
Wiener Philharmoniker - Wilhelm Furtwängler
Жанр: Orchestral
Носитель: WEB
Страна-производитель диска: France
Год издания диска: 2010
Издатель (лейбл): Pristine
Номер по каталогу: PASC260
Дата записи: 17.10.1944
Аудиокодек: FLAC, mono
Тип рипа: tracks
Битрейт аудио: lossless
Продолжительность: 77'09''
Источник: скачано с
сайт-источник/ник/другое: PristineClassical
Наличие сканов в содержимом раздачи: да
Треклист:
Anton Bruckner - Symphonie Nr.8:
[01] I. Allegro moderato
[02] II. Scherzo. Allegro moderato - Trio. Langsam
[03] III. Adagio. Feierlich langsam, doch nicht schleppend
[04] IV. Finale. Feierlich, nicht schnell
Исполнители:
Wiener Philharmoniker - Wilhelm Furtwängler


Лог проверки качества

-----------------------
DON'T MODIFY THIS FILE
-----------------------
PERFORMER: auCDtect Task Manager, ver. 1.6.0 RC1 build 1.6.0.1
Copyright (c) 2008-2010 y-soft. All rights reserved
http://y-soft.org
ANALYZER: auCDtect: CD records authenticity detector, version 0.8.2
Copyright (c) 2004 Oleg Berngardt. All rights reserved.
Copyright (c) 2004 Alexander Djourik. All rights reserved.
FILE: 01 - Symphony No. 8 - I. Allegro moderato.flac
  Size: 58640074 Hash: A54B3ADD74CCD9FBF60D1E0D7C8AEE91 Accuracy: -m0
  Conclusion: CDDA 100%
  Signature: 397113DC344381933B5A7B6CAED751A9541BCE54
FILE: 04 - Symphony No. 8 - IV. Finale. Feierlich, nicht schnell.flac
  Size: 81970746 Hash: 039926AC7DBBCF38CEF71CCC8FF7046F Accuracy: -m0
  Conclusion: CDDA 100%
  Signature: 05E6B4DD4F5833C1B4A3D346208945AC9EA13674
FILE: 03 - Symphony No. 8 - III. Adagio. Feierlich langsam, doch nicht schleppend.flac
  Size: 93464162 Hash: 67A13E57806AE5008A863715EC0A0B6D Accuracy: -m0
  Conclusion: CDDA 100%
  Signature: B35FC6D137CB56CB9A1CA6E84579B721B3BC9A70
FILE: 02 - Symphony No. 8 - II. Scherzo. Allegro moderato - Trio. Langsam.flac
  Size: 61201773 Hash: 61DBCE38269FE1508CB242AA5A24897F Accuracy: -m0
  Conclusion: CDDA 100%
  Signature: FF45D62F6BF45A618042929EC5A3C07D86F87DB9


Динамический отчет (DR)

foobar2000 1.6.6 / Dynamic Range Meter 1.1.1
log date: 2021-09-08 21:57:15
--------------------------------------------------------------------------------
Analyzed: Wilhelm Furtwängler / Bruckner : Symphony No. 8 in B flat major
--------------------------------------------------------------------------------
DR         Peak         RMS     Duration Track
--------------------------------------------------------------------------------
DR14       0.00 dB   -19.63 dB     15:17 01-Symphony No. 8 - I. Allegro moderato
DR15      -0.43 dB   -21.13 dB     14:15 02-Symphony No. 8 - II. Scherzo. Allegro moderato - Trio. Langsam
DR15      -0.30 dB   -22.92 dB     25:14 03-Symphony No. 8 - III. Adagio. Feierlich langsam, doch nicht schleppend
DR13      -1.00 dB   -20.29 dB     22:23 04-Symphony No. 8 - IV. Finale. Feierlich, nicht schnell
--------------------------------------------------------------------------------
Number of tracks:  4
Official DR value: DR14
Samplerate:        44100 Hz
Channels:          2
Bits per sample:   16
Bitrate:           488 kbps
Codec:             FLAC
================================================================================

                                                                                       
                       
                       
                       
                       
                       
                                磁力下载(论坛代下载服务)::
                                                               
                                       
付费主题

已有0人支付


                                               
  • 283.3 MB
  • 温馨提示

    记得善用社区搜索功能,那里可能会有你想要的资源;论坛站内搜索

    如果你有什么需要的资源可以去资源求档发帖,求助社区的网友,我们会在第一时间给你回复哦;资源求档

    对于本社区网盘链接失效密码错误各种报错请在反馈板块反馈报错发帖,您的支持,是我们发展的最大动力;投诉建议

    回复

    使用道具 举报

    您需要登录后才可以回帖 登录 | 立即注册 微信登录

    本版积分规则

    发布主题
    阅读排行更多+
    关闭

    站长推荐上一条 /1 下一条

    活动提示

    赞助永久VIP会员送3T硬盘一块 限时活动

    地址:立刻参加

    我知道了
    收藏帖子 返回列表 这是一个自定义按钮
    音乐分享,音乐下载。
    微信公众号
    微信号:hires_
    意见反馈:admin@maomicd.com

    加入我们的官方QQ群和微信群

    Powered by Discuz! X3.4 Archiver|手机版|小黑屋|捌零音乐论坛 ( 苏ICP备20015413号 )|( 苏公网安备 32030502000272号) 繁體

    GMT+8, 2021-9-24 05:13