[古典] (Orchestral) [WEB] Bruckner - Symphonie Nr.9 (Berliner Philharmoniker - Furtwangler) - Pristine XR-remastering, ambient stereo - 2010, FLAC (tracks) lossless

[复制链接]
lz189 发表于 6 天前 | 显示全部楼层 |阅读模式 打印 上一主题 下一主题
Bruckner - Symphonie Nr.9
Berliner Philharmoniker - Wilhelm Furtwängler
Жанр: Orchestral
Носитель: WEB
Страна-производитель диска: France
Год издания диска: 2010
Издатель (лейбл): Pristine
Номер по каталогу: PASC251
Дата записи: 7.10.1944
Аудиокодек: FLAC
Тип рипа: tracks
Битрейт аудио: lossless
Продолжительность: 59'01''
Источник: скачано с
сайт-источник/ник/другое: PristineClassical
Наличие сканов в содержимом раздачи: да
Треклист:
Anton Bruckner - Symphonie Nr.9:
[01] I. Feierlich. Misterioso
[02] II. Scherzo. Bewegt, lebhaft - Trio. Schnell
[03] III. Adagio. Langsam, feierlich
Исполнители:
Berliner Philharmoniker - Wilhelm Furtwängler


Лог проверки качества

-----------------------
DON'T MODIFY THIS FILE
-----------------------
PERFORMER: auCDtect Task Manager, ver. 1.6.0 RC1 build 1.6.0.1
Copyright (c) 2008-2010 y-soft. All rights reserved
http://y-soft.org
ANALYZER: auCDtect: CD records authenticity detector, version 0.8.2
Copyright (c) 2004 Oleg Berngardt. All rights reserved.
Copyright (c) 2004 Alexander Djourik. All rights reserved.
FILE: 03 - Symphony No. 9 in D minor - III. Adagio. Langsam, feierlich.flac
  Size: 83285024 Hash: 47658484351FEA25C205B3DC51E3F5F5 Accuracy: -m0
  Conclusion: MPEG 97%
  Signature: C1182E0D8E29275CA2FD12C483C338536E771F73
FILE: 02 - Symphony No. 9 in D minor - II. Scherzo. Bewegt, lebhaft - Trio. Schnell.flac
  Size: 31200314 Hash: 6E2CD2556DA2B63D4B02FCCA10BD7062 Accuracy: -m0
  Conclusion: MPEG 100%
  Signature: E81F1828CDEDB3B5E3FB1A8A8A143CCA247A08A9
FILE: 01 - Symphony No. 9 in D minor - I. Feierlich. Misterioso.flac
  Size: 83410605 Hash: 3DF6CC5E5F77A1F7335EDBDA0856A465 Accuracy: -m0
  Conclusion: MPEG 90%
  Signature: 9B266A2024B64E4FF8CDAC9D217CC547ECF95DC9


Динамический отчет (DR)

foobar2000 1.6.6 / Dynamic Range Meter 1.1.1
log date: 2021-09-04 18:51:08
--------------------------------------------------------------------------------
Analyzed: Wilhelm Furtwängler / Bruckner : Symphony No. 9 in D minor
--------------------------------------------------------------------------------
DR         Peak         RMS     Duration Track
--------------------------------------------------------------------------------
DR12      -0.01 dB   -17.76 dB     23:44 01-Symphony No. 9 in D minor I. Feierlich. Misterioso
DR11      -0.63 dB   -17.67 dB      9:37 02-Symphony No. 9 in D minor II. Scherzo. Bewegt, lebhaft - Trio. Schnell
DR14      -1.60 dB   -22.22 dB     25:39 03-Symphony No. 9 in D minor III. Adagio. Langsam, feierlich
--------------------------------------------------------------------------------
Number of tracks:  3
Official DR value: DR12
Samplerate:        44100 Hz
Channels:          2
Bits per sample:   16
Bitrate:           433 kbps
Codec:             FLAC
================================================================================


Скриншот спектра частот






                                                                                       
                       
                       
                       
                       
                       
                                磁力下载(论坛代下载服务)::
                                                               
                                       
付费主题

已有0人支付


                                               
  • 191 MB
  • 温馨提示

    记得善用社区搜索功能,那里可能会有你想要的资源;论坛站内搜索

    如果你有什么需要的资源可以去资源求档发帖,求助社区的网友,我们会在第一时间给你回复哦;资源求档

    对于本社区网盘链接失效密码错误各种报错请在反馈板块反馈报错发帖,您的支持,是我们发展的最大动力;投诉建议

    回复

    使用道具 举报

    您需要登录后才可以回帖 登录 | 立即注册 微信登录

    本版积分规则

    关注0

    粉丝0

    帖子31255

    发布主题
    阅读排行更多+
    关闭

    站长推荐上一条 /1 下一条

    活动提示

    赞助永久VIP会员送3T硬盘一块 限时活动

    地址:立刻参加

    我知道了
    收藏帖子 返回列表 这是一个自定义按钮
    音乐分享,音乐下载。
    微信公众号
    微信号:hires_
    意见反馈:admin@maomicd.com

    加入我们的官方QQ群和微信群

    Powered by Discuz! X3.4 Archiver|手机版|小黑屋|捌零音乐论坛 ( 苏ICP备20015413号 )|( 苏公网安备 32030502000272号) 繁體

    GMT+8, 2021-9-16 23:50