[古典] (Classical orchestral suite) Rameau - Hippolyte et Aricie. Suite pour Orchestre [rec. 1979] (La Petite Bande, Sigiswald Kujken) - 1990, FLAC (image+.cue) lossless

[复制链接]
kayda 发表于 2021-9-10 16:56:59 | 显示全部楼层 |阅读模式 打印 上一主题 下一主题
Rameau - Hippolyte et Aricie. Suite pour Orchestre (La Petite Bande, Sigiswald Kujken)
Жанр: Classical orchestral suite
Страна-производитель диска: Made in Germany
Год издания диска: 1990
Издатель (лейбл): Deutsche Harmonia Mundi ; Серии: Editio Classica
Номер по каталогу: GD77009
Дата записи: 1979
Аудиокодек: FLAC
Тип рипа: image+.cue
Битрейт аудио: lossless
Продолжительность: 51:39
Источник: релизер
сайт-источник/ник/другое: Tubarec from Meeting Music; Caterina Sforza - работа с cue, доп. сканы
Наличие сканов в содержимом раздачи: да, полный авторский буклет jpeg, 15 стр.
Треклист:
Prologue
1 Ouverture 3:05
2 Entrée Des Habitants de la Forêt 1:44
3 Air En Rondeau Pour Les Amours 2:22
4 Gavottes 1 Et 2 1:48
5 Menuets 1 Et 2 2:37
6 Gavottes Vives 1 Et 2 1:57
7 Marche 0:59
1er Acte
8 Marche Des Prêtresses de Diane 2:06
9 Premier Air (Gracieusement Et Doux) 2:08
10 Second Air (Un Peu Gai) 1:44
11 Tonnerre 1:12
2e Acte
12 Premier Air Des Furies (Gravement) 1:41
13 Deuxième Air Des Furies (Vite) 1:44
14 Troisième Air Des Furies (Comp. 1757) 2:03
15 Ritournelle (Comp. 1742) 2:02
16 Marche Des Tréseniens Et Des Matelots 1:20
17 Air Gai (Comp. 1757) 1:39
18 Menuet 0:43
19 Tambourins 1, 2 Et 3 (Comp. 1757) 2:00
20 1er Rigaudon En Tambourin Et 2e Rigaudon 1:51
4e Acte
21 Rondeau 1:07
22 Menuets 1 Et 2 2:57
5e Acte
23 Symphonie (Scène 3) (Gracieusement) 2:49
24 Vol Des Zéphyrs (Très Vite) 0:43
25 Marche (à 3/4!) 1:03
26 Chaconne 3:20
27 Gavottes 1 Et 2 (Comp. 1757) 2:06
Исполнители

Jean-Philippe Rameau (1683-1764)
Hippolyte et Aricie. Suite pour Orchestre
La Petite Bande
Sigiswald Kuijken, dir.


Лог создания рипа

Exact Audio Copy V1.5 from 20. February 2020
EAC extraction logfile from 11. March 2020, 14:47
La Petite Bande - Sigiswald Kujken / Rameau - Hippolyte & Aricie - Suite
Used drive  : ASUS    DRW-24B1ST   j   Adapter: 1  ID: 0
Read mode               : Secure
Utilize accurate stream : Yes
Defeat audio cache      : Yes
Make use of C2 pointers : No
Read offset correction                      : 6
Overread into Lead-In and Lead-Out          : No
Fill up missing offset samples with silence : Yes
Delete leading and trailing silent blocks   : No
Null samples used in CRC calculations       : Yes
Used interface                              : Native Win32 interface for Win NT & 2000
Used output format              : User Defined Encoder
Selected bitrate                : 896 kBit/s
Quality                         : High
Add ID3 tag                     : No
Command line compressor         : C:\Program Files (x86)\Exact Audio Copy\FLAC\FLAC.EXE
Additional command line options : -6 -V -T "ARTIST=%artist%" -T "TITLE=%title%" -T "ALBUM=%albumtitle%" -T "DATE=%year%" -T "TRACKNUMBER=%tracknr%" -T "GENRE=%genre%" -T "COMMENT=%comment%" -T "BAND=%albuminterpret%" -T "ALBUMARTIST=%albuminterpret%" -T "COMPOSER=%composer%" %haslyrics%--tag-from-file=LYRICS="%lyricsfile%"%haslyrics% -T "DISCNUMBER=%cdnumber%" -T "TOTALDISCS=%totalcds%" -T "TOTALTRACKS=%numtracks%" %hascover%--picture="%coverfile%"%hascover% %source% -o %dest%
TOC of the extracted CD
     Track |   Start  |  Length  | Start sector | End sector
    ---------------------------------------------------------
        1  |  0:00.37 |  3:07.58 |        37    |    14119
        2  |  3:08.20 |  1:48.05 |     14120    |    22224
        3  |  4:56.25 |  2:22.12 |     22225    |    32886
        4  |  7:18.37 |  1:50.23 |     32887    |    41159
        5  |  9:08.60 |  2:37.37 |     41160    |    52971
        6  | 11:46.22 |  1:56.70 |     52972    |    61741
        7  | 13:43.17 |  1:05.48 |     61742    |    66664
        8  | 14:48.65 |  2:00.70 |     66665    |    75734
        9  | 16:49.60 |  2:08.45 |     75735    |    85379
       10  | 18:58.30 |  1:46.12 |     85380    |    93341
       11  | 20:44.42 |  1:16.63 |     93342    |    99104
       12  | 22:01.30 |  1:40.60 |     99105    |   106664
       13  | 23:42.15 |  1:43.72 |    106665    |   114461
       14  | 25:26.12 |  2:10.25 |    114462    |   124236
       15  | 27:36.37 |  2:05.23 |    124237    |   133634
       16  | 29:41.60 |  1:20.70 |    133635    |   139704
       17  | 31:02.55 |  1:39.17 |    139705    |   147146
       18  | 32:41.72 |  0:43.25 |    147147    |   150396
       19  | 33:25.22 |  2:00.33 |    150397    |   159429
       20  | 35:25.55 |  1:55.45 |    159430    |   168099
       21  | 37:21.25 |  1:06.57 |    168100    |   173106
       22  | 38:28.07 |  3:04.03 |    173107    |   186909
       23  | 41:32.10 |  2:50.50 |    186910    |   199709
       24  | 44:22.60 |  0:46.10 |    199710    |   203169
       25  | 45:08.70 |  1:03.22 |    203170    |   207916
       26  | 46:12.17 |  3:20.70 |    207917    |   222986
       27  | 49:33.12 |  2:06.35 |    222987    |   232471
Range status and errors
Selected range
     Filename M:\Rameau - Orchestral Suites\La Petite Bande - Sigiswald Kujken - Rameau - Hippolyte & Aricie - Suite\La Petite Bande - Sigiswald Kujken - Rameau - Hippolyte & Aricie - Suite.wav
     Peak level 94.7 %
     Extraction speed 7.5 X
     Range quality 100.0 %
     Test CRC 2D58A814
     Copy CRC 2D58A814
     Copy OK
No errors occurred
AccurateRip summary
Track  1  accurately ripped (confidence 6)  [3A87D9FA]  (AR v2)
Track  2  accurately ripped (confidence 6)  [4E7AAAC2]  (AR v2)
Track  3  accurately ripped (confidence 6)  [C0454B2E]  (AR v2)
Track  4  accurately ripped (confidence 6)  [ED09A9C1]  (AR v2)
Track  5  accurately ripped (confidence 6)  [01BC04EB]  (AR v2)
Track  6  accurately ripped (confidence 6)  [A440D092]  (AR v2)
Track  7  accurately ripped (confidence 6)  [C69C74A7]  (AR v2)
Track  8  accurately ripped (confidence 6)  [F1ED1EA6]  (AR v2)
Track  9  accurately ripped (confidence 6)  [02039A92]  (AR v2)
Track 10  accurately ripped (confidence 6)  [DB49FEFC]  (AR v2)
Track 11  accurately ripped (confidence 6)  [D9BD9165]  (AR v2)
Track 12  accurately ripped (confidence 6)  [3AD445BB]  (AR v2)
Track 13  accurately ripped (confidence 6)  [53F6A479]  (AR v2)
Track 14  accurately ripped (confidence 6)  [B727986D]  (AR v2)
Track 15  accurately ripped (confidence 6)  [5F788710]  (AR v2)
Track 16  accurately ripped (confidence 6)  [F811E2E8]  (AR v2)
Track 17  accurately ripped (confidence 6)  [AC3625ED]  (AR v2)
Track 18  accurately ripped (confidence 6)  [FDA8FFB7]  (AR v2)
Track 19  accurately ripped (confidence 6)  [0C0B9C67]  (AR v2)
Track 20  accurately ripped (confidence 6)  [422AE794]  (AR v2)
Track 21  accurately ripped (confidence 6)  [200926AA]  (AR v2)
Track 22  accurately ripped (confidence 6)  [49B856C9]  (AR v2)
Track 23  accurately ripped (confidence 6)  [4AC645D8]  (AR v2)
Track 24  accurately ripped (confidence 6)  [757C221E]  (AR v2)
Track 25  accurately ripped (confidence 6)  [FA111AEF]  (AR v2)
Track 26  accurately ripped (confidence 6)  [4C5D8B55]  (AR v2)
Track 27  accurately ripped (confidence 6)  [FEA262D5]  (AR v2)
All tracks accurately ripped
End of status report
---- CUETools DB Plugin V2.1.6
[CTDB TOCID: MusCLCvzMcGYkpgzSqW1Z7B08jo-] found
Submit result: MusCLCvzMcGYkpgzSqW1Z7B08jo- has been confirmed
Track | CTDB Status
  1   | (121/121) Accurately ripped
  2   | (121/121) Accurately ripped
  3   | (121/121) Accurately ripped
  4   | (121/121) Accurately ripped
  5   | (121/121) Accurately ripped
  6   | (121/121) Accurately ripped
  7   | (121/121) Accurately ripped
  8   | (121/121) Accurately ripped
  9   | (121/121) Accurately ripped
10   | (121/121) Accurately ripped
11   | (121/121) Accurately ripped
12   | (121/121) Accurately ripped
13   | (121/121) Accurately ripped
14   | (121/121) Accurately ripped
15   | (121/121) Accurately ripped
16   | (121/121) Accurately ripped
17   | (121/121) Accurately ripped
18   | (121/121) Accurately ripped
19   | (121/121) Accurately ripped
20   | (121/121) Accurately ripped
21   | (121/121) Accurately ripped
22   | (121/121) Accurately ripped
23   | (120/121) Accurately ripped
24   | (121/121) Accurately ripped
25   | (121/121) Accurately ripped
26   | (120/121) Accurately ripped
27   | (119/121) Accurately ripped
==== Log checksum 7177E8B917AB867D1D238C104FE5928C8715E8728C7A6AC0F3625F6EFE1DED9D ====
------------------------------------------------------------
Exact Audio Copy V1.5 from 20. February 2020
EAC extraction logfile from 11. March 2020, 14:48
La Petite Bande - Sigiswald Kujken / Rameau - Hippolyte & Aricie - Suite
Used drive  : ASUS    DRW-24B1ST   j   Adapter: 1  ID: 0
Read mode               : Secure
Utilize accurate stream : Yes
Defeat audio cache      : Yes
Make use of C2 pointers : No
Read offset correction                      : 6
Overread into Lead-In and Lead-Out          : No
Fill up missing offset samples with silence : Yes
Delete leading and trailing silent blocks   : No
Null samples used in CRC calculations       : Yes
Used interface                              : Native Win32 interface for Win NT & 2000
Used output format              : User Defined Encoder
Selected bitrate                : 896 kBit/s
Quality                         : High
Add ID3 tag                     : No
Command line compressor         : C:\Program Files (x86)\Exact Audio Copy\FLAC\FLAC.EXE
Additional command line options : -6 -V -T "ARTIST=%artist%" -T "TITLE=%title%" -T "ALBUM=%albumtitle%" -T "DATE=%year%" -T "TRACKNUMBER=%tracknr%" -T "GENRE=%genre%" -T "COMMENT=%comment%" -T "BAND=%albuminterpret%" -T "ALBUMARTIST=%albuminterpret%" -T "COMPOSER=%composer%" %haslyrics%--tag-from-file=LYRICS="%lyricsfile%"%haslyrics% -T "DISCNUMBER=%cdnumber%" -T "TOTALDISCS=%totalcds%" -T "TOTALTRACKS=%numtracks%" %hascover%--picture="%coverfile%"%hascover% %source% -o %dest%
TOC of the extracted CD
     Track |   Start  |  Length  | Start sector | End sector
    ---------------------------------------------------------
        1  |  0:00.37 |  3:07.58 |        37    |    14119
        2  |  3:08.20 |  1:48.05 |     14120    |    22224
        3  |  4:56.25 |  2:22.12 |     22225    |    32886
        4  |  7:18.37 |  1:50.23 |     32887    |    41159
        5  |  9:08.60 |  2:37.37 |     41160    |    52971
        6  | 11:46.22 |  1:56.70 |     52972    |    61741
        7  | 13:43.17 |  1:05.48 |     61742    |    66664
        8  | 14:48.65 |  2:00.70 |     66665    |    75734
        9  | 16:49.60 |  2:08.45 |     75735    |    85379
       10  | 18:58.30 |  1:46.12 |     85380    |    93341
       11  | 20:44.42 |  1:16.63 |     93342    |    99104
       12  | 22:01.30 |  1:40.60 |     99105    |   106664
       13  | 23:42.15 |  1:43.72 |    106665    |   114461
       14  | 25:26.12 |  2:10.25 |    114462    |   124236
       15  | 27:36.37 |  2:05.23 |    124237    |   133634
       16  | 29:41.60 |  1:20.70 |    133635    |   139704
       17  | 31:02.55 |  1:39.17 |    139705    |   147146
       18  | 32:41.72 |  0:43.25 |    147147    |   150396
       19  | 33:25.22 |  2:00.33 |    150397    |   159429
       20  | 35:25.55 |  1:55.45 |    159430    |   168099
       21  | 37:21.25 |  1:06.57 |    168100    |   173106
       22  | 38:28.07 |  3:04.03 |    173107    |   186909
       23  | 41:32.10 |  2:50.50 |    186910    |   199709
       24  | 44:22.60 |  0:46.10 |    199710    |   203169
       25  | 45:08.70 |  1:03.22 |    203170    |   207916
       26  | 46:12.17 |  3:20.70 |    207917    |   222986
       27  | 49:33.12 |  2:06.35 |    222987    |   232471
Range status and errors
Selected range
     Filename M:\Rameau - Orchestral Suites\La Petite Bande - Sigiswald Kujken - Rameau - Hippolyte & Aricie - Suite\La Petite Bande - Sigiswald Kujken - Rameau - Hippolyte & Aricie - Suite.wav
     Peak level 94.7 %
     Extraction speed 7.5 X
     Range quality 100.0 %
     Test CRC 2D58A814
     Copy CRC 2D58A814
     Copy OK
No errors occurred
AccurateRip summary
Track  1  accurately ripped (confidence 6)  [3A87D9FA]  (AR v2)
Track  2  accurately ripped (confidence 6)  [4E7AAAC2]  (AR v2)
Track  3  accurately ripped (confidence 6)  [C0454B2E]  (AR v2)
Track  4  accurately ripped (confidence 6)  [ED09A9C1]  (AR v2)
Track  5  accurately ripped (confidence 6)  [01BC04EB]  (AR v2)
Track  6  accurately ripped (confidence 6)  [A440D092]  (AR v2)
Track  7  accurately ripped (confidence 6)  [C69C74A7]  (AR v2)
Track  8  accurately ripped (confidence 6)  [F1ED1EA6]  (AR v2)
Track  9  accurately ripped (confidence 6)  [02039A92]  (AR v2)
Track 10  accurately ripped (confidence 6)  [DB49FEFC]  (AR v2)
Track 11  accurately ripped (confidence 6)  [D9BD9165]  (AR v2)
Track 12  accurately ripped (confidence 6)  [3AD445BB]  (AR v2)
Track 13  accurately ripped (confidence 6)  [53F6A479]  (AR v2)
Track 14  accurately ripped (confidence 6)  [B727986D]  (AR v2)
Track 15  accurately ripped (confidence 6)  [5F788710]  (AR v2)
Track 16  accurately ripped (confidence 6)  [F811E2E8]  (AR v2)
Track 17  accurately ripped (confidence 6)  [AC3625ED]  (AR v2)
Track 18  accurately ripped (confidence 6)  [FDA8FFB7]  (AR v2)
Track 19  accurately ripped (confidence 6)  [0C0B9C67]  (AR v2)
Track 20  accurately ripped (confidence 6)  [422AE794]  (AR v2)
Track 21  accurately ripped (confidence 6)  [200926AA]  (AR v2)
Track 22  accurately ripped (confidence 6)  [49B856C9]  (AR v2)
Track 23  accurately ripped (confidence 6)  [4AC645D8]  (AR v2)
Track 24  accurately ripped (confidence 6)  [757C221E]  (AR v2)
Track 25  accurately ripped (confidence 6)  [FA111AEF]  (AR v2)
Track 26  accurately ripped (confidence 6)  [4C5D8B55]  (AR v2)
Track 27  accurately ripped (confidence 6)  [FEA262D5]  (AR v2)
All tracks accurately ripped
End of status report
---- CUETools DB Plugin V2.1.6
[CTDB TOCID: MusCLCvzMcGYkpgzSqW1Z7B08jo-] found
Submit result: MusCLCvzMcGYkpgzSqW1Z7B08jo- has been confirmed
Track | CTDB Status
  1   | (121/121) Accurately ripped
  2   | (121/121) Accurately ripped
  3   | (121/121) Accurately ripped
  4   | (121/121) Accurately ripped
  5   | (121/121) Accurately ripped
  6   | (121/121) Accurately ripped
  7   | (121/121) Accurately ripped
  8   | (121/121) Accurately ripped
  9   | (121/121) Accurately ripped
10   | (121/121) Accurately ripped
11   | (121/121) Accurately ripped
12   | (121/121) Accurately ripped
13   | (121/121) Accurately ripped
14   | (121/121) Accurately ripped
15   | (121/121) Accurately ripped
16   | (121/121) Accurately ripped
17   | (121/121) Accurately ripped
18   | (121/121) Accurately ripped
19   | (121/121) Accurately ripped
20   | (121/121) Accurately ripped
21   | (121/121) Accurately ripped
22   | (121/121) Accurately ripped
23   | (120/121) Accurately ripped
24   | (121/121) Accurately ripped
25   | (121/121) Accurately ripped
26   | (120/121) Accurately ripped
27   | (119/121) Accurately ripped
==== Log checksum F755A78274700F66DD4A9CE534B76A484A064BFD8BD8B703ACC527D3485141EA ====


Содержание индексной карты (.CUE)

REM GENRE Classique
REM DATE 1979
PERFORMER "La Petite Bande, Sigiswald Kuijken (dir.)"
TITLE "Rameau - Hippolyte et Aricie. Suite pour Orchestre"
REM COMPOSER "Jean-Philippe Rameau (1683-1764)"
FILE "Sigiswald Kujken - Rameau - Hippolyte et Aricie. Suite pour Orchestre.flac" WAVE
  TRACK 01 AUDIO
    TITLE "HIPPOLYTE ET ARICIE, Tragédie en 5 actes et un prologue. Suite pour Orchestre (1733): Prologue - Ouverture"
    PERFORMER "La Petite Bande, Sigiswald Kuijken"
    REM COMPOSER "Jean-Philippe Rameau"
    INDEX 00 00:00:00
    INDEX 01 00:00:37
  TRACK 02 AUDIO
    TITLE "Prologue - Entrée des Habitants de la Forêt"
    PERFORMER "La Petite Bande, Sigiswald Kuijken"
    REM COMPOSER "Jean-Philippe Rameau"
    INDEX 00 03:05:70
    INDEX 01 03:08:20
  TRACK 03 AUDIO
    TITLE "Prologue - Air en rondeau pour Les Amours"
    PERFORMER "La Petite Bande, Sigiswald Kuijken"
    REM COMPOSER "Jean-Philippe Rameau"
    INDEX 00 04:52:12
    INDEX 01 04:56:25
  TRACK 04 AUDIO
    TITLE "Prologue - Gavottes I et II"
    PERFORMER "La Petite Bande, Sigiswald Kuijken"
    REM COMPOSER "Jean-Philippe Rameau"
    INDEX 00 07:17:70
    INDEX 01 07:18:37
  TRACK 05 AUDIO
    TITLE "Prologue - Menuets I et II"
    PERFORMER "La Petite Bande, Sigiswald Kuijken"
    REM COMPOSER "Jean-Philippe Rameau"
    INDEX 00 09:06:70
    INDEX 01 09:08:60
  TRACK 06 AUDIO
    TITLE "Prologue - Gavottes vives I et II"
    PERFORMER "La Petite Bande, Sigiswald Kuijken"
    REM COMPOSER "Jean-Philippe Rameau"
    INDEX 00 11:45:70
    INDEX 01 11:46:22
  TRACK 07 AUDIO
    TITLE "Prologue - Marche"
    PERFORMER "La Petite Bande, Sigiswald Kuijken"
    REM COMPOSER "Jean-Philippe Rameau"
    INDEX 00 13:42:70
    INDEX 01 13:43:17
  TRACK 08 AUDIO
    TITLE "Acte I - Marche des Prêtresses de Diane"
    PERFORMER "La Petite Bande, Sigiswald Kuijken"
    REM COMPOSER "Jean-Philippe Rameau"
    INDEX 00 14:43:70
    INDEX 01 14:48:65
  TRACK 09 AUDIO
    TITLE "Acte I - Premier air (gracieusement et doux)"
    PERFORMER "La Petite Bande, Sigiswald Kuijken"
    REM COMPOSER "Jean-Philippe Rameau"
    INDEX 00 16:48:70
    INDEX 01 16:49:60
  TRACK 10 AUDIO
    TITLE "Acte I - Second air (un peu gai)"
    PERFORMER "La Petite Bande, Sigiswald Kuijken"
    REM COMPOSER "Jean-Philippe Rameau"
    INDEX 00 18:57:70
    INDEX 01 18:58:30
  TRACK 11 AUDIO
    TITLE "Acte I - Tonnerre"
    PERFORMER "La Petite Bande, Sigiswald Kuijken"
    REM COMPOSER "Jean-Philippe Rameau"
    INDEX 00 20:41:70
    INDEX 01 20:44:42
  TRACK 12 AUDIO
    TITLE "Acte II - Premier Air des furies (gravement)"
    PERFORMER "La Petite Bande, Sigiswald Kuijken"
    REM COMPOSER "Jean-Philippe Rameau"
    INDEX 00 21:56:25
    INDEX 01 22:01:30
  TRACK 13 AUDIO
    TITLE "Acte II - Deuxième Air des furies (vite)"
    PERFORMER "La Petite Bande, Sigiswald Kuijken"
    REM COMPOSER "Jean-Philippe Rameau"
    INDEX 00 23:41:70
    INDEX 01 23:42:15
  TRACK 14 AUDIO
    TITLE "Acte II - Troisième Air des furies (composé 1757)"
    PERFORMER "La Petite Bande, Sigiswald Kuijken"
    REM COMPOSER "Jean-Philippe Rameau"
    INDEX 00 25:25:70
    INDEX 01 25:26:12
  TRACK 15 AUDIO
    TITLE "Acte III - Ritournelle (composé 1742)"
    PERFORMER "La Petite Bande, Sigiswald Kuijken"
    REM COMPOSER "Jean-Philippe Rameau"
    INDEX 00 27:29:10
    INDEX 01 27:36:37
  TRACK 16 AUDIO
    TITLE "Acte III - Marche des Tréseniens et des Matelots"
    PERFORMER "La Petite Bande, Sigiswald Kuijken"
    REM COMPOSER "Jean-Philippe Rameau"
    INDEX 00 29:38:70
    INDEX 01 29:41:60
  TRACK 17 AUDIO
    TITLE "Acte III - Air gai (composé 1757)"
    PERFORMER "La Petite Bande, Sigiswald Kuijken"
    REM COMPOSER "Jean-Philippe Rameau"
    INDEX 00 31:01:70
    INDEX 01 31:02:55
  TRACK 18 AUDIO
    TITLE "Acte III - Menuet"
    PERFORMER "La Petite Bande, Sigiswald Kuijken"
    REM COMPOSER "Jean-Philippe Rameau"
    INDEX 00 32:41:37
    INDEX 01 32:41:72
  TRACK 19 AUDIO
    TITLE "Acte III - Tambourin I, II et III (composé 1757)"
    PERFORMER "La Petite Bande, Sigiswald Kuijken"
    REM COMPOSER "Jean-Philippe Rameau"
    INDEX 00 33:25:20
    INDEX 01 33:25:22
  TRACK 20 AUDIO
    TITLE "Acte III - 1er Rigaudon en Tambourin et 2e Rigaudon"
    PERFORMER "La Petite Bande, Sigiswald Kuijken"
    REM COMPOSER "Jean-Philippe Rameau"
    INDEX 00 35:24:70
    INDEX 01 35:25:55
  TRACK 21 AUDIO
    TITLE "Acte IV - Rondeau"
    PERFORMER "La Petite Bande, Sigiswald Kuijken"
    REM COMPOSER "Jean-Philippe Rameau"
    INDEX 00 37:16:57
    INDEX 01 37:21:25
  TRACK 22 AUDIO
    TITLE "Acte IV - Menuet I et II"
    PERFORMER "La Petite Bande, Sigiswald Kuijken"
    REM COMPOSER "Jean-Philippe Rameau"
    INDEX 00 38:27:70
    INDEX 01 38:28:07
  TRACK 23 AUDIO
    TITLE "Acte V - Symphonie (3e Scène) (gracieusement)"
    PERFORMER "La Petite Bande, Sigiswald Kuijken"
    REM COMPOSER "Jean-Philippe Rameau"
    INDEX 00 41:25:25
    INDEX 01 41:32:10
  TRACK 24 AUDIO
    TITLE "Acte V - Vol des Zéphyrs (très vite)"
    PERFORMER "La Petite Bande, Sigiswald Kuijken"
    REM COMPOSER "Jean-Philippe Rameau"
    INDEX 00 44:20:70
    INDEX 01 44:22:60
  TRACK 25 AUDIO
    TITLE "Acte V - Marche (en 3/4!)"
    PERFORMER "La Petite Bande, Sigiswald Kuijken"
    REM COMPOSER "Jean-Philippe Rameau"
    INDEX 00 45:05:70
    INDEX 01 45:08:70
  TRACK 26 AUDIO
    TITLE "Acte V - Chaconne"
    PERFORMER "La Petite Bande, Sigiswald Kuijken"
    REM COMPOSER "Jean-Philippe Rameau"
    INDEX 00 46:11:70
    INDEX 01 46:12:17
  TRACK 27 AUDIO
    TITLE "Acte V - Gavottes I et II (composé en 1757)"
    PERFORMER "La Petite Bande, Sigiswald Kuijken"
    REM COMPOSER "Jean-Philippe Rameau"
    INDEX 00 49:31:70
    INDEX 01 49:33:12

                                                                                       
                       
                       
                       
                       
                       
                                磁力下载(论坛代下载服务)::
                                                               
                                       
付费主题

已有0人支付


                                               
  • 243.9 MB
  • 温馨提示

    记得善用社区搜索功能,那里可能会有你想要的资源;论坛站内搜索

    如果你有什么需要的资源可以去资源求档发帖,求助社区的网友,我们会在第一时间给你回复哦;资源求档

    对于本社区网盘链接失效密码错误各种报错请在反馈板块反馈报错发帖,您的支持,是我们发展的最大动力;投诉建议

    回复

    使用道具 举报

    您需要登录后才可以回帖 登录 | 立即注册 微信登录

    本版积分规则

    关注0

    粉丝2

    帖子31142

    发布主题
    阅读排行更多+
    关闭

    站长推荐上一条 /1 下一条

    活动提示

    赞助永久VIP会员送3T硬盘一块 限时活动

    地址:立刻参加

    我知道了
    收藏帖子 返回列表 这是一个自定义按钮
    音乐分享,音乐下载。
    微信公众号
    微信号:hires_
    意见反馈:admin@maomicd.com

    加入我们的官方QQ群和微信群

    Powered by Discuz! X3.4 Archiver|手机版|小黑屋|捌零音乐论坛 ( 苏ICP备20015413号 )|( 苏公网安备 32030502000272号) 繁體

    GMT+8, 2021-9-24 04:56