[古典] (Modern Classical)[CD] София Губайдулина [Sofia Gubaidulina] - Oleg Kagan Plays Gubaidulina: Rejoice! / Offertorium [Олег Каган - Радуйся! / Жертвоприношение] - 2004, FLAC (tracks+

[复制链接]
fqw1001 发表于 2021-9-10 16:56:59 | 显示全部楼层 |阅读模式 打印 上一主题 下一主题
released 2004
Sofia Gubaidulina
"Oleg Kagan Plays Gubaidulina:
Rejoice! / Offertorium"
.

Жанры: Modern Classical, Concerto
Издатель: Live Classics (Germany)
Номер по каталогу: LCL 111
Аудиокодек: FLAC (*.flac)
Тип рипа: tracks+.cue
Источник: redacted.ch
Носитель: CD
.
track listing [01:09:36]
(01-05). Rejoice! Sonata for Violin & Violoncello, 1981:
-. I. Your Joy No One Will Take Away From You .(03:41)
-. II. Rejoice With Joy .(04:01)
-. III. Rejoice Ravvi .(10:57)
-. IV. And He Returned to His Own Abode .(07:28)
-. V. Heed Thyself .(05:24)
[Oleg Kagan - violin • Natalia Gutman - violoncello]
recorded - Helsinki, 1989
.
(06). Offertorium Concerto for Violin & Orchestra, 1980 .(37:55)
[Oleg Kagan - violin • Ministry of Culture Orchestra (USSR), Gennady Rozhdestvensky]
recorded - Moscow, 1982

eac / xld

Exact Audio Copy V1.3 from 2. September 2016
EAC extraction logfile from 5. March 2017, 16:40
Oleg Kagan / Rejoice!, Offertorium
Used drive  : HL-DT-STDVDRAM GSA-H10N   Adapter: 1  ID: 0
Read mode               : Secure
Utilize accurate stream : Yes
Defeat audio cache      : Yes
Make use of C2 pointers : No
Read offset correction                      : 667
Overread into Lead-In and Lead-Out          : No
Fill up missing offset samples with silence : Yes
Delete leading and trailing silent blocks   : No
Null samples used in CRC calculations       : Yes
Used interface                              : Native Win32 interface for Win NT & 2000
Gap handling                                : Appended to previous track
Used output format              : User Defined Encoder
Selected bitrate                : 768 kBit/s
Quality                         : High
Add ID3 tag                     : No
Command line compressor         : C:\Program Files (x86)\Exact Audio Copy\Flac\flac.exe
Additional command line options : -8 -V -T "ARTIST=%artist%" -T "TITLE=%title%" -T "ALBUM=%albumtitle%" -T "DATE=%year%" -T "TRACKNUMBER=%tracknr%" -T "GENRE=%genre%" -T "PERFORMER=%albuminterpret%" -T "COMPOSER=%composer%" %haslyrics%--tag-from-file=LYRICS="%lyricsfile%"%haslyrics% -T "ALBUMARTIST=%albumartist%" -T "DISCNUMBER=%cdnumber%" -T "TOTALDISCS=%totalcds%" -T "TOTALTRACKS=%numtracks%" -T "COMMENT=%comment%" %source% -o %dest%
TOC of the extracted CD
     Track |   Start  |  Length  | Start sector | End sector
    ---------------------------------------------------------
        1  |  0:00.00 |  3:41.48 |         0    |    16622
        2  |  3:41.48 |  4:01.60 |     16623    |    34757
        3  |  7:43.33 | 10:57.50 |     34758    |    84082
        4  | 18:41.08 |  7:28.11 |     84083    |   117693
        5  | 26:09.19 |  5:30.09 |    117694    |   142452
        6  | 31:39.28 | 37:55.60 |    142453    |   313137
Track  1
     Filename E:\EAC\01 - Rejoice! - I. Your joy no one will take away from you.wav
     Pre-gap length  0:00:02.00
     Peak level 34.1 %
     Extraction speed 2.6 X
     Track quality 100.0 %
     Test CRC 3C271C55
     Copy CRC 3C271C55
     Accurately ripped (confidence 5)  [78DFCF57]  (AR v1)
     Copy OK
Track  2
     Filename E:\EAC\02 - Rejoice! - II. Rejoice with joy.wav
     Peak level 57.8 %
     Extraction speed 2.9 X
     Track quality 100.0 %
     Test CRC 853988B1
     Copy CRC 853988B1
     Accurately ripped (confidence 5)  [AC31CD7E]  (AR v1)
     Copy OK
Track  3
     Filename E:\EAC\03 - Rejoice! - III. Rejoice Rabbi.wav
     Peak level 88.2 %
     Extraction speed 3.5 X
     Track quality 99.9 %
     Test CRC 7AD256B5
     Copy CRC 7AD256B5
     Accurately ripped (confidence 5)  [759E74BF]  (AR v1)
     Copy OK
Track  4
     Filename E:\EAC\04 - Rejoice! - IV. And he returned to his own abode.wav
     Peak level 90.6 %
     Extraction speed 4.1 X
     Track quality 100.0 %
     Test CRC 1B740E6C
     Copy CRC 1B740E6C
     Accurately ripped (confidence 5)  [E90876E5]  (AR v1)
     Copy OK
Track  5
     Filename E:\EAC\05 - Rejoice! - V. Heed thyself.wav
     Peak level 97.0 %
     Extraction speed 4.4 X
     Track quality 100.0 %
     Test CRC 192E9BDF
     Copy CRC 192E9BDF
     Accurately ripped (confidence 5)  [6DA51E70]  (AR v1)
     Copy OK
Track  6
     Filename E:\EAC\06 - Offertorium.wav
     Pre-gap length  0:00:05.66
     Peak level 72.6 %
     Extraction speed 5.7 X
     Track quality 100.0 %
     Test CRC C17E4E5D
     Copy CRC C17E4E5D
     Accurately ripped (confidence 5)  [9786C19C]  (AR v1)
     Copy OK
All tracks accurately ripped
No errors occurred
End of status report
---- CUETools DB Plugin V2.1.6
[CTDB TOCID: yb4JDMceC7Vq4Qe7ikorgkwRgME-] found
Submit result: yb4JDMceC7Vq4Qe7ikorgkwRgME- has been confirmed
Track | CTDB Status
  1   | (1/1) Accurately ripped
  2   | (1/1) Accurately ripped
  3   | (1/1) Accurately ripped
  4   | (1/1) Accurately ripped
  5   | (1/1) Accurately ripped
  6   | (1/1) Accurately ripped
==== Log checksum 548ED9614BC6CC90B8C43763BA39A21B86454691B9E5F5138A9E442701B746A3 ====


.cue

REM GENRE "Modern Classical"
REM DATE 2004
REM DISCID 38104F06
REM COMMENT "ExactAudioCopy v1.3"
PERFORMER "Oleg Kagan"
TITLE "Oleg Kagan Plays Gubaidulina: Rejoice! / Offertorium"
REM COMPOSER "Sofia Gubaidulina"
FILE "01. Rejoice! I. Your Joy No One Will Take Away From You.wav" WAVE
  TRACK 01 AUDIO
    TITLE "Rejoice! I. Your Joy No One Will Take Away From You"
    PERFORMER "Oleg Kagan, Natalia Gutman"
    REM COMPOSER "Sofia Gubaidulina"
    INDEX 01 00:00:00
FILE "02. Rejoice! II. Rejoice With Joy.wav" WAVE
  TRACK 02 AUDIO
    TITLE "Rejoice! II. Rejoice With Joy"
    PERFORMER "Oleg Kagan, Natalia Gutman"
    REM COMPOSER "Sofia Gubaidulina"
    INDEX 01 00:00:00
FILE "03. Rejoice! III. Rejoice Ravvi.wav" WAVE
  TRACK 03 AUDIO
    TITLE "Rejoice! III. Rejoice Ravvi"
    PERFORMER "Oleg Kagan, Natalia Gutman"
    REM COMPOSER "Sofia Gubaidulina"
    INDEX 01 00:00:00
FILE "04. Rejoice! IV. And He Returned to His Own Abode.wav" WAVE
  TRACK 04 AUDIO
    TITLE "Rejoice! IV. And He Returned to His Own Abode"
    PERFORMER "Oleg Kagan, Natalia Gutman"
    REM COMPOSER "Sofia Gubaidulina"
    INDEX 01 00:00:00
FILE "05. Rejoice! V. Heed Thyself.wav" WAVE
  TRACK 05 AUDIO
    TITLE "Rejoice! V. Heed Thyself"
    PERFORMER "Oleg Kagan, Natalia Gutman"
    REM COMPOSER "Sofia Gubaidulina"
    INDEX 01 00:00:00
  TRACK 06 AUDIO
    TITLE "Offertorium"
    PERFORMER "Oleg Kagan, Ministry of Culture Orchestra (USSR), Gennady Rozhdestvensky"
    REM COMPOSER "Sofia Gubaidulina"
    INDEX 00 05:24:34
FILE "06. Offertorium.wav" WAVE
    INDEX 01 00:00:00
                                                                                       
                       
                       
                       
                       
                       
                                磁力下载(论坛代下载服务)::
                                                               
                                       
付费主题

已有0人支付


                                               
  • 342 MB
  • 温馨提示

    记得善用社区搜索功能,那里可能会有你想要的资源;论坛站内搜索

    如果你有什么需要的资源可以去资源求档发帖,求助社区的网友,我们会在第一时间给你回复哦;资源求档

    对于本社区网盘链接失效密码错误各种报错请在反馈板块反馈报错发帖,您的支持,是我们发展的最大动力;投诉建议

    回复

    使用道具 举报

    您需要登录后才可以回帖 登录 | 立即注册 微信登录

    本版积分规则

    关注0

    粉丝0

    帖子30586

    发布主题
    阅读排行更多+
    关闭

    站长推荐上一条 /1 下一条

    活动提示

    赞助永久VIP会员送3T硬盘一块 限时活动

    地址:立刻参加

    我知道了
    收藏帖子 返回列表 这是一个自定义按钮
    音乐分享,音乐下载。
    微信公众号
    微信号:hires_
    意见反馈:admin@maomicd.com

    加入我们的官方QQ群和微信群

    Powered by Discuz! X3.4 Archiver|手机版|小黑屋|捌零音乐论坛 ( 苏ICP备20015413号 )|( 苏公网安备 32030502000272号) 繁體

    GMT+8, 2021-9-21 12:44