[古典] (Classical, Symphony, Overture) Schumann - Symphony No. 2 in C major, Op. 61; 'Manfred' Overture, Op. 115; Overture, Scherzo and Finale, Op. 52 [rec. 1983, 1985] (Wiener Philharmon

[复制链接]
fqw1001 发表于 2021-9-10 16:56:59 | 显示全部楼层 |阅读模式 打印 上一主题 下一主题
Schumann - Symphony No. 2 in C major, Op. 61 & 'Manfred' Overture, Op. 115
Жанр: Classical, Symphony, Overture
Страна-производитель диска: Made in Germany
Год издания диска: 1999
Издатель (лейбл): Deutsche Grammophon
Номер по каталогу: Pt00298946336724
Дата записи: 1983, 1985
Аудиокодек: FLAC
Тип рипа: image+.cue
Битрейт аудио: lossless
Продолжительность: 01:08:50
Источник: релизер
сайт-источник/ник/другое: odeonmusic; Caterina Sforza - работа с cue, доп. сканы
Наличие сканов в содержимом раздачи: да, полный авторский буклет jpeg, 3 стр.
Треклист:
01-04. Symphony No. 2 in C major, Op. 61
05. "Manfred" Overture, Op. 115
06-08. Overture, Scherzo and Finale, Op. 52
Исполнители

Robert Schumann (1810-1856)
Symphony No. 2 in C major, Op. 61 *
'Manfred' Overture, Op. 115 *
Overture, Scherzo and Finale, Op. 52 +
Wiener Philharmoniker *
Staatskapelle Dresden +
Giuseppe Sinopoli - conductor


Лог создания рипа

Exact Audio Copy V1.0 beta 3 from 29. August 2011
EAC extraction logfile from 14. July 2014, 19:15
Giuseppe Sinopoli / Schumann - Symphony no.2, Overtures - Giuseppe Sinopoli
Used drive  : TSSTcorpCDDVDW SH-222BB   Adapter: 2  ID: 1
Read mode               : Secure
Utilize accurate stream : Yes
Defeat audio cache      : Yes
Make use of C2 pointers : No
Read offset correction                      : 6
Overread into Lead-In and Lead-Out          : No
Fill up missing offset samples with silence : Yes
Delete leading and trailing silent blocks   : No
Null samples used in CRC calculations       : Yes
Used interface                              : Native Win32 interface for Win NT & 2000
Used output format              : User Defined Encoder
Selected bitrate                : 896 kBit/s
Quality                         : High
Add ID3 tag                     : No
Command line compressor         : C:\Program Files\Exact Audio Copy\FLAC\FLAC.EXE
Additional command line options : -8 -V -T "TITLE=%title%" -T "ARTIST=%artist%" -T "ALBUMARTIST=%albumartist%" -T "ALBUM=%albumtitle%" -T "DATE=%year%" -T "TRACKNUMBER=%tracknr%" -T "TRACKTOTAL=%numtracks%" -T "GENRE=%genre%" -T "COMMENT=%comment%" -T "PERFORMER=%albuminterpret%" -T "COMPOSER=%composer%" %source% -o %dest%
TOC of the extracted CD
     Track |   Start  |  Length  | Start sector | End sector
    ---------------------------------------------------------
        1  |  0:00.00 | 12:00.12 |         0    |    54011
        2  | 12:00.12 |  6:56.58 |     54012    |    85269
        3  | 18:56.70 | 11:20.65 |     85270    |   136334
        4  | 30:17.60 |  8:06.17 |    136335    |   172801
        5  | 38:24.02 | 12:20.73 |    172802    |   228374
        6  | 50:45.00 |  6:29.19 |    228375    |   257568
        7  | 57:14.19 |  4:20.35 |    257569    |   277103
        8  | 61:34.54 |  7:15.21 |    277104    |   309749
Range status and errors
Selected range
     Filename G:\Ripped general\[dg.047] Schumann – Symphony no.2, Overtures – Giuseppe Sinopoli\Schumann - Symphony no.2, Overtures - Giuseppe Sinopoli.wav
     Peak level 99.9 %
     Extraction speed 7.3 X
     Range quality 100.0 %
     Test CRC A8EE6F01
     Copy CRC A8EE6F01
     Copy OK
No errors occurred
AccurateRip summary
Track  1  cannot be verified as accurate (confidence 3)  [0BEEC61C], AccurateRip returned [5713E56F]  (AR v2)
Track  2  cannot be verified as accurate (confidence 3)  [EBE54DC1], AccurateRip returned [BEC579C3]  (AR v2)
Track  3  cannot be verified as accurate (confidence 3)  [0574D913], AccurateRip returned [FDD2B1B3]  (AR v2)
Track  4  cannot be verified as accurate (confidence 3)  [14CA64D4], AccurateRip returned [277D7B5F]  (AR v2)
Track  5  cannot be verified as accurate (confidence 3)  [467CA086], AccurateRip returned [760500E8]  (AR v2)
Track  6  cannot be verified as accurate (confidence 3)  [181EAE2A], AccurateRip returned [D5906DF4]  (AR v2)
Track  7  cannot be verified as accurate (confidence 3)  [7A16F675], AccurateRip returned [8C78321F]  (AR v2)
Track  8  cannot be verified as accurate (confidence 3)  [BB6D4F3C], AccurateRip returned [1FC4A53E]  (AR v2)
No tracks could be verified as accurate
You may have a different pressing from the one(s) in the database
End of status report
==== Log checksum C0C434185623C8A412A0169C658AAACEF9E7BF1D60279514C9BB7ABA77A2E52D ====


Содержание индексной карты (.CUE)

REM GENRE Classical
REM DATE 1983
REM DISCID 6E102208
REM COMMENT "ExactAudioCopy v1.0b3"
CATALOG 0028946336724
PERFORMER "Wiener Philharmoniker (in 01-05), Staatskapelle Dresden (in 06-08), Giuseppe Sinopoli (dir.)"
TITLE "Schumann - Symphony No. 2, Overtures - Giuseppe Sinopoli"
FILE "Schumann - Symphony No. 2, Overtures - Giuseppe Sinopoli.flac" WAVE
  TRACK 01 AUDIO
    TITLE "Symphony No. 2 in C major - I. Sostenuto assai - Allegro, ma non troppo"
    PERFORMER "Wiener Philharmoniker, Giuseppe Sinopoli"
    ISRC DEF058300310
    INDEX 01 00:00:00
  TRACK 02 AUDIO
    TITLE "Symphony No. 2 in C major - II. Scherzo: Allegro vivace"
    PERFORMER "Wiener Philharmoniker, Giuseppe Sinopoli"
    ISRC DEF058300310
    INDEX 01 12:00:12
  TRACK 03 AUDIO
    TITLE "Symphony No. 2 in C major - III. Adagio espressivo"
    PERFORMER "Wiener Philharmoniker, Giuseppe Sinopoli"
    ISRC DEF058300310
    INDEX 01 18:56:70
  TRACK 04 AUDIO
    TITLE "Symphony No. 2 in C major - IV. Allegro molto vivace"
    PERFORMER "Wiener Philharmoniker, Giuseppe Sinopoli"
    ISRC DEF058300310
    INDEX 01 30:17:60
  TRACK 05 AUDIO
    TITLE "“Manfred” Overture Op. 115"
    PERFORMER "Wiener Philharmoniker, Giuseppe Sinopoli"
    ISRC DEF058300320
    INDEX 00 38:14:00
    INDEX 01 38:24:02
  TRACK 06 AUDIO
    TITLE "Overture, Scherzo & Finale, Op. 52 - I. Overture. Andante con moto - Allegro"
    PERFORMER "Staatskapelle Dresden, Giuseppe Sinopoli"
    ISRC DEF059305240
    INDEX 00 50:38:00
    INDEX 01 50:45:00
  TRACK 07 AUDIO
    TITLE "Overture, Scherzo & Finale, Op. 52 - II. Scherzo. Vivo - trio. L’istesso tempo"
    PERFORMER "Staatskapelle Dresden, Giuseppe Sinopoli"
    ISRC DEF059305240
    INDEX 01 57:14:19
  TRACK 08 AUDIO
    TITLE "Overture, Scherzo & Finale, Op. 52 - III. Finale. Allegro molto vivace"
    PERFORMER "Staatskapelle Dresden, Giuseppe Sinopoli"
    ISRC DEF059305240
    INDEX 01 61:34:54

Не повтор, разное время записи, оркестры, компановка произведений:
https://rutracker.org/forum/https://rutracker.net/forum/viewtopic.php?t=3110526                                                                                       
                       
                       
                       
                       
                       
                                磁力下载(论坛代下载服务)::
                                                               
                                       
付费主题

已有0人支付


                                               
  • 290.1 MB
  • 温馨提示

    记得善用社区搜索功能,那里可能会有你想要的资源;论坛站内搜索

    如果你有什么需要的资源可以去资源求档发帖,求助社区的网友,我们会在第一时间给你回复哦;资源求档

    对于本社区网盘链接失效密码错误各种报错请在反馈板块反馈报错发帖,您的支持,是我们发展的最大动力;投诉建议

    回复

    使用道具 举报

    您需要登录后才可以回帖 登录 | 立即注册 微信登录

    本版积分规则

    关注0

    粉丝0

    帖子30586

    发布主题
    阅读排行更多+
    关闭

    站长推荐上一条 /1 下一条

    活动提示

    赞助永久VIP会员送3T硬盘一块 限时活动

    地址:立刻参加

    我知道了
    收藏帖子 返回列表 这是一个自定义按钮
    音乐分享,音乐下载。
    微信公众号
    微信号:hires_
    意见反馈:admin@maomicd.com

    加入我们的官方QQ群和微信群

    Powered by Discuz! X3.4 Archiver|手机版|小黑屋|捌零音乐论坛 ( 苏ICP备20015413号 )|( 苏公网安备 32030502000272号) 繁體

    GMT+8, 2021-9-21 14:16