[古典] (Classical ballet) Khachaturian/Хачатурян - Spartacus & Gayaneh: Suites from the Ballet (Royal Philharmonic Orchestra, Yuri Temirkanov/Темирканов) - 1986, FLAC (image+.cue)

[复制链接]
elmisy 发表于 2021-9-10 16:56:59 | 显示全部楼层 |阅读模式 打印 上一主题 下一主题
Khachaturian/Хачатурян - Spartacus & Gayaneh: Suites from the Ballet
Жанр: Classical ballet
Страна-производитель диска: Made in West Germany
Год издания диска: 1986
Издатель (лейбл): EMI Digital ‎
Номер по каталогу: CDC 7 47348 2
Дата записи: 1985
Аудиокодек: FLAC
Тип рипа: image+.cue
Битрейт аудио: lossless
Продолжительность: 51'05
Источник: релизер
сайт-источник/ник/другое: Bodtje, подарок; Caterina Sforza - работа с cue, работа с доп. сканами
Наличие сканов в содержимом раздачи: да, полный авторский буклет pdf, 15 стр.
Треклист:
Spartacus - Excerpts From The Ballet
1 Variation Of Aegina - Final Bacchanalian Scene 3:21
2 Adagio Of Spartacus And Phrygia 10:20
3 Scene And Dance 4:17
4 Dance Of The Gaditanian Maidens - The Victory Of Spartacus 6:28
Gayaneh - Suite From The Ballet
5 Gopak 3:01
6 Sabre Dance 2:20
7 Ayesha's Dance 2:48
8 Dance Of The Rose-Maidens 2:18
9 Mountaineers' Dance 1:54
10 Lullaby 6:21
11 Dance Of The Young Kurds 2:45
12 Armen's Variation 1:59
13 Lezghinka 2:30
Исполнители

Aram Khachaturian (1903-1978)
Spartacus (excerpts from the Ballet)
Gayaneh (Suite from the Ballet)
Royal Philharmonic Orchestra
Yuri Temirkanov, dir.
Release Date: March, 1986


Лог создания рипа

Exact Audio Copy V1.5 from 20. February 2020
EAC extraction logfile from 9. March 2020, 9:40
Aram Khachaturian / Gayaneh & Spartacus Suites
Used drive  : HL-DT-STDVDRAM GH24NSD5   Adapter: 1  ID: 0
Read mode               : Secure
Utilize accurate stream : Yes
Defeat audio cache      : Yes
Make use of C2 pointers : No
Read offset correction                      : 6
Overread into Lead-In and Lead-Out          : No
Fill up missing offset samples with silence : Yes
Delete leading and trailing silent blocks   : No
Null samples used in CRC calculations       : Yes
Used interface                              : Native Win32 interface for Win NT & 2000
Used output format              : User Defined Encoder
Selected bitrate                : 896 kBit/s
Quality                         : High
Add ID3 tag                     : No
Command line compressor         : C:\Program Files (x86)\Exact Audio Copy\FLAC\FLAC.EXE
Additional command line options : -6 -V -T "ARTIST=%artist%" -T "TITLE=%title%" -T "ALBUM=%albumtitle%" -T "DATE=%year%" -T "TRACKNUMBER=%tracknr%" -T "GENRE=%genre%" -T "COMMENT=%comment%" -T "BAND=%albuminterpret%" -T "ALBUMARTIST=%albuminterpret%" -T "COMPOSER=%composer%" %haslyrics%--tag-from-file=LYRICS="%lyricsfile%"%haslyrics% -T "DISCNUMBER=%cdnumber%" -T "TOTALDISCS=%totalcds%" -T "TOTALTRACKS=%numtracks%" %hascover%--picture="%coverfile%"%hascover% %source% -o %dest%
TOC of the extracted CD
     Track |   Start  |  Length  | Start sector | End sector
    ---------------------------------------------------------
        1  |  0:00.33 |  3:24.70 |        33    |    15402
        2  |  3:25.28 | 10:23.62 |     15403    |    62189
        3  | 13:49.15 |  4:20.63 |     62190    |    81752
        4  | 18:10.03 |  6:34.07 |     81753    |   111309
        5  | 24:44.10 |  3:01.45 |    111310    |   124929
        6  | 27:45.55 |  2:24.13 |    124930    |   135742
        7  | 30:09.68 |  2:51.02 |    135743    |   148569
        8  | 33:00.70 |  2:21.63 |    148570    |   159207
        9  | 35:22.58 |  1:58.15 |    159208    |   168072
       10  | 37:20.73 |  6:23.55 |    168073    |   196852
       11  | 43:44.53 |  2:49.05 |    196853    |   209532
       12  | 46:33.58 |  2:01.65 |    209533    |   218672
       13  | 48:35.48 |  2:30.20 |    218673    |   229942
Range status and errors
Selected range
     Filename I:\Rips\Khachaturian - Spartacus, Gayaneh Suites - Temirkanov\Aram Khachaturian - Gayaneh & Spartacus Suites.wav
     Peak level 100.0 %
     Extraction speed 1.7 X
     Range quality 100.0 %
     Test CRC 4AB74587
     Copy CRC 4AB74587
     Copy OK
No errors occurred
AccurateRip summary
Track  1  accurately ripped (confidence 25)  [70C65071]  (AR v2)
Track  2  accurately ripped (confidence 25)  [B01C366C]  (AR v2)
Track  3  accurately ripped (confidence 25)  [B88541C6]  (AR v2)
Track  4  accurately ripped (confidence 25)  [F589C53C]  (AR v2)
Track  5  accurately ripped (confidence 25)  [7D0612AE]  (AR v2)
Track  6  accurately ripped (confidence 25)  [D31CA1B0]  (AR v2)
Track  7  accurately ripped (confidence 24)  [0BAAFDAB]  (AR v2)
Track  8  accurately ripped (confidence 25)  [40E9D448]  (AR v2)
Track  9  accurately ripped (confidence 25)  [B4D169D3]  (AR v2)
Track 10  accurately ripped (confidence 24)  [30D03C21]  (AR v2)
Track 11  accurately ripped (confidence 25)  [06B4F13C]  (AR v2)
Track 12  accurately ripped (confidence 25)  [7B2E979F]  (AR v2)
Track 13  accurately ripped (confidence 25)  [6CDDBAFB]  (AR v2)
All tracks accurately ripped
End of status report
---- CUETools DB Plugin V2.1.6
[CTDB TOCID: VIJ3Ao3lRW7..tMONR.JQkzkGqY-] found
Submit result: VIJ3Ao3lRW7..tMONR.JQkzkGqY- has been confirmed
Track | CTDB Status
  1   | (51/71) Accurately ripped
  2   | (50/71) Accurately ripped
  3   | (50/71) Accurately ripped
  4   | (50/71) Accurately ripped
  5   | (50/71) Accurately ripped
  6   | (50/71) Accurately ripped
  7   | (51/71) Accurately ripped
  8   | (50/71) Accurately ripped
  9   | (51/71) Accurately ripped
10   | (43/71) Accurately ripped, or (7/71) differs in 11 samples @05:33:24
11   | (51/71) Accurately ripped
12   | (51/71) Accurately ripped
13   | (50/71) Accurately ripped
==== Log checksum 98E77D51CA685D6118263B59FB91DAC3C5916807076DC88B22DBEB60735FBD86 ====


Содержание индексной карты (.CUE)

REM GENRE Classical
REM DATE 1986
REM DISCID B60BF90D
REM COMMENT "ExactAudioCopy v1.5"
PERFORMER "Royal Philharmonic Orchestra, Yuri Temirkanov (dir.)"
TITLE "Gayaneh & Spartacus Suites"
REM COMPOSER "Aram Khachaturian (1903-1978)"
FILE "Aram Khachaturian - Gayaneh & Spartacus Suites.flac" WAVE
  TRACK 01 AUDIO
    TITLE "SPARTACUS, Excerpts from the Ballet - Variation of Aegina - Final Bacchanalian Scene"
    PERFORMER "Royal Phiharmonic Orchestra, Yuri Temirkanov"
    REM COMPOSER "Aram Khachaturian"
    INDEX 00 00:00:00
    INDEX 01 00:00:33
  TRACK 02 AUDIO
    TITLE "Spartacus - Adagio of Spartacus and Phrygia"
    PERFORMER "Royal Phiharmonic Orchestra, Yuri Temirkanov"
    REM COMPOSER "Aram Khachaturian"
    INDEX 00 03:21:35
    INDEX 01 03:25:28
  TRACK 03 AUDIO
    TITLE "Spartacus - Scene and Dance"
    PERFORMER "Royal Phiharmonic Orchestra, Yuri Temirkanov"
    REM COMPOSER "Aram Khachaturian"
    INDEX 00 13:46:10
    INDEX 01 13:49:15
  TRACK 04 AUDIO
    TITLE "Spartacus - Dance of the Gaditanian Maidens - The Victory of Spartacus"
    PERFORMER "Royal Phiharmonic Orchestra, Yuri Temirkanov"
    REM COMPOSER "Aram Khachaturian"
    INDEX 00 18:06:70
    INDEX 01 18:10:03
  TRACK 05 AUDIO
    TITLE "GAYANEH, Suite from the Ballet - Gopak"
    PERFORMER "Royal Phiharmonic Orchestra, Yuri Temirkanov"
    REM COMPOSER "Aram Khachaturian"
    INDEX 00 24:38:45
    INDEX 01 24:44:10
  TRACK 06 AUDIO
    TITLE "Gayaneh - Sabre Dance"
    PERFORMER "Royal Phiharmonic Orchestra, Yuri Temirkanov"
    REM COMPOSER "Aram Khachaturian"
    INDEX 00 27:45:53
    INDEX 01 27:45:55
  TRACK 07 AUDIO
    TITLE "Gayaneh - Ayesha’s Dance"
    PERFORMER "Royal Phiharmonic Orchestra, Yuri Temirkanov"
    REM COMPOSER "Aram Khachaturian"
    INDEX 00 30:05:53
    INDEX 01 30:09:68
  TRACK 08 AUDIO
    TITLE "Gayaneh - Dance of the Rose-Maidens"
    PERFORMER "Royal Phiharmonic Orchestra, Yuri Temirkanov"
    REM COMPOSER "Aram Khachaturian"
    INDEX 00 32:58:13
    INDEX 01 33:00:70
  TRACK 09 AUDIO
    TITLE "Gayaneh - Mountaineers’ Dance"
    PERFORMER "Royal Phiharmonic Orchestra, Yuri Temirkanov"
    REM COMPOSER "Aram Khachaturian"
    INDEX 00 35:19:13
    INDEX 01 35:22:58
  TRACK 10 AUDIO
    TITLE "Gayaneh - Lullaby"
    PERFORMER "Royal Phiharmonic Orchestra, Yuri Temirkanov"
    REM COMPOSER "Aram Khachaturian"
    INDEX 00 37:17:00
    INDEX 01 37:20:73
  TRACK 11 AUDIO
    TITLE "Gayaneh - Dance of the Young Kurds"
    PERFORMER "Royal Phiharmonic Orchestra, Yuri Temirkanov"
    REM COMPOSER "Aram Khachaturian"
    INDEX 00 43:41:65
    INDEX 01 43:44:53
  TRACK 12 AUDIO
    TITLE "Gayaneh - Armen’s Variation"
    PERFORMER "Royal Phiharmonic Orchestra, Yuri Temirkanov"
    REM COMPOSER "Aram Khachaturian"
    INDEX 00 46:30:23
    INDEX 01 46:33:58
  TRACK 13 AUDIO
    TITLE "Gayaneh - Lezghinka"
    PERFORMER "Royal Phiharmonic Orchestra, Yuri Temirkanov"
    REM COMPOSER "Aram Khachaturian"
    INDEX 00 48:33:00
    INDEX 01 48:35:48

                                                                                       
                       
                       
                       
                       
                       
                                磁力下载(论坛代下载服务)::
                                                               
                                       
付费主题

已有0人支付


                                               
  • 251.4 MB
  • 温馨提示

    记得善用社区搜索功能,那里可能会有你想要的资源;论坛站内搜索

    如果你有什么需要的资源可以去资源求档发帖,求助社区的网友,我们会在第一时间给你回复哦;资源求档

    对于本社区网盘链接失效密码错误各种报错请在反馈板块反馈报错发帖,您的支持,是我们发展的最大动力;投诉建议

    回复

    使用道具 举报

    您需要登录后才可以回帖 登录 | 立即注册 微信登录

    本版积分规则

    关注0

    粉丝3

    帖子30621

    发布主题
    阅读排行更多+
    关闭

    站长推荐上一条 /1 下一条

    活动提示

    赞助永久VIP会员送3T硬盘一块 限时活动

    地址:立刻参加

    我知道了
    收藏帖子 返回列表 这是一个自定义按钮
    音乐分享,音乐下载。
    微信公众号
    微信号:hires_
    意见反馈:admin@maomicd.com

    加入我们的官方QQ群和微信群

    Powered by Discuz! X3.4 Archiver|手机版|小黑屋|捌零音乐论坛 ( 苏ICP备20015413号 )|( 苏公网安备 32030502000272号) 繁體

    GMT+8, 2021-9-24 04:35