[古典] (Orchestral) [WEB] Bruckner - Symphonie Nr.6 [II-III-IV] · Symphonie Nr.7 [II] (Berliner Philharmoniker - Furtwangler) - Pristine XR-remastering, ambient stereo - 2010, FLAC (track

[复制链接]
全球搬运 发表于 2021-9-10 16:56:59 | 显示全部楼层 |阅读模式 打印 上一主题 下一主题
Bruckner - Symphonien Nrn.6 & 7
Berliner Philharmoniker - Wilhelm Furtwängler
Жанр: Orchestral
Носитель: WEB
Страна-производитель диска: France
Год издания диска: 2010
Издатель (лейбл): Pristine
Номер по каталогу: PASC257
Дата записи: 1942/43
Аудиокодек: FLAC, ambient stereo
Тип рипа: tracks
Битрейт аудио: lossless
Продолжительность: 59'39''
Источник: скачано с
сайт-источник/ник/другое: PristineClassical
Наличие сканов в содержимом раздачи: да
Треклист:
[01] Symphonie Nr.6: II. Adagio. Sehr feierlich
[02] III. Scherzo. Nicht schnell - Trio. Langsam
[03] IV. Finale. Bewegt, doch nicht zu schnell
rec.: 13-16.11.1943
[04] Symphonie Nr.7: II. Adagio. Sehr feierlich und sehr langsam
rec.: 1.4.1942
Исполнители:
Berliner Philharmoniker - Wilhelm Furtwängler


Лог проверки качества

-----------------------
DON'T MODIFY THIS FILE
-----------------------
PERFORMER: auCDtect Task Manager, ver. 1.6.0 RC1 build 1.6.0.1
Copyright (c) 2008-2010 y-soft. All rights reserved
http://y-soft.org
ANALYZER: auCDtect: CD records authenticity detector, version 0.8.2
Copyright (c) 2004 Oleg Berngardt. All rights reserved.
Copyright (c) 2004 Alexander Djourik. All rights reserved.
FILE: 02 - BRUCKNER Symphony 6 - 3rd mvt. - Scherzo. Nicht schnell - Trio. Langsam.flac
  Size: 37306229 Hash: 8D0E161D10AF2BEC0E94E99591065216 Accuracy: -m0
  Conclusion: CDDA 100%
  Signature: 4025B857B9744473EF8603809A1D11F1008DB54E
FILE: 01 - BRUCKNER Symphony 6 - 2nd mvt. - Adagio. Sehr feierlich.flac
  Size: 81615569 Hash: EF3274E08724B5E74CC0C876AF8C6D09 Accuracy: -m0
  Conclusion: CDDA 99%
  Signature: E26CDDA8B0BFC72AB8ED6D4779C894E4E40915B0
FILE: 04 - BRUCKNER Symphony 7 - 2nd mvt. - Adagio. Sehr feierlich und sehr langsam.flac
  Size: 97135472 Hash: FB7D8593E6EEFBF00F214F5E7CB89206 Accuracy: -m0
  Conclusion: CDDA 43%
  Signature: 77E62A64A4F8CF138D483A1E23CCE04C6965E2AB
FILE: 03 - BRUCKNER Symphony 6 - 4th mvt. - Finale. Bewegt, doch nicht zu schnell.flac
  Size: 67230110 Hash: 3A60A693A167BDEF72615A3DF49F14F9 Accuracy: -m0
  Conclusion: CDDA 99%
  Signature: 83DE795A475868F76B2BB297F3D0C1B3C930001E


Динамический отчет (DR)

foobar2000 1.6.6 / Dynamic Range Meter 1.1.1
log date: 2021-09-08 18:22:17
--------------------------------------------------------------------------------
Analyzed: Furtwängler, Berlin Philharmonic Orchestra / BRUCKNER Symphony No. 6
--------------------------------------------------------------------------------
DR         Peak         RMS     Duration Track
--------------------------------------------------------------------------------
DR12      -0.10 dB   -17.74 dB     16:28 01-BRUCKNER Symphony 6 - 2nd mvt. - Adagio. Sehr feierlich
DR12      -1.08 dB   -19.37 dB      7:42 02-BRUCKNER Symphony 6 - 3rd mvt. - Scherzo. Nicht schnell - Trio. Langsam
DR11      -0.21 dB   -16.24 dB     12:32 03-BRUCKNER Symphony 6 - 4th mvt. - Finale. Bewegt, doch nicht zu schnell
DR15      -0.10 dB   -20.71 dB     22:51 04-BRUCKNER Symphony 7 - 2nd mvt. - Adagio. Sehr feierlich und sehr langsam
--------------------------------------------------------------------------------
Number of tracks:  4
Official DR value: DR12
Samplerate:        44100 Hz
Channels:          2
Bits per sample:   16
Bitrate:           566 kbps
Codec:             FLAC
================================================================================

                                                                                       
                       
                       
                       
                       
                       
                                磁力下载(论坛代下载服务)::
                                                               
                                       
付费主题

已有0人支付


                                               
  • 271.3 MB
  • 温馨提示

    记得善用社区搜索功能,那里可能会有你想要的资源;论坛站内搜索

    如果你有什么需要的资源可以去资源求档发帖,求助社区的网友,我们会在第一时间给你回复哦;资源求档

    对于本社区网盘链接失效密码错误各种报错请在反馈板块反馈报错发帖,您的支持,是我们发展的最大动力;投诉建议

    回复

    使用道具 举报

    您需要登录后才可以回帖 登录 | 立即注册 微信登录

    本版积分规则

    关注0

    粉丝17

    帖子71480

    发布主题
    阅读排行更多+
    关闭

    站长推荐上一条 /1 下一条

    活动提示

    赞助永久VIP会员送3T硬盘一块 限时活动

    地址:立刻参加

    我知道了
    收藏帖子 返回列表 这是一个自定义按钮
    音乐分享,音乐下载。
    微信公众号
    微信号:hires_
    意见反馈:admin@maomicd.com

    加入我们的官方QQ群和微信群

    Powered by Discuz! X3.4 Archiver|手机版|小黑屋|捌零音乐论坛 ( 苏ICP备20015413号 )|( 苏公网安备 32030502000272号) 繁體

    GMT+8, 2021-9-25 04:36