[古典] (Classical, Orchestral) [CD] Mendelssohn - A Midsummer Night's Dream/Ein Sommernachtstraum & Symphony No. 3 'Scottish' (Suddeutsche Philharmonie, Alexander von Pitamic; Mun

[复制链接]
kayda 发表于 2021-9-10 16:56:59 | 显示全部楼层 |阅读模式 打印 上一主题 下一主题
Mendelssohn - A Midsummer Night's Dream, Symphony No. 3 'Scottish'
Жанр: Classical, Orchestral
Носитель: CD
Страна-производитель диска: Made in Germany
Год издания диска: 1994
Издатель (лейбл): Point Classics
Номер по каталогу: 2670242
Дата записи: 1994?
Аудиокодек: FLAC
Тип рипа: image+.cue
Битрейт аудио: lossless
Продолжительность: 01:09:39
Источник: релизер
сайт-источник/ник/другое: LittleGrecy, подарок
Наличие сканов в содержимом раздачи: да
Треклист:
'Ein Sommernachtstraum' / 'A Midsummer Night's Dream'
1 Ouvertüre / Overture Op. 21 12:13
2 Scherzo Op. 61/1 4:56
3 Nocturne Op. 61/7 6:35
4 Hochzeitsmarsch / Wedding March Op. 61/9 5:20
5 Rüpeltanz / Clowns Dance Op. 61/11 1:40
Symphonie Nr. 3 A-Moll Op. 56 'Schottische' / Symphony No. 3 In A Minor, Op. 56 'Scottish'
6 Andante Con Moto - Allegro Un Poco Agitato 14:11
7 Vivace Non Troppo 4:24
8 Adagio 9:38
9 Allegro Vivacissimo - Allegro Maestoso Assai 9:56
Исполнители:
Felix Mendelssohn-Bartholdy (1809-1847)
A Midsummer Night's Dream
Süddeutsche Philharmonie
Alexander von Pitamic, dir.
Symphony No. 3, 'Scottish'
Münchner Symphoniker
Cesare Cantieri, dir.
Лог создания рипа

Exact Audio Copy V1.6 from 23. October 2020
EAC extraction logfile from 10. August 2021, 13:05
Felix Mendelssohn / A Midsummer Night's Dream - Symphony No. 3 "Scottish"
Used drive  : PIONEER BD-RW   BDR-209D   Adapter: 1  ID: 0
Read mode               : Secure
Utilize accurate stream : Yes
Defeat audio cache      : Yes
Make use of C2 pointers : No
Read offset correction                      : 667
Overread into Lead-In and Lead-Out          : No
Fill up missing offset samples with silence : Yes
Delete leading and trailing silent blocks   : No
Null samples used in CRC calculations       : Yes
Used interface                              : Native Win32 interface for Win NT & 2000
Used output format              : User Defined Encoder
Selected bitrate                : 1024 kBit/s
Quality                         : High
Add ID3 tag                     : No
Command line compressor         : C:\Program Files (x86)\Exact Audio Copy\FLAC\FLAC.EXE
Additional command line options : -6 -V -T "ARTIST=%artist%" -T "TITLE=%title%" -T "ALBUM=%albumtitle%" -T "DATE=%year%" -T "TRACKNUMBER=%tracknr%" -T "GENRE=%genre%" -T "COMMENT=%comment%" -T "BAND=%albuminterpret%" -T "ALBUMARTIST=%albuminterpret%" -T "COMPOSER=%composer%" %haslyrics%--tag-from-file=LYRICS="%lyricsfile%"%haslyrics% -T "DISCNUMBER=%cdnumber%" -T "TOTALDISCS=%totalcds%" -T "TOTALTRACKS=%numtracks%" %hascover%--picture="%coverfile%"%hascover% %source% -o %dest%
TOC of the extracted CD
     Track |   Start  |  Length  | Start sector | End sector
    ---------------------------------------------------------
        1  |  0:00.00 | 12:21.10 |         0    |    55584
        2  | 12:21.10 |  5:03.67 |     55585    |    78376
        3  | 17:25.02 |  6:41.73 |     78377    |   108524
        4  | 24:07.00 |  5:26.15 |    108525    |   132989
        5  | 29:33.15 |  1:51.05 |    132990    |   141319
        6  | 31:24.20 | 14:11.60 |    141320    |   205204
        7  | 45:36.05 |  4:26.00 |    205205    |   225154
        8  | 50:02.05 |  9:39.40 |    225155    |   268619
        9  | 59:41.45 |  9:57.30 |    268620    |   313424
Range status and errors
Selected range
     Filename V:\Videos\LittleGrecy,Mendelssohn.A.Midsummer.Nights.Dream\Felix Mendelssohn - A Midsummer Night's Dream - Symphony No. 3 ''Scottish''.wav
     Peak level 99.9 %
     Extraction speed 7.8 X
     Range quality 99.9 %
     Test CRC A93B0F4D
     Copy CRC A93B0F4D
     Copy OK
No errors occurred
AccurateRip summary
Track  1  accurately ripped (confidence 9)  [B453D96E]  (AR v2)
Track  2  accurately ripped (confidence 9)  [EFC6AF98]  (AR v2)
Track  3  accurately ripped (confidence 9)  [E1B2E505]  (AR v2)
Track  4  accurately ripped (confidence 9)  [132152AF]  (AR v2)
Track  5  accurately ripped (confidence 9)  [20CAEBBD]  (AR v2)
Track  6  accurately ripped (confidence 9)  [8F4AA149]  (AR v2)
Track  7  accurately ripped (confidence 9)  [444E94F9]  (AR v2)
Track  8  accurately ripped (confidence 9)  [BE0AA76F]  (AR v2)
Track  9  accurately ripped (confidence 9)  [FD20CAA8]  (AR v2)
All tracks accurately ripped
End of status report
---- CUETools DB Plugin V2.1.6
[CTDB TOCID: uQU0mnXrEesNYsX0LWQ_vG9BdRE-] found
Submit result: uQU0mnXrEesNYsX0LWQ_vG9BdRE- has been confirmed
Track | CTDB Status
  1   | (35/35) Accurately ripped
  2   | (35/35) Accurately ripped
  3   | (34/35) Accurately ripped
  4   | (35/35) Accurately ripped
  5   | (35/35) Accurately ripped
  6   | (35/35) Accurately ripped
  7   | (35/35) Accurately ripped
  8   | (35/35) Accurately ripped
  9   | (35/35) Accurately ripped


Содержание индексной карты (.CUE)

REM GENRE Classical
REM DATE 1994
REM DISCID 87105309
REM COMMENT "ExactAudioCopy v1.6"
PERFORMER "01-05: Süddeutsche Philharmonie, Alexander von Pitamic (dir.), 06-09: Münchner Symphoniker, Cesare Cantieri (dir.)"
TITLE "Felix Mendelssohn: A Midsummer Night's Dream & Symphony No. 3 'Scottish'"
REM COMPOSER "Felix Mendelssohn-Bartholdy (1809-1847)"
FILE "Mendelssohn - A Midsummer Night's Dream; Symphony No. 3 'Scottish'.flac" WAVE
  TRACK 01 AUDIO
    TITLE "A Midsummer Night's Dream - Overture, Op. 21"
    PERFORMER "Felix Mendelssohn"
    REM COMPOSER "Süddeutsche Philharmonie, Alexander von Pitamic"
    INDEX 01 00:00:00
  TRACK 02 AUDIO
    TITLE "A Midsummer Night's Dream - Scherzo, Op. 61, No. 1"
    PERFORMER "Felix Mendelssohn"
    REM COMPOSER "Süddeutsche Philharmonie, Alexander von Pitamic"
    REM INDEX 00 12:17:27
    INDEX 01 12:21:10
  TRACK 03 AUDIO
    TITLE "A Midsummer Night's Dream - Nocturne, Op. 61, No. 7"
    PERFORMER "Felix Mendelssohn"
    REM COMPOSER "Süddeutsche Philharmonie, Alexander von Pitamic"
    REM INDEX 00 17:18:22
    INDEX 01 17:25:02
  TRACK 04 AUDIO
    TITLE "A Midsummer Night's Dream - Wedding march, Op. 61, No. 9"
    PERFORMER "Felix Mendelssohn"
    REM COMPOSER "Süddeutsche Philharmonie, Alexander von Pitamic"
    REM INDEX 00 24:01:50
    INDEX 01 24:07:00
  TRACK 05 AUDIO
    TITLE "A Midsummer Night's Dream - Dance of the clowns, Op. 61, No. 11"
    PERFORMER "Felix Mendelssohn"
    REM COMPOSER "Süddeutsche Philharmonie, Alexander von Pitamic"
    REM INDEX 00 29:27:60
    INDEX 01 29:33:15
  TRACK 06 AUDIO
    TITLE "Symphony No. 3, Op. 56, in a minor, 'Scottish': 1. Andante con moto - Allegro un poco agitato"
    PERFORMER "Felix Mendelssohn"
    REM COMPOSER "Münchner Symphoniker, Cesare Cantieri"
    REM INDEX 00 31:14:50
    INDEX 01 31:24:20
  TRACK 07 AUDIO
    TITLE "Symphony No. 3, Op. 56, in a minor, 'Scottish': 2  Vivace non troppo"
    PERFORMER "Felix Mendelssohn"
    REM COMPOSER "Münchner Symphoniker, Cesare Cantieri"
    INDEX 01 45:36:05
  TRACK 08 AUDIO
    TITLE "Symphony No. 3, Op. 56, in a minor, 'Scottish': 3. Allegro cantabile"
    PERFORMER "Felix Mendelssohn"
    REM COMPOSER "Münchner Symphoniker, Cesare Cantieri"
    INDEX 01 50:02:05
  TRACK 09 AUDIO
    TITLE "Symphony No. 3, Op. 56, in a minor, 'Scottish': 4. Allegro vivacissimo - Allegro maestoso assai"
    PERFORMER "Felix Mendelssohn"
    REM COMPOSER "Münchner Symphoniker, Cesare Cantieri"
    INDEX 01 59:41:45


Лог проверки качества

foobar2000 1.4 / Dynamic Range Meter 1.1.1
log date: 2021-09-01 08:25:48
--------------------------------------------------------------------------------
Analyzed: Felix Mendelssohn / A Midsummer Night's Dream - Symphony No. 3 'Scottish'
--------------------------------------------------------------------------------
DR         Peak         RMS     Duration Track
--------------------------------------------------------------------------------
DR13       0.00 dB   -21.10 dB     12:21 01-A Midsummer Night's Dream - Overture, Op. 21
DR14      -3.81 dB   -25.10 dB      5:04 02-A Midsummer Night's Dream - Scherzo, Op. 61, No. 1
DR11      -4.78 dB   -21.17 dB      6:42 03-A Midsummer Night's Dream - Nocturne, Op. 61, No. 7
DR13      -2.19 dB   -19.25 dB      5:26 04-A Midsummer Night's Dream - Wedding march, Op. 61, No. 9
DR12      -2.33 dB   -18.97 dB      1:51 05-A Midsummer Night's Dream - Dance of the clowns, Op 61, No. 11
DR14      -0.01 dB   -21.10 dB     14:12 06-Symphony No.3, Op.56, in a minor, 'Scottish' - Andante con moto - Allergo un ...
DR13      -4.37 dB   -22.51 dB      4:26 07-Symphony No.3, Op.56, in a minor, 'Scottish' - Vivace non troppo
DR14      -2.91 dB   -24.09 dB      9:40 08-Symphony No.3, Op.56, in a minor, 'Scottish' - Allegro cantabile
DR13      -2.48 dB   -19.49 dB      9:57 09-Symphony No.3, Op.56, in a minor, 'Scottish' - Allegro vivacissimo - Allegro ...
--------------------------------------------------------------------------------
Number of tracks:  9
Official DR value: DR13
Samplerate:        44100 Hz
Channels:          2
Bits per sample:   16
Bitrate:           564 kbps
Codec:             FLAC
================================================================================

                                                                                       
                       
                       
                       
                       
                       
                                磁力下载(论坛代下载服务)::
                                                               
                                       
付费主题

已有0人支付


                                               
  • 293.5 MB
  • 温馨提示

    记得善用社区搜索功能,那里可能会有你想要的资源;论坛站内搜索

    如果你有什么需要的资源可以去资源求档发帖,求助社区的网友,我们会在第一时间给你回复哦;资源求档

    对于本社区网盘链接失效密码错误各种报错请在反馈板块反馈报错发帖,您的支持,是我们发展的最大动力;投诉建议

    回复

    使用道具 举报

    您需要登录后才可以回帖 登录 | 立即注册 微信登录

    本版积分规则

    关注0

    粉丝2

    帖子31142

    发布主题
    阅读排行更多+
    关闭

    站长推荐上一条 /1 下一条

    活动提示

    赞助永久VIP会员送3T硬盘一块 限时活动

    地址:立刻参加

    我知道了
    收藏帖子 返回列表 这是一个自定义按钮
    音乐分享,音乐下载。
    微信公众号
    微信号:hires_
    意见反馈:admin@maomicd.com

    加入我们的官方QQ群和微信群

    Powered by Discuz! X3.4 Archiver|手机版|小黑屋|捌零音乐论坛 ( 苏ICP备20015413号 )|( 苏公网安备 32030502000272号) 繁體

    GMT+8, 2021-9-22 23:33