[古典] (Classical ballet) Khachaturian – Spartacus / Хачатурян - Спартак (Armenian Philharmonic Orchestra/Армянский национальный филармонический оркестр, Loris Tjeknavorian/Лорис Чкнаворя

[复制链接]
10086 发表于 7 天前 | 显示全部楼层 |阅读模式 打印 上一主题 下一主题
Khachaturian – Spartacus / Хачатурян - Спартак
Жанр: Classical ballet
Страна-производитель диска: Made in Engalnd
Год издания диска: 1999
Издатель (лейбл): ASV digital
Номер по каталогу: CD DCA 949
Дата записи: 1999
Аудиокодек: FLAC
Тип рипа: image+.cue
Битрейт аудио: lossless
Продолжительность: 64'00
Источник: релизер
сайт-источник/ник/другое: odeonmusic
Наличие сканов в содержимом раздачи: да
Треклист:
Spartacus - suite no.1
1. 1. Introduction and Dance of Nymphs Spartacus Suite
2. 2. Introduction, Adagio of Aegina and Harmodius Spartacus Suite
3. 3. Variation of Aegina and Bacchanalia Spartacus Suite
4. 4. Scene and Dance of Crotalums Spartacus Suite
5. 5. Dance of the Gaditanae and Victory of Spartacus Spartacus Suite
Spartacus - suite no.2
6. 1. Adagio of Spartacus and Phrygia Spartacus Suite
7. 2. Entrance of Merchants, Dance of the Roman Courtesan, Genera Spartacus Suite
8. 3. Entrance of Spartacus, Quarrel, Harmodius' Treachery Spartacus Suite
9. 4. The Dance of the Pirates Spartacus Suite
Spartacus - suite no.3
10. 1. In the Market Place Spartacus Suite
11. 2. Dance of the Ethiopian Boy and Dance fo the Grecian Slave Spartacus Suite
12. 3. Dance of the Egyptian Maidens Spartacus Suite
13. 4. Phrygia's Prophecy and Farewell to Spartacus, Parting of Sp Spartacus Suite
14. 5. Sword Dance Spartacus Suite
Исполнители

Aram Khachaturian (1903-1978)
Spartacus - suite no.1
Spartacus - suite no.2
Spartacus - suite no.3
Armenian Philharmonic Orchestra
Loris Tjeknavorian - conductor
Audio CD (August 17, 1999)


Лог создания рипа

Exact Audio Copy V1.0 beta 3 from 29. August 2011
EAC extraction logfile from 3. September 2013, 11:33
Loris Tjeknavorian / Khachaturian - Spartacus Ballet Suites - Loris Tjeknavorian
Used drive  : TSSTcorpCDDVDW SH-222BB   Adapter: 2  ID: 1
Read mode               : Secure
Utilize accurate stream : Yes
Defeat audio cache      : Yes
Make use of C2 pointers : No
Read offset correction                      : 6
Overread into Lead-In and Lead-Out          : No
Fill up missing offset samples with silence : Yes
Delete leading and trailing silent blocks   : No
Null samples used in CRC calculations       : Yes
Used interface                              : Native Win32 interface for Win NT & 2000
Used output format              : User Defined Encoder
Selected bitrate                : 1024 kBit/s
Quality                         : High
Add ID3 tag                     : No
Command line compressor         : C:\Program Files\Exact Audio Copy\Flac\flac.exe
Additional command line options : -8 -V -T "TITLE=%title%" -T "ARTIST=%artist%" -T "ALBUMARTIST=%albumartist%" -T "ALBUM=%albumtitle%" -T "DATE=%year%" -T "TRACKNUMBER=%tracknr%" -T "TRACKTOTAL=%numtracks%" -T "GENRE=%genre%" -T "COMMENT=%comment%" -T "PERFORMER=%albuminterpret%" -T "COMPOSER=%composer%" %source% -o %dest%
TOC of the extracted CD
     Track |   Start  |  Length  | Start sector | End sector
    ---------------------------------------------------------
        1  |  0:00.00 |  4:39.62 |         0    |    20986
        2  |  4:39.62 |  6:49.15 |     20987    |    51676
        3  | 11:29.02 |  3:11.15 |     51677    |    66016
        4  | 14:40.17 |  4:06.70 |     66017    |    84536
        5  | 18:47.12 |  7:29.58 |     84537    |   118269
        6  | 26:16.70 |  9:03.12 |    118270    |   159006
        7  | 35:20.07 |  6:17.55 |    159007    |   187336
        8  | 41:37.62 |  5:14.70 |    187337    |   210956
        9  | 46:52.57 |  1:18.35 |    210957    |   216841
       10  | 48:11.17 |  2:46.45 |    216842    |   229336
       11  | 50:57.62 |  2:31.55 |    229337    |   240716
       12  | 53:29.42 |  3:32.73 |    240717    |   256689
       13  | 57:02.40 |  5:15.02 |    256690    |   280316
       14  | 62:17.42 |  1:45.20 |    280317    |   288211
Range status and errors
Selected range
     Filename G:\Ripped general\[8596] Khachaturian – Spartacus Ballet Suites – Loris Tjeknavorian\Khachaturian - Spartacus Ballet Suites - Loris Tjeknavorian.wav
     Peak level 100.0 %
     Extraction speed 7.0 X
     Range quality 100.0 %
     Test CRC 707B1D4C
     Copy CRC 707B1D4C
     Copy OK
No errors occurred
AccurateRip summary
Track  1  cannot be verified as accurate (confidence 5)  [BDEBE32E], AccurateRip returned [BC1B41E9]  (AR v2)
Track  2  cannot be verified as accurate (confidence 5)  [464CD638], AccurateRip returned [8282D0C8]  (AR v2)
Track  3  cannot be verified as accurate (confidence 5)  [5AE3AD75], AccurateRip returned [A17B8CB9]  (AR v2)
Track  4  cannot be verified as accurate (confidence 5)  [B85309D3], AccurateRip returned [CC109F6E]  (AR v2)
Track  5  cannot be verified as accurate (confidence 5)  [C863D98F], AccurateRip returned [956CC179]  (AR v2)
Track  6  cannot be verified as accurate (confidence 5)  [BDBCCAED], AccurateRip returned [6865E060]  (AR v2)
Track  7  cannot be verified as accurate (confidence 5)  [3663E859], AccurateRip returned [7980411E]  (AR v2)
Track  8  cannot be verified as accurate (confidence 5)  [325793F7], AccurateRip returned [62996C6A]  (AR v2)
Track  9  cannot be verified as accurate (confidence 5)  [0D6A35FB], AccurateRip returned [E7D3A534]  (AR v2)
Track 10  cannot be verified as accurate (confidence 5)  [C1163E3F], AccurateRip returned [13B75AC1]  (AR v2)
Track 11  cannot be verified as accurate (confidence 5)  [59175C1F], AccurateRip returned [A7F0DAF7]  (AR v2)
Track 12  cannot be verified as accurate (confidence 5)  [D9C4BBC5], AccurateRip returned [509F437E]  (AR v2)
Track 13  cannot be verified as accurate (confidence 5)  [9457C420], AccurateRip returned [5F2A015B]  (AR v2)
Track 14  cannot be verified as accurate (confidence 5)  [5BD083DF], AccurateRip returned [3AF77E37]  (AR v2)
No tracks could be verified as accurate
You may have a different pressing from the one(s) in the database
End of status report


Содержание индексной карты (.CUE)

REM GENRE Classical
REM DATE 1999
REM DISCID D00F020E
REM COMMENT "ExactAudioCopy v1.0b3"
PERFORMER "Loris Tjeknavorian"
TITLE "Khachaturian - Spartacus Ballet Suites - Loris Tjeknavorian"
FILE "Khachaturian - Spartacus Ballet Suites - Loris Tjeknavorian.flac" WAVE
  TRACK 01 AUDIO
    TITLE "Intro, Dance of Nymphs"
    PERFORMER "Loris Tjeknavorian & Aram Khachaturian"
    INDEX 01 00:00:00
  TRACK 02 AUDIO
    TITLE "Intro, Adagio of Aegina and Harmodius"
    PERFORMER "Loris Tjeknavorian & Aram Khachaturian"
    INDEX 00 04:38:45
    INDEX 01 04:39:62
  TRACK 03 AUDIO
    TITLE "Varation of Aegine and Harmodius"
    PERFORMER "Loris Tjeknavorian & Aram Khachaturian"
    INDEX 00 11:25:22
    INDEX 01 11:29:02
  TRACK 04 AUDIO
    TITLE "Scene and Dance of Crotalums"
    PERFORMER "Loris Tjeknavorian & Aram Khachaturian"
    INDEX 00 14:36:37
    INDEX 01 14:40:17
  TRACK 05 AUDIO
    TITLE "Dance of the Gaditanae and Victory of Spartacus"
    PERFORMER "Loris Tjeknavorian & Aram Khachaturian"
    INDEX 00 18:43:32
    INDEX 01 18:47:12
  TRACK 06 AUDIO
    TITLE "Adagio of Spartacus and Phyrgia"
    PERFORMER "Loris Tjeknavorian & Aram Khachaturian"
    INDEX 00 26:13:15
    INDEX 01 26:16:70
  TRACK 07 AUDIO
    TITLE "Entrance of Merchants, Dance of Roman Courtesans, General Dance"
    PERFORMER "Loris Tjeknavorian & Aram Khachaturian"
    INDEX 00 35:16:27
    INDEX 01 35:20:07
  TRACK 08 AUDIO
    TITLE "Entrance of Spartacus, Quarrel, Treachery of Harmodius"
    PERFORMER "Loris Tjeknavorian & Aram Khachaturian"
    INDEX 01 41:37:62
  TRACK 09 AUDIO
    TITLE "Dance of the Pirates"
    PERFORMER "Loris Tjeknavorian & Aram Khachaturian"
    INDEX 00 46:49:02
    INDEX 01 46:52:57
  TRACK 10 AUDIO
    TITLE "In the Market Place"
    PERFORMER "Loris Tjeknavorian & Aram Khachaturian"
    INDEX 00 48:07:37
    INDEX 01 48:11:17
  TRACK 11 AUDIO
    TITLE "Dance of the Ethiopian boy, Dance of the Grecian Slave"
    PERFORMER "Loris Tjeknavorian & Aram Khachaturian"
    INDEX 01 50:57:62
  TRACK 12 AUDIO
    TITLE "Dance of the Egyptian Maidens"
    PERFORMER "Loris Tjeknavorian & Aram Khachaturian"
    INDEX 00 53:25:62
    INDEX 01 53:29:42
  TRACK 13 AUDIO
    TITLE "Phyrgia's Prophecy, Farewell to Spartacus, Parting of Spartacus and Phyrgia"
    PERFORMER "Loris Tjeknavorian & Aram Khachaturian"
    INDEX 00 56:58:60
    INDEX 01 57:02:40
  TRACK 14 AUDIO
    TITLE "Sword Dance"
    PERFORMER "Loris Tjeknavorian & Aram Khachaturian"
    INDEX 00 62:13:62
    INDEX 01 62:17:42

Aram Khachaturian + Loris Tjeknavorian - Symphony No.2 in E minor "The Bell"; Suite from "The Battle of Stalingrad"
Khachaturian - Valencian Widow Suite; Gayaneh Suite No. 2 / Tjeknavorian - Danses fantastiques
Aram Khachaturian + Loris Tjeknavorian - Symphony No.1 & 3                                                                                       
                       
                       
                       
                       
                       
                                磁力下载(论坛代下载服务)::
                                                               
                                       
付费主题

已有0人支付


                                               
  • 312.2 MB
  • 温馨提示

    记得善用社区搜索功能,那里可能会有你想要的资源;论坛站内搜索

    如果你有什么需要的资源可以去资源求档发帖,求助社区的网友,我们会在第一时间给你回复哦;资源求档

    对于本社区网盘链接失效密码错误各种报错请在反馈板块反馈报错发帖,您的支持,是我们发展的最大动力;投诉建议

    回复

    使用道具 举报

    您需要登录后才可以回帖 登录 | 立即注册 微信登录

    本版积分规则

    关注0

    粉丝7

    帖子52319

    发布主题
    阅读排行更多+
    关闭

    站长推荐上一条 /1 下一条

    活动提示

    赞助永久VIP会员送3T硬盘一块 限时活动

    地址:立刻参加

    我知道了
    收藏帖子 返回列表 这是一个自定义按钮
    音乐分享,音乐下载。
    微信公众号
    微信号:hires_
    意见反馈:admin@maomicd.com

    加入我们的官方QQ群和微信群

    Powered by Discuz! X3.4 Archiver|手机版|小黑屋|捌零音乐论坛 ( 苏ICP备20015413号 )|( 苏公网安备 32030502000272号) 繁體

    GMT+8, 2021-9-17 00:36