[古典] (Orchestral) [WEB] Bruckner - Symphonie Nr.5 (Berliner Philharmoniker - Furtwangler) - Pristine XR-remastering, mono - 2010, FLAC (tracks) lossless

[复制链接]
10086 发表于 2021-9-10 16:56:58 | 显示全部楼层 |阅读模式 打印 上一主题 下一主题
Bruckner - Symphonie Nr.5
Berliner Philharmoniker - Wilhelm Furtwängler
Жанр: Orchestral
Носитель: WEB
Страна-производитель диска: France
Год издания диска: 2010
Издатель (лейбл): Pristine
Номер по каталогу: PASC255
Дата записи: 25-28.10.1942
Аудиокодек: FLAC, mono
Тип рипа: tracks
Битрейт аудио: lossless
Продолжительность: 68'34''
Источник: скачано с
сайт-источник/ник/другое: PristineClassical
Наличие сканов в содержимом раздачи: да
Треклист:
Anton Bruckner - Symphonie Nr.5:
[01] I. Introduction. Adagio - Allegro
[02] II. Adagio. Sehr langsam
[03] III. Scherzo. Molto vivace (schnell) - Trio
[04] IV. Finale. Adagio - Allegro moderato
Исполнители:
Berliner Philharmoniker - Wilhelm Furtwängler


Лог проверки качества

-----------------------
DON'T MODIFY THIS FILE
-----------------------
PERFORMER: auCDtect Task Manager, ver. 1.6.0 RC1 build 1.6.0.1
Copyright (c) 2008-2010 y-soft. All rights reserved
http://y-soft.org
ANALYZER: auCDtect: CD records authenticity detector, version 0.8.2
Copyright (c) 2004 Oleg Berngardt. All rights reserved.
Copyright (c) 2004 Alexander Djourik. All rights reserved.
FILE: 01 - Symphony No. 5 in B flat major - I. Introduction. Adagio - Allegro.flac
  Size: 46715102 Hash: 4FB88D5D689AA8C76C19F132CC5297BE Accuracy: -m0
  Conclusion: CDDA 100%
  Signature: CD4A176EECA26ED5411FE3DDCC4ABB712FB57871
FILE: 04 - Symphony No. 5 in B flat major - IV. Finale. Adagio - Allegro moderato.flac
  Size: 54948162 Hash: 305619BAD6819AC88A356E0C3B5B3AC2 Accuracy: -m0
  Conclusion: CDDA 100%
  Signature: 4C83177636DA9E7408605C886482E201A0A5DC8E
FILE: 03 - Symphony No. 5 in B flat major - III. Scherzo. Molto vivace (schnell) - Trio.flac
  Size: 26553967 Hash: 3E6E56BE1D0DED778777AA74BD8C593D Accuracy: -m0
  Conclusion: CDDA 92%
  Signature: 9DF1F44FB7291005946D052EF5E0D8318F4B3E69
FILE: 02 - Symphony No. 5 in B flat major - II. Adagio. Sehr langsam.flac
  Size: 35836609 Hash: 3A0F0BC4CC9D76E037FA74519469CDD2 Accuracy: -m0
  Conclusion: CDDA 100%
  Signature: 800452BD3A2BE5CFBC5F00269FECBE97F0B6A647


Динамический отчет (DR)

foobar2000 1.6.6 / Dynamic Range Meter 1.1.1
log date: 2021-09-04 18:43:34
--------------------------------------------------------------------------------
Analyzed: Wilhelm Furtwängler / Bruckner : Symphony No. 5 in B flat major
--------------------------------------------------------------------------------
DR         Peak         RMS     Duration Track
--------------------------------------------------------------------------------
DR12      -1.16 dB   -19.50 dB     19:08 01-Symphony No. 5 in B flat major I. Introduction. Adagio - Allegro
DR11      -2.87 dB   -20.19 dB     15:29 02-Symphony No. 5 in B flat major II. Adagio. Sehr langsam
DR13      -2.23 dB   -20.44 dB     12:00 03-Symphony No. 5 in B flat major III. Scherzo. Molto vivace (schnell) - Trio
DR11      -0.82 dB   -17.54 dB     21:58 04-Symphony No. 5 in B flat major IV. Finale. Adagio - Allegro moderato
--------------------------------------------------------------------------------
Number of tracks:  4
Official DR value: DR12
Samplerate:        44100 Hz
Channels:          2
Bits per sample:   16
Bitrate:           334 kbps
Codec:             FLAC
================================================================================

                                                                                       
                       
                       
                       
                       
                       
                                磁力下载(论坛代下载服务)::
                                                               
                                       
付费主题

已有0人支付


                                               
  • 158.2 MB
  • 温馨提示

    记得善用社区搜索功能,那里可能会有你想要的资源;论坛站内搜索

    如果你有什么需要的资源可以去资源求档发帖,求助社区的网友,我们会在第一时间给你回复哦;资源求档

    对于本社区网盘链接失效密码错误各种报错请在反馈板块反馈报错发帖,您的支持,是我们发展的最大动力;投诉建议

    回复

    使用道具 举报

    您需要登录后才可以回帖 登录 | 立即注册 微信登录

    本版积分规则

    关注0

    粉丝7

    帖子52319

    发布主题
    阅读排行更多+
    关闭

    站长推荐上一条 /1 下一条

    活动提示

    赞助永久VIP会员送3T硬盘一块 限时活动

    地址:立刻参加

    我知道了
    收藏帖子 返回列表 这是一个自定义按钮
    音乐分享,音乐下载。
    微信公众号
    微信号:hires_
    意见反馈:admin@maomicd.com

    加入我们的官方QQ群和微信群

    Powered by Discuz! X3.4 Archiver|手机版|小黑屋|捌零音乐论坛 ( 苏ICP备20015413号 )|( 苏公网安备 32030502000272号) 繁體

    GMT+8, 2021-9-24 05:56