[古典] (Orchestral) [WEB] Bruckner - Symphonie Nr.4 »Romantische« (Wiener Philharmoniker - Wilhelm Furtwangler) - Pristine XR-remastering, mono - 2010, FLAC (tracks) lossless

[复制链接]
全球搬运 发表于 2021-9-10 16:56:58 | 显示全部楼层 |阅读模式 打印 上一主题 下一主题
Bruckner - Symphonie Nr.4 »Romantische«
Wiener Philharmoniker - Wilhelm Furtwängler
Жанр: Orchestral
Носитель: WEB
Страна-производитель диска: France
Год издания диска: 2010
Издатель (лейбл): Pristine
Номер по каталогу: PASC254
Дата записи: 22.10.1951
Аудиокодек: FLAC, mono
Тип рипа: tracks
Битрейт аудио: lossless
Продолжительность: 64'00''
Источник: скачано с
сайт-источник/ник/другое: PristineClassical
Наличие сканов в содержимом раздачи: да
Треклист:
Anton Bruckner - Symphonie Nr.4:
[01] I. Bewegt, nicht zu schnell
[02] II. Andante, quasi Allegreto
[03] III. Scherzo. Bewegt - Trio. Nicht zu schnell
[04] IV. Finale. Bewegt, doch nicht du schnell
Исполнители:
Wiener Philharmoniker - Wilhelm Furtwängler


Лог проверки качества

-----------------------
DON'T MODIFY THIS FILE
-----------------------
PERFORMER: auCDtect Task Manager, ver. 1.6.0 RC1 build 1.6.0.1
Copyright (c) 2008-2010 y-soft. All rights reserved
http://y-soft.org
ANALYZER: auCDtect: CD records authenticity detector, version 0.8.2
Copyright (c) 2004 Oleg Berngardt. All rights reserved.
Copyright (c) 2004 Alexander Djourik. All rights reserved.
FILE: 04 - Symphony No.4 in E flat major 'Romantic', WAB 104 - IV. Finale. Bewegt, doch nicht du schnell.flac
  Size: 70552152 Hash: 7322AA1EAEE7BF0A581E1EDEDF9388B8 Accuracy: -m0
  Conclusion: CDDA 100%
  Signature: 8D9412439173D60519FC3E8E5EE7864426F9C810
FILE: 03 - Symphony No.4 in E flat major 'Romantic', WAB 104 - III. Scherzo. Bewegt - Trio. Nicht zu schnell.flac
  Size: 35615084 Hash: CB1EFB40575DC5C4C240390ED8DFF6AB Accuracy: -m0
  Conclusion: CDDA 100%
  Signature: B8666E3282B6F38D36DE01F0AE28F4F280CD3FA1
FILE: 02 - Symphony No.4 in E flat major 'Romantic', WAB 104 - II. Andante, quasi Allegreto.flac
  Size: 60293293 Hash: 4A6A4A28989B69B153A5A11861C3C1E2 Accuracy: -m0
  Conclusion: CDDA 100%
  Signature: 2477F7173B57ABD04AA963B5671F41C5990EAD27
FILE: 01 - Symphony No.4 in E flat major 'Romantic', WAB 104 - I. Bewegt, nicht zu schnell.flac
  Size: 62999355 Hash: A202F2703B24729BD7A3685344C48D8A Accuracy: -m0
  Conclusion: CDDA 99%
  Signature: 131E5B1DEA7901F8E5A2A466809F70F4326F3FD7


Динамический отчет (DR)

foobar2000 1.6.6 / Dynamic Range Meter 1.1.1
log date: 2021-09-04 18:41:31
--------------------------------------------------------------------------------
Analyzed: Wilhelm Furtwängler / Bruckner : Symphony No.4 in E flat major
--------------------------------------------------------------------------------
DR         Peak         RMS     Duration Track
--------------------------------------------------------------------------------
DR13      -0.14 dB   -18.63 dB     17:15 01-Symphony No.4 in E flat major I. Bewegt, nicht zu schnell
DR14      -0.24 dB   -21.48 dB     17:35 02-Symphony No.4 in E flat major II. Andante, quasi Allegreto
DR13      -0.49 dB   -19.19 dB      9:59 03-Symphony No.4 in E flat major III. Scherzo. Bewegt - Trio. Nicht zu schnell
DR12       0.00 dB   -17.99 dB     19:12 04-Symphony No.4 in E flat major IV. Finale. Bewegt, doch nicht du schnell
--------------------------------------------------------------------------------
Number of tracks:  4
Official DR value: DR13
Samplerate:        44100 Hz
Channels:          2
Bits per sample:   16
Bitrate:           490 kbps
Codec:             FLAC
================================================================================

                                                                                       
                       
                       
                       
                       
                       
                                磁力下载(论坛代下载服务)::
                                                               
                                       
付费主题

已有0人支付


                                               
  • 220.6 MB
  • 温馨提示

    记得善用社区搜索功能,那里可能会有你想要的资源;论坛站内搜索

    如果你有什么需要的资源可以去资源求档发帖,求助社区的网友,我们会在第一时间给你回复哦;资源求档

    对于本社区网盘链接失效密码错误各种报错请在反馈板块反馈报错发帖,您的支持,是我们发展的最大动力;投诉建议

    回复

    使用道具 举报

    您需要登录后才可以回帖 登录 | 立即注册 微信登录

    本版积分规则

    关注0

    粉丝16

    帖子70967

    发布主题
    阅读排行更多+
    关闭

    站长推荐上一条 /1 下一条

    活动提示

    赞助永久VIP会员送3T硬盘一块 限时活动

    地址:立刻参加

    我知道了
    收藏帖子 返回列表 这是一个自定义按钮
    音乐分享,音乐下载。
    微信公众号
    微信号:hires_
    意见反馈:admin@maomicd.com

    加入我们的官方QQ群和微信群

    Powered by Discuz! X3.4 Archiver|手机版|小黑屋|捌零音乐论坛 ( 苏ICP备20015413号 )|( 苏公网安备 32030502000272号) 繁體

    GMT+8, 2021-9-22 22:59