[古典] (Classical) Wolfgang Amadeus Mozart - Symphonies Nos 40 & 41 Jupiter (Academy of St Martin in the Fields, Neville Marriner) - 1991, FLAC (tracks+.cue) lossless

[复制链接]
kayda 发表于 2021-9-10 16:56:58 | 显示全部楼层 |阅读模式 打印 上一主题 下一主题
Mozart - Symphonies Nos 40 & 41 JupiterЖанр: Classical
Год издания диска: 1991
Издатель (лейбл): Seraphim
Номер по каталогу: 7243 5 73290 2 6 61448
Дата записи: 1986
Аудиокодек: FLAC
Тип рипа: tracks+.cue
Битрейт аудио: lossless
Продолжительность: 01:01:26
Источник: скачано из сети
Наличие сканов в содержимом раздачи: да
Исполнители:
Academy of St Martin in the Fields
Neville Marriner
Треклист:
Symphony #40 In G Minor, K 550
01. 1. Molto Allegro (7:26)
02. 2. Andante (10:58)
03. 3. Menuetto & Trio (Allegretto) (3:47)
04. 4. Allegro Assai (6:35)
Symphony #41 In C, K 551, "Jupiter"
05. 1. Allegro Vivace (11:27)
06. 2. Andante Cantabile (8:17)
07. 3. Menuetto & Trio (Allegretto) (4:29)
08. 4. Molto Allegro (8:26)

LOG EAC:

X Lossless Decoder version 20161007 (149.3)
XLD extraction logfile from 2019-10-27 11:05:51 -0500
Mozart / Symphonies #40 & 41
Used drive : HL-DT-ST DVDRAM GP75N (revision 1.00)
Media type : Pressed CD
Ripper mode             : XLD Secure Ripper
Disable audio cache     : OK for the drive with a cache less than 1375KiB
Make use of C2 pointers : NO
Read offset correction  : 48
Max retry count         : 20
Gap status              : Analyzed, Appended (except HTOA)
TOC of the extracted CD
     Track |   Start  |  Length  | Start sector | End sector
    ---------------------------------------------------------
        1  | 00:00:00 | 07:25:45 |         0    |    33419
        2  | 07:25:45 | 10:57:65 |     33420    |    82759
        3  | 18:23:35 | 03:47:22 |     82760    |    99806
        4  | 22:10:57 | 06:34:43 |     99807    |   129399
        5  | 28:45:25 | 11:27:35 |    129400    |   180959
        6  | 40:12:60 | 08:16:62 |    180960    |   218221
        7  | 48:29:47 | 04:28:73 |    218222    |   238394
        8  | 52:58:45 | 08:25:70 |    238395    |   276339
List of alternate offset correction values
        #  | Absolute | Relative | Confidence
    ------------------------------------------
        1  |    939   |    891   |     21
        2  |      6   |    -42   |     11
AccurateRip Summary (DiscID: 00133728-007fb2f3-560e6408)
    Track 01 : OK (v2, confidence 8/31, with different offset)
    Track 02 : OK (v2, confidence 8/31, with different offset)
    Track 03 : OK (v2, confidence 8/31, with different offset)
    Track 04 : OK (v2, confidence 8/30, with different offset)
    Track 05 : OK (v2, confidence 8/32, with different offset)
    Track 06 : OK (v1+v2, confidence 21/31, with different offset)
    Track 07 : OK (v2, confidence 8/32, with different offset)
    Track 08 : OK (v1+v2, confidence 21/31, with different offset)
        ->All tracks accurately ripped.
All Tracks
    Album gain               : 0.47 dB
    Peak                     : 0.933441
    Statistics
        Read error                           : 0
        Jitter error (maybe fixed)           : 0
        Retry sector count                   : 0
        Damaged sector count                 : 0
Track 01
    Filename : /Users/davincisbrush/磁力下载(论坛代下载服务)::s/Mozart - Symphonies #40 & 41 (1986) [FLAC]/01 Mozart: Symphony #40 In G Minor, K 550 - 1. Molto Allegro.flac
    Pre-gap length : 00:02:00
    Track gain               : 0.07 dB
    Peak                     : 0.789764
    CRC32 hash (test run)    : 01C8EFE6
    CRC32 hash               : 01C8EFE6
    CRC32 hash (skip zero)   : E5995F03
    AccurateRip v1 signature : B95974A7
    AccurateRip v2 signature : 38762A7A (F640FFC8 w/correction)
        ->Accurately ripped with different offset (v2, confidence 8/31, offset -42)
    Statistics
        Read error                           : 0
        Jitter error (maybe fixed)           : 0
        Retry sector count                   : 0
        Damaged sector count                 : 0
Track 02
    Filename : /Users/davincisbrush/磁力下载(论坛代下载服务)::s/Mozart - Symphonies #40 & 41 (1986) [FLAC]/02 Mozart: Symphony #40 In G Minor, K 550 - 2. Andante.flac
    Pre-gap length : 00:03:28
    Track gain               : 4.01 dB
    Peak                     : 0.600616
    CRC32 hash (test run)    : EF6C789C
    CRC32 hash               : EF6C789C
    CRC32 hash (skip zero)   : CCBB6518
    AccurateRip v1 signature : 1389B341
    AccurateRip v2 signature : 5A0134E2 (A306BC88 w/correction)
        ->Accurately ripped with different offset (v2, confidence 8/31, offset -42)
    Statistics
        Read error                           : 0
        Jitter error (maybe fixed)           : 0
        Retry sector count                   : 0
        Damaged sector count                 : 0
Track 03
    Filename : /Users/davincisbrush/磁力下载(论坛代下载服务)::s/Mozart - Symphonies #40 & 41 (1986) [FLAC]/03 Mozart: Symphony #40 In G Minor, K 550 - 3. Menuetto & Trio (Allegretto).flac
    Pre-gap length : 00:04:05
    Track gain               : 2.37 dB
    Peak                     : 0.516754
    CRC32 hash (test run)    : 1EBE7BB7
    CRC32 hash               : 1EBE7BB7
    CRC32 hash (skip zero)   : B9049E12
    AccurateRip v1 signature : 606B60CF
    AccurateRip v2 signature : B906ED13 (65063FB7 w/correction)
        ->Accurately ripped with different offset (v2, confidence 8/31, offset -42)
    Statistics
        Read error                           : 0
        Jitter error (maybe fixed)           : 0
        Retry sector count                   : 0
        Damaged sector count                 : 0
Track 04
    Filename : /Users/davincisbrush/磁力下载(论坛代下载服务)::s/Mozart - Symphonies #40 & 41 (1986) [FLAC]/04 Mozart: Symphony #40 In G Minor, K 550 - 4. Allegro Assai.flac
    Pre-gap length : 00:00:02
    Track gain               : 1.06 dB
    Peak                     : 0.589325
    CRC32 hash (test run)    : 5306D0B1
    CRC32 hash               : 5306D0B1
    CRC32 hash (skip zero)   : EBE66FF2
    AccurateRip v1 signature : 4A2B0AC2
    AccurateRip v2 signature : E2E8B246 (D49D4F7E w/correction)
        ->Accurately ripped with different offset (v2, confidence 8/30, offset -42)
    Statistics
        Read error                           : 0
        Jitter error (maybe fixed)           : 0
        Retry sector count                   : 0
        Damaged sector count                 : 0
Track 05
    Filename : /Users/davincisbrush/磁力下载(论坛代下载服务)::s/Mozart - Symphonies #40 & 41 (1987) [FLAC]/05 Mozart: Symphony #41 In C, K 551, "Jupiter" - 1. Allegro Vivace.flac
    Pre-gap length : 00:06:49
    Track gain               : 0.51 dB
    Peak                     : 0.657990
    CRC32 hash (test run)    : 5A33C594
    CRC32 hash               : 5A33C594
    CRC32 hash (skip zero)   : 2426DAF0
    AccurateRip v1 signature : 366ED494
    AccurateRip v2 signature : 6B67AC0F (5D4274C7 w/correction)
        ->Accurately ripped with different offset (v2, confidence 8/32, offset -42)
    Statistics
        Read error                           : 0
        Jitter error (maybe fixed)           : 0
        Retry sector count                   : 0
        Damaged sector count                 : 0
Track 06
    Filename : /Users/davincisbrush/磁力下载(论坛代下载服务)::s/Mozart - Symphonies #40 & 41 (1987) [FLAC]/06 Mozart: Symphony #41 In C, K 551, "Jupiter" - 2. Andante Cantabile.flac
    Pre-gap length : 00:03:60
    Track gain               : 4.59 dB
    Peak                     : 0.505219
    CRC32 hash (test run)    : A2E60553
    CRC32 hash               : A2E60553
    CRC32 hash (skip zero)   : 2E76B0C3
    AccurateRip v1 signature : 63AF57C0 (33B0E32F w/correction)
    AccurateRip v2 signature : 92A3E8C6 (3E939846 w/correction)
        ->Accurately ripped with different offset (v1+v2, confidence 13+8/31, offset +891)
    Statistics
        Read error                           : 0
        Jitter error (maybe fixed)           : 0
        Retry sector count                   : 0
        Damaged sector count                 : 0
Track 07
    Filename : /Users/davincisbrush/磁力下载(论坛代下载服务)::s/Mozart - Symphonies #40 & 41 (1987) [FLAC]/07 Mozart: Symphony #41 In C, K 551, "Jupiter" - 3. Menuetto & Trio (Allegretto).flac
    Pre-gap length : 00:00:50
    Track gain               : -0.42 dB
    Peak                     : 0.799072
    CRC32 hash (test run)    : 91CDC770
    CRC32 hash               : 91CDC770
    CRC32 hash (skip zero)   : 65B1E06D
    AccurateRip v1 signature : 5A6B6696
    AccurateRip v2 signature : 4A045A55 (870F9846 w/correction)
        ->Accurately ripped with different offset (v2, confidence 8/32, offset -42)
    Statistics
        Read error                           : 0
        Jitter error (maybe fixed)           : 0
        Retry sector count                   : 0
        Damaged sector count                 : 0
Track 08
    Filename : /Users/davincisbrush/磁力下载(论坛代下载服务)::s/Mozart - Symphonies #40 & 41 (1987) [FLAC]/08 Mozart: Symphony #41 In C, K 551, "Jupiter" - 4. Molto Allegro.flac
    Pre-gap length : 00:00:48
    Track gain               : -1.22 dB
    Peak                     : 0.933441
    CRC32 hash (test run)    : 1C79C819
    CRC32 hash               : 1C79C819
    CRC32 hash (skip zero)   : 7EC01270
    AccurateRip v1 signature : 4448E0B5 (839978F4 w/correction)
    AccurateRip v2 signature : C1AEE5ED (C15486C8 w/correction)
        ->Accurately ripped with different offset (v1+v2, confidence 13+8/31, offset +891)
    Statistics
        Read error                           : 0
        Jitter error (maybe fixed)           : 0
        Retry sector count                   : 0
        Damaged sector count                 : 0
No errors occurred
End of status report
-----BEGIN XLD SIGNATURE-----
1e5QMrOBLxcKRR9oJPdAyqhuwSM0uLNycUSySmtvYZS1rFXZS4OaYWIKOwpxMYb81yNg3wMLh6diH0NvmsTEndG9vXo6WX3qRZ47UO4
-----END XLD SIGNATURE-----


CUE sheet - corr:

REM GENRE Classical
TITLE "Symphonies #40 & 41"
PERFORMER "Mozart"
CATALOG 0724356982024
REM GENRE "Classical"
REM DISCNUMBER 1
REM TOTALDISCS 1
REM DISCID 560E6408
REM REPLAYGAIN_ALBUM_GAIN 0.47 dB
REM REPLAYGAIN_ALBUM_PEAK 0.933441
FILE "01 Mozart: Symphony 40 In G Minor, K 550 - 1. Molto Allegro.flac" WAVE
  TRACK 01 AUDIO
    TITLE "Mozart: Symphony #40 In G Minor, K 550 - 1. Molto Allegro"
    PERFORMER "Mozart"
    SONGWRITER "Mozart"
    REM DATE 1986
    REM REPLAYGAIN_TRACK_GAIN 0.07 dB
    REM REPLAYGAIN_TRACK_PEAK 0.789764
    INDEX 01 00:00:00
  TRACK 02 AUDIO
    TITLE "Mozart: Symphony #40 In G Minor, K 550 - 2. Andante"
    PERFORMER "Mozart"
    SONGWRITER "Mozart"
    REM DATE 1986
    REM REPLAYGAIN_TRACK_GAIN 4.01 dB
    REM REPLAYGAIN_TRACK_PEAK 0.600616
    INDEX 00 07:22:17
FILE "02 Mozart: Symphony 40 In G Minor, K 550 - 2. Andante.flac" WAVE
    INDEX 01 00:00:00
  TRACK 03 AUDIO
    TITLE "Mozart: Symphony #40 In G Minor, K 550 - 3. Menuetto & Trio (Allegretto)"
    PERFORMER "Mozart"
    SONGWRITER "Mozart"
    REM DATE 1986
    REM REPLAYGAIN_TRACK_GAIN 2.37 dB
    REM REPLAYGAIN_TRACK_PEAK 0.516754
    INDEX 00 10:53:60
FILE "03 Mozart: Symphony 40 In G Minor, K 550 - 3. Menuetto & Trio (Allegretto).flac" WAVE
    INDEX 01 00:00:00
  TRACK 04 AUDIO
    TITLE "Mozart: Symphony #40 In G Minor, K 550 - 4. Allegro Assai"
    PERFORMER "Mozart"
    SONGWRITER "Mozart"
    REM DATE 1986
    REM REPLAYGAIN_TRACK_GAIN 1.06 dB
    REM REPLAYGAIN_TRACK_PEAK 0.589325
    INDEX 00 03:47:20
FILE "04 Mozart: Symphony 40 In G Minor, K 550 - 4. Allegro Assai.flac" WAVE
    INDEX 01 00:00:00
  TRACK 05 AUDIO
    TITLE "Mozart: Symphony #41 In C, K 551, "Jupiter" - 1. Allegro Vivace"
    PERFORMER "Mozart"
    SONGWRITER "Mozart"
    REM DATE 1987
    REM REPLAYGAIN_TRACK_GAIN 0.51 dB
    REM REPLAYGAIN_TRACK_PEAK 0.657990
    INDEX 00 06:27:69
FILE "05 Mozart: Symphony 41 In C, K 551, Jupiter - 1. Allegro Vivace.flac" WAVE
    INDEX 01 00:00:00
  TRACK 06 AUDIO
    TITLE "Mozart: Symphony #41 In C, K 551, "Jupiter" - 2. Andante Cantabile"
    PERFORMER "Mozart"
    SONGWRITER "Mozart"
    REM DATE 1987
    REM REPLAYGAIN_TRACK_GAIN 4.59 dB
    REM REPLAYGAIN_TRACK_PEAK 0.505219
    INDEX 00 11:23:50
FILE "06 Mozart: Symphony 41 In C, K 551, Jupiter - 2. Andante Cantabile.flac" WAVE
    INDEX 01 00:00:00
  TRACK 07 AUDIO
    TITLE "Mozart: Symphony #41 In C, K 551, "Jupiter" - 3. Menuetto & Trio (Allegretto)"
    PERFORMER "Mozart"
    SONGWRITER "Mozart"
    REM DATE 1987
    REM REPLAYGAIN_TRACK_GAIN -0.42 dB
    REM REPLAYGAIN_TRACK_PEAK 0.799072
    INDEX 00 08:16:12
FILE "07 Mozart: Symphony 41 In C, K 551, Jupiter - 3. Menuetto & Trio (Allegretto).flac" WAVE
    INDEX 01 00:00:00
  TRACK 08 AUDIO
    TITLE "Mozart: Symphony #41 In C, K 551, "Jupiter" - 4. Molto Allegro"
    PERFORMER "Mozart"
    SONGWRITER "Mozart"
    REM DATE 1987
    REM REPLAYGAIN_TRACK_GAIN -1.22 dB
    REM REPLAYGAIN_TRACK_PEAK 0.933441
    INDEX 00 04:28:25
FILE "08 Mozart: Symphony 41 In C, K 551, Jupiter - 4. Molto Allegro.flac" WAVE
    INDEX 01 00:00:00


Доп. информация:

Внимание!
Торрент-файл изменен 05.09.2021, замена сомнительного рипа на правильный, изменено название корневой папки, исправлены ошибки, просьба перекачать торрент-файл заново.
                                                                                       
                       
                       
                       
                       
                       
                                磁力下载(论坛代下载服务)::
                                                               
                                       
付费主题

已有0人支付


                                               
  • 263 MB
  • 温馨提示

    记得善用社区搜索功能,那里可能会有你想要的资源;论坛站内搜索

    如果你有什么需要的资源可以去资源求档发帖,求助社区的网友,我们会在第一时间给你回复哦;资源求档

    对于本社区网盘链接失效密码错误各种报错请在反馈板块反馈报错发帖,您的支持,是我们发展的最大动力;投诉建议

    回复

    使用道具 举报

    您需要登录后才可以回帖 登录 | 立即注册 微信登录

    本版积分规则

    关注0

    粉丝2

    帖子31142

    发布主题
    阅读排行更多+
    关闭

    站长推荐上一条 /1 下一条

    活动提示

    赞助永久VIP会员送3T硬盘一块 限时活动

    地址:立刻参加

    我知道了
    收藏帖子 返回列表 这是一个自定义按钮
    音乐分享,音乐下载。
    微信公众号
    微信号:hires_
    意见反馈:admin@maomicd.com

    加入我们的官方QQ群和微信群

    Powered by Discuz! X3.4 Archiver|手机版|小黑屋|捌零音乐论坛 ( 苏ICP备20015413号 )|( 苏公网安备 32030502000272号) 繁體

    GMT+8, 2021-9-21 13:38