[古典] (classical) Richard Strauss - Also sprach Zarathustra,Alpensinfonie,Don Juan,etc.- Karajan(2 CD) - 2003, FLAC (image+.cue), lossless

[复制链接]
全球采集 发表于 2021-9-10 16:56:57 | 显示全部楼层 |阅读模式 打印 上一主题 下一主题
Richard Strauss - Also sprach Zarathustra,Alpensinfonie,Don Juan,etc.- Karajan(2CD)


Жанр: classical
Год выпуска диска: 2003
Производитель диска: Deutsche Grammophon
Аудио кодек: FLAC
Тип рипа: image+.cue
Битрейт аудио: lossless
Продолжительность: 1:12:50 + 1:16:56
Трэклист:
Richard Strauss (1864 - 1949)
CD 1
CD 1: Strauss: Also sprach Zarathustra; Don Juan; Four Last Songs
Also sprach Zarathustra, Op.30
1 Prelude (Sonnenaufgang) [1:50]
2 Von den Hinterweltlern [3:29]
3 Von der großen Sehnsucht [2:07]
4 Von den Freuden und Leidenschaften [1:59]
5 Das Grablied [2:49]
6 Von der Wissenschaft [4:32]
7 Der Genesende [5:15]
Berliner Philharmoniker, Herbert von Karajan
8 Das Tanzlied - Das Nachtlied [8:00]
Michel Schwalbé, Berliner Philharmoniker, Herbert von Karajan
9 Das Nachtwandlerlied [5:05]
10 Don Juan, Op.20 [18:03]
Berliner Philharmoniker, Herbert von Karajan
Vier letzte Lieder
11- 1. Frühling [3:16]
12- 2. September [3:56]
13- 3. Beim Schlafengehen [5:24]
14- 4. Im Abendrot [7:05]
Anna Tomowa-Sintow, Berliner Philharmoniker, Herbert von Karajan
Total Playing Time: [1:12:50]

CD 2
CD 2: Strauss: Alpensinfonie; Till Eulenspiegel; Dance of the Seven Veils
Alpensymphonie, Op.64
1 Nacht [3:05]
2 Sonnenaufgang [1:29]
3 Der Anstieg [2:18]
4 Eintritt in den Wald [2:57]
5 Wanderung neben dem Bache [2:39]
6 Am Wasserfall [0:17]
7 Erscheinung [0:51]
8 Auf blumige Wiesen [0:56]
9 Auf der Alm [2:06]
10 Durch Dickicht und Gestrüpp auf Irrwegen [1:34]
11 Auf dem Gletscher [1:17]
12 Gefahrvolle Augenblicke [1:28]
13 Auf dem Gipfel [4:31]
14 Vision [3:40]
15 Nebel steigen auf [0:18]
16 Die Sonne verdüstert sich allmählich [0:49]
17 Elegie [2:18]
18 Stille vor dem Sturm [3:02]
19 Gewitter und Sturm, Abstieg [3:58]
20 Sonnenuntergang [2:57]
21 Ausklang [6:02]
22 Nacht [2:45]
Berliner Philharmoniker, Herbert von Karajan, David Bell
23 Till Eulenspiegel's Merry Pranks (Till Eulenspiegels lustige Streiche), Op. 28 [15:30]
Salome, Op.54
Scene 4
24 Salome's Dance of the Seven Veils [10:09]
Berliner Philharmoniker, Herbert von Karajan
Total Playing Time: [1:16:56]

Отчет EAC CD 1
Exact Audio Copy V0.99 prebeta 4 from 23. January 2008
Отчёт EAC об извлечении, выполненном 13. февраля 2009, 2:18
Berliner Philharmoniker & Herbert von Karajan / Richard Strauss Also sprach Zarathustra & Others (Disc 1)
Дисковод: HL-DT-STDVDRAM GSA-4163B Adapter: 3 ID: 0
Режим чтения : Достоверность
Использование точного потока : Да
Отключение кэша аудио : Да
Использование указателей C2 : Нет
Коррекция смещения при чтении : 667
Способность читать области Lead-in и Lead-out : Нет
Заполнение пропущенных сэмплов тишиной : Да
Удаление блоков с тишиной в начале и конце : Нет
При вычислениях CRC использовались нулевые сэмплы : Да
Интерфейс : Установленный внешний ASPI-интерфейс
Выходной формат : Внутренние WAV-операции
Формат сэмплов : 44.100 Гц; 16 бит; стерео
TOC извлечённого CD
Трек | Старт | Длительность | Начальный сектор | Конечный сектор
---------------------------------------------------------------------
1 | 0:00.00 | 1:50.74 | 0 | 8323
2 | 1:50.74 | 3:28.70 | 8324 | 23993
3 | 5:19.69 | 2:07.09 | 23994 | 33527
4 | 7:27.03 | 1:59.31 | 33528 | 42483
5 | 9:26.34 | 2:48.52 | 42484 | 55135
6 | 12:15.11 | 4:32.08 | 55136 | 75543
7 | 16:47.19 | 5:14.42 | 75544 | 99135
8 | 22:01.61 | 7:59.47 | 99136 | 135107
9 | 30:01.33 | 5:09.39 | 135108 | 158321
10 | 35:10.72 | 18:10.01 | 158322 | 240072
11 | 53:20.73 | 3:19.00 | 240073 | 254997
12 | 56:39.73 | 4:01.01 | 254998 | 273073
13 | 60:40.74 | 5:30.00 | 273074 | 297823
14 | 66:10.74 | 7:15.51 | 297824 | 330499
Характеристики диапазона извлечения и сообщения об ошибках
Выбранный диапазон
Имя файла C:\Documents and Settings\Admin\Рабочий стол\Richard Strauss\Karajan Richard Strauss\CD1\Berliner Philharmoniker & Herbert von Karajan - Richard Strauss Also sprach Zarathustra & Others (Disc 1).wav
Пиковый уровень 100.0 %
Качество диапазона 100.0 %
CRC копии 5C557644
Копирование... OK
Ошибок не произошло
AccurateRip: сводка
Трек 1 нет в базе данных
Трек 2 нет в базе данных
Трек 3 нет в базе данных
Трек 4 нет в базе данных
Трек 5 нет в базе данных
Трек 6 нет в базе данных
Трек 7 нет в базе данных
Трек 8 нет в базе данных
Трек 9 нет в базе данных
Трек 10 нет в базе данных
Трек 11 нет в базе данных
Трек 12 нет в базе данных
Трек 13 нет в базе данных
Трек 14 нет в базе данных
Ни одного трека нет в базе AccurateRip
Конец отчёта

Отчет EAC CD 2
Exact Audio Copy V0.99 prebeta 4 from 23. January 2008
Отчёт EAC об извлечении, выполненном 13. февраля 2009, 3:11
Berliner Philharmoniker & Herbert von Karajan / Richard Strauss Also sprach Zarathustra & Others (Disc 2)
Дисковод: HL-DT-STDVDRAM GSA-4163B Adapter: 3 ID: 0
Режим чтения : Достоверность
Использование точного потока : Да
Отключение кэша аудио : Да
Использование указателей C2 : Нет
Коррекция смещения при чтении : 667
Способность читать области Lead-in и Lead-out : Нет
Заполнение пропущенных сэмплов тишиной : Да
Удаление блоков с тишиной в начале и конце : Нет
При вычислениях CRC использовались нулевые сэмплы : Да
Интерфейс : Установленный внешний ASPI-интерфейс
Выходной формат : Внутренние WAV-операции
Формат сэмплов : 44.100 Гц; 16 бит; стерео
TOC извлечённого CD
Трек | Старт | Длительность | Начальный сектор | Конечный сектор
---------------------------------------------------------------------
1 | 0:00.00 | 3:06.06 | 0 | 13955
2 | 3:06.06 | 1:28.62 | 13956 | 20617
3 | 4:34.68 | 2:18.15 | 20618 | 30982
4 | 6:53.08 | 2:57.20 | 30983 | 44277
5 | 9:50.28 | 2:38.48 | 44278 | 56175
6 | 12:29.01 | 0:16.57 | 56176 | 57432
7 | 12:45.58 | 0:51.30 | 57433 | 61287
8 | 13:37.13 | 0:56.00 | 61288 | 65487
9 | 14:33.13 | 2:06.20 | 65488 | 74957
10 | 16:39.33 | 1:33.65 | 74958 | 81997
11 | 18:13.23 | 1:17.15 | 81998 | 87787
12 | 19:30.38 | 1:28.03 | 87788 | 94390
13 | 20:58.41 | 4:30.67 | 94391 | 114707
14 | 25:29.33 | 3:40.33 | 114708 | 131240
15 | 29:09.66 | 0:17.74 | 131241 | 132589
16 | 29:27.65 | 0:49.06 | 132590 | 136270
17 | 30:16.71 | 2:18.15 | 136271 | 146635
18 | 32:35.11 | 3:02.17 | 146636 | 160302
19 | 35:37.28 | 3:57.55 | 160303 | 178132
20 | 39:35.08 | 2:41.03 | 178133 | 190210
21 | 42:16.11 | 6:32.36 | 190211 | 219646
22 | 48:48.47 | 2:16.57 | 219647 | 229903
23 | 51:05.29 | 15:37.50 | 229904 | 300228
24 | 66:43.04 | 10:17.17 | 300229 | 346520
Характеристики диапазона извлечения и сообщения об ошибках
Выбранный диапазон
Имя файла C:\Documents and Settings\Admin\Рабочий стол\Richard Strauss\Karajan Richard Strauss\CD2\Berliner Philharmoniker & Herbert von Karajan - Richard Strauss Also sprach Zarathustra & Others (Disc 2).wav
Пиковый уровень 100.0 %
Качество диапазона 100.0 %
CRC копии B373E8A3
Копирование... OK
Ошибок не произошло
AccurateRip: сводка
Трек 1 нет в базе данных
Трек 2 нет в базе данных
Трек 3 нет в базе данных
Трек 4 нет в базе данных
Трек 5 нет в базе данных
Трек 6 нет в базе данных
Трек 7 нет в базе данных
Трек 8 нет в базе данных
Трек 9 нет в базе данных
Трек 10 нет в базе данных
Трек 11 нет в базе данных
Трек 12 нет в базе данных
Трек 13 нет в базе данных
Трек 14 нет в базе данных
Трек 15 нет в базе данных
Трек 16 нет в базе данных
Трек 17 нет в базе данных
Трек 18 нет в базе данных
Трек 19 нет в базе данных
Трек 20 нет в базе данных
Трек 21 нет в базе данных
Трек 22 нет в базе данных
Трек 23 нет в базе данных
Трек 24 нет в базе данных
Ни одного трека нет в базе AccurateRip
Конец отчёта
Рип с личного диска                                                                                       
                       
                       
                       
                       
                       
                                磁力下载(论坛代下载服务)::
                                                               
                                       
付费主题

已有0人支付


                                               
  • 682.3 MB
  • 温馨提示

    记得善用社区搜索功能,那里可能会有你想要的资源;论坛站内搜索

    如果你有什么需要的资源可以去资源求档发帖,求助社区的网友,我们会在第一时间给你回复哦;资源求档

    对于本社区网盘链接失效密码错误各种报错请在反馈板块反馈报错发帖,您的支持,是我们发展的最大动力;投诉建议

    回复

    使用道具 举报

    您需要登录后才可以回帖 登录 | 立即注册 微信登录

    本版积分规则

    关注0

    粉丝19

    帖子88707

    发布主题
    阅读排行更多+
    关闭

    站长推荐上一条 /1 下一条

    活动提示

    赞助永久VIP会员送3T硬盘一块 限时活动

    地址:立刻参加

    我知道了
    收藏帖子 返回列表 这是一个自定义按钮
    音乐分享,音乐下载。
    微信公众号
    微信号:hires_
    意见反馈:admin@maomicd.com

    加入我们的官方QQ群和微信群

    Powered by Discuz! X3.4 Archiver|手机版|小黑屋|捌零音乐论坛 ( 苏ICP备20015413号 )|( 苏公网安备 32030502000272号) 繁體

    GMT+8, 2021-9-26 08:55