[古典] (Classical) Les Elements: Tempetes, Orages & Fetes Marines - Locke, Marais, Rameau, Rebel, Telemann, Vivaldi - Le Concert des Nations, Jordi Savall - 2015, FLAC (image+.cue

[复制链接]
如果有神 发表于 2021-9-10 16:56:57 | 显示全部楼层 |阅读模式 打印 上一主题 下一主题
Les Éléments: Tempêtes, Orages & Fêtes Marines - Locke, Marais, Rameau, Rebel, Telemann, Vivaldi - Le Concert des Nations, Jordi Savall
Жанр: Classical
Год издания диска: 2015
Издатель (лейбл): Alia Vox
Номер по каталогу: AVSA9914
Дата записи: 2015
Аудиокодек: FLAC
Тип рипа: image+.cue
Битрейт аудио: lossless
Продолжительность: 1:38:44
Источник: собственный рип
Наличие сканов в содержимом раздачи: да
Треклист:
Les Éléments
Tempêtes, Orages & Fêtes Marines
CD1
Jean-Féry Rebel
[1]-[12] Les Éléments (1737)
Matthew Locke
[13]-[23] Music for The Tempest (1674)
Antonio Vivaldi
[24]-[26] Concerto in F 'La Tempesta di mare' per Flauto solo e Corde (1729)

CD2
Marin Marais
[1]-[6] Airs pour les Matelots et les Tritons. Alcione (1706)
Georg Philipp Telemann
[7]-[16] Wassermusik, Hamburger Ebb und Fluth (ca.1740)
Jean-Philippe Rameau
Orages et tonnerres (1735-1749)
[17] Air pour les Zephirs (Les Indes Galantes)
[18] Orage (Les Indes Galantes)
[19] Tonnerre (Hyppolyte et Aricie)
[20] Contredanse (Zoroastre)
[21] Contredanse tres vive (Les Boreades)
Исполнители:
Le Concert des Nations
Jordi Savall
Лог создания рипа: CD1

Exact Audio Copy V1.1 from 23. June 2015
EAC extraction logfile from 1. November 2016, 23:06
Le Concert des Nations, Jordi Savall / Les Éléments - Tempêtes, Orages et Fêtes Marines - CD1
Used drive  : HL-DT-STDVDRAM GU70N   Adapter: 1  ID: 0
Read mode               : Secure
Utilize accurate stream : Yes
Defeat audio cache      : Yes
Make use of C2 pointers : No
Read offset correction                      : 48
Overread into Lead-In and Lead-Out          : No
Fill up missing offset samples with silence : Yes
Delete leading and trailing silent blocks   : No
Null samples used in CRC calculations       : Yes
Used interface                              : Native Win32 interface for Win NT & 2000
Used output format              : User Defined Encoder
Selected bitrate                : 128 kBit/s
Quality                         : High
Add ID3 tag                     : No
Command line compressor         : C:\Program Files (x86)\Exact Audio Copy\Flac\flac.exe
Additional command line options : -V -8 -T "Date=%year%" -T "Genre=%genre%" %source%
TOC of the extracted CD
     Track |   Start  |  Length  | Start sector | End sector
    ---------------------------------------------------------
        1  |  0:00.00 |  7:02.49 |         0    |    31698
        2  |  7:02.49 |  1:44.24 |     31699    |    39522
        3  |  8:46.73 |  2:29.12 |     39523    |    50709
        4  | 11:16.10 |  1:17.59 |     50710    |    56543
        5  | 12:33.69 |  1:15.22 |     56544    |    62190
        6  | 13:49.16 |  1:04.62 |     62191    |    67052
        7  | 14:54.03 |  1:49.31 |     67053    |    75258
        8  | 16:43.34 |  1:15.24 |     75259    |    80907
        9  | 17:58.58 |  2:55.68 |     80908    |    94100
       10  | 20:54.51 |  0:57.41 |     94101    |    98416
       11  | 21:52.17 |  0:51.64 |     98417    |   102305
       12  | 22:44.06 |  0:21.65 |    102306    |   103945
       13  | 23:05.71 |  0:58.21 |    103946    |   108316
       14  | 24:04.17 |  1:42.68 |    108317    |   116034
       15  | 25:47.10 |  1:35.38 |    116035    |   123197
       16  | 27:22.48 |  3:09.74 |    123198    |   137446
       17  | 30:32.47 |  0:54.37 |    137447    |   141533
       18  | 31:27.09 |  4:42.01 |    141534    |   162684
       19  | 36:09.10 |  1:18.42 |    162685    |   168576
       20  | 37:27.52 |  1:25.54 |    168577    |   175005
       21  | 38:53.31 |  0:56.31 |    175006    |   179236
       22  | 39:49.62 |  1:20.68 |    179237    |   185304
       23  | 41:10.55 |  2:18.14 |    185305    |   195668
       24  | 43:28.69 |  2:43.38 |    195669    |   207931
       25  | 46:12.32 |  1:19.16 |    207932    |   213872
       26  | 47:31.48 |  2:11.40 |    213873    |   223737
Range status and errors
Selected range
     Filename C:\temp\Les Elements - Le Concert des Nations, Savall\CD1\Les Elements - CD1.wav
     Peak level 91.4 %
     Extraction speed 2.1 X
     Range quality 100.0 %
     Test CRC 35773596
     Copy CRC 35773596
     Copy OK
No errors occurred
AccurateRip summary
Track  1  accurately ripped (confidence 9)  [289B8964]  (AR v2)
Track  2  accurately ripped (confidence 9)  [0E5A3A12]  (AR v2)
Track  3  accurately ripped (confidence 9)  [6B81F597]  (AR v2)
Track  4  accurately ripped (confidence 9)  [F7E9DAD0]  (AR v2)
Track  5  accurately ripped (confidence 9)  [A73FAA2F]  (AR v2)
Track  6  accurately ripped (confidence 9)  [F8B8FFF4]  (AR v2)
Track  7  accurately ripped (confidence 9)  [6F192DA4]  (AR v2)
Track  8  accurately ripped (confidence 9)  [E13475BB]  (AR v2)
Track  9  accurately ripped (confidence 9)  [7E516722]  (AR v2)
Track 10  accurately ripped (confidence 9)  [7D4D22C5]  (AR v2)
Track 11  accurately ripped (confidence 9)  [72713C12]  (AR v2)
Track 12  accurately ripped (confidence 9)  [A9A24498]  (AR v2)
Track 13  accurately ripped (confidence 9)  [9CE4B0B7]  (AR v2)
Track 14  accurately ripped (confidence 9)  [01597CDE]  (AR v2)
Track 15  accurately ripped (confidence 9)  [31C4E657]  (AR v2)
Track 16  accurately ripped (confidence 9)  [054D2DBD]  (AR v2)
Track 17  accurately ripped (confidence 9)  [F2E05582]  (AR v2)
Track 18  accurately ripped (confidence 9)  [545F0340]  (AR v2)
Track 19  accurately ripped (confidence 9)  [4898ED32]  (AR v2)
Track 20  accurately ripped (confidence 9)  [FB0B1D99]  (AR v2)
Track 21  accurately ripped (confidence 9)  [FAAD483E]  (AR v2)
Track 22  accurately ripped (confidence 9)  [75957627]  (AR v2)
Track 23  accurately ripped (confidence 9)  [814BE0CB]  (AR v2)
Track 24  accurately ripped (confidence 9)  [A8DDABC9]  (AR v2)
Track 25  accurately ripped (confidence 9)  [DE3DAA03]  (AR v2)
Track 26  accurately ripped (confidence 9)  [7F9EE599]  (AR v2)
All tracks accurately ripped
End of status report
==== Log checksum 27FD0D9EB1886A9254FFD47DDD5876599A927AF546B70F00A2F5A9D04DD6C5DB ====


Лог создания рипа: CD2

Exact Audio Copy V1.1 from 23. June 2015
EAC extraction logfile from 1. November 2016, 22:09
Le Concert des Nations, Jordi Savall / Les Éléments - Tempêtes, Orages et Fêtes Marines - CD2
Used drive  : HL-DT-STDVDRAM GU70N   Adapter: 1  ID: 0
Read mode               : Secure
Utilize accurate stream : Yes
Defeat audio cache      : Yes
Make use of C2 pointers : No
Read offset correction                      : 48
Overread into Lead-In and Lead-Out          : No
Fill up missing offset samples with silence : Yes
Delete leading and trailing silent blocks   : No
Null samples used in CRC calculations       : Yes
Used interface                              : Native Win32 interface for Win NT & 2000
Used output format              : User Defined Encoder
Selected bitrate                : 128 kBit/s
Quality                         : High
Add ID3 tag                     : No
Command line compressor         : C:\Program Files (x86)\Exact Audio Copy\Flac\flac.exe
Additional command line options : -V -8 -T "Date=%year%" -T "Genre=%genre%" %source%
TOC of the extracted CD
     Track |   Start  |  Length  | Start sector | End sector
    ---------------------------------------------------------
        1  |  0:00.00 |  1:49.73 |         0    |     8247
        2  |  1:49.73 |  0:51.44 |      8248    |    12116
        3  |  2:41.42 |  2:00.41 |     12117    |    21157
        4  |  4:42.08 |  2:04.62 |     21158    |    30519
        5  |  6:46.70 |  1:37.00 |     30520    |    37794
        6  |  8:23.70 |  6:51.19 |     37795    |    68638
        7  | 15:15.14 |  7:49.27 |     68639    |   103840
        8  | 23:04.41 |  1:55.73 |    103841    |   112538
        9  | 25:00.39 |  1:48.44 |    112539    |   120682
       10  | 26:49.08 |  1:30.56 |    120683    |   127488
       11  | 28:19.64 |  0:56.56 |    127489    |   131744
       12  | 29:16.45 |  1:26.03 |    131745    |   138197
       13  | 30:42.48 |  2:25.47 |    138198    |   149119
       14  | 33:08.20 |  1:57.53 |    149120    |   157947
       15  | 35:05.73 |  1:05.25 |    157948    |   162847
       16  | 36:11.23 |  1:28.62 |    162848    |   169509
       17  | 37:40.10 |  2:28.28 |    169510    |   180637
       18  | 40:08.38 |  3:04.65 |    180638    |   194502
       19  | 43:13.28 |  1:38.60 |    194503    |   201912
       20  | 44:52.13 |  1:12.21 |    201913    |   207333
       21  | 46:04.34 |  2:52.51 |    207334    |   220284
Range status and errors
Selected range
     Filename C:\temp\Les Elements - Le Concert des Nations, Savall\CD2\Les Elements - CD2.wav
     Peak level 97.6 %
     Extraction speed 2.0 X
     Range quality 100.0 %
     Test CRC 29682F5B
     Copy CRC 29682F5B
     Copy OK
No errors occurred
AccurateRip summary
Track  1  accurately ripped (confidence 9)  [226C2A9C]  (AR v2)
Track  2  accurately ripped (confidence 9)  [EDDF7077]  (AR v2)
Track  3  accurately ripped (confidence 9)  [E7E15495]  (AR v2)
Track  4  accurately ripped (confidence 9)  [59C5351B]  (AR v2)
Track  5  accurately ripped (confidence 9)  [100CEEB9]  (AR v2)
Track  6  accurately ripped (confidence 9)  [79EEAA5F]  (AR v2)
Track  7  accurately ripped (confidence 9)  [CDC7B06D]  (AR v2)
Track  8  accurately ripped (confidence 9)  [521292F0]  (AR v2)
Track  9  accurately ripped (confidence 9)  [20DECB62]  (AR v2)
Track 10  accurately ripped (confidence 9)  [FF2A2A96]  (AR v2)
Track 11  accurately ripped (confidence 9)  [43D3E60F]  (AR v2)
Track 12  accurately ripped (confidence 9)  [29ED2CB7]  (AR v2)
Track 13  accurately ripped (confidence 9)  [25805007]  (AR v2)
Track 14  accurately ripped (confidence 9)  [CDBD91F1]  (AR v2)
Track 15  accurately ripped (confidence 9)  [26C58F4C]  (AR v2)
Track 16  accurately ripped (confidence 9)  [71943C37]  (AR v2)
Track 17  accurately ripped (confidence 9)  [3C5CD8AF]  (AR v2)
Track 18  accurately ripped (confidence 9)  [8860B1FB]  (AR v2)
Track 19  accurately ripped (confidence 9)  [ABD7DF28]  (AR v2)
Track 20  accurately ripped (confidence 9)  [7199CECD]  (AR v2)
Track 21  accurately ripped (confidence 9)  [FFB5EEE8]  (AR v2)
All tracks accurately ripped
End of status report
==== Log checksum B60748E5E1E067C8AB61347BD68C31235DF0601DA7A05D96D0013294D4A56DF7 ====

                                                                                       
                       
                       
                       
                       
                       
                                磁力下载(论坛代下载服务)::
                                                               
                                       
付费主题

已有0人支付


                                               
  • 567.7 MB
  • 温馨提示

    记得善用社区搜索功能,那里可能会有你想要的资源;论坛站内搜索

    如果你有什么需要的资源可以去资源求档发帖,求助社区的网友,我们会在第一时间给你回复哦;资源求档

    对于本社区网盘链接失效密码错误各种报错请在反馈板块反馈报错发帖,您的支持,是我们发展的最大动力;投诉建议

    回复

    使用道具 举报

    您需要登录后才可以回帖 登录 | 立即注册 微信登录

    本版积分规则

    发布主题
    阅读排行更多+
    关闭

    站长推荐上一条 /1 下一条

    活动提示

    赞助永久VIP会员送3T硬盘一块 限时活动

    地址:立刻参加

    我知道了
    收藏帖子 返回列表 这是一个自定义按钮
    音乐分享,音乐下载。
    微信公众号
    微信号:hires_
    意见反馈:admin@maomicd.com

    加入我们的官方QQ群和微信群

    Powered by Discuz! X3.4 Archiver|手机版|小黑屋|捌零音乐论坛 ( 苏ICP备20015413号 )|( 苏公网安备 32030502000272号) 繁體

    GMT+8, 2021-9-21 13:18