[古典] (Classical orchestra) Corelli, Telemann, Rameau - Le Concert Spirituel [Au temps de Louis XV] (Le Concert des Nations, Pedro Estevan, Jordi Savall) - 2010, FLAC (image+.cue) lossle

[复制链接]
tikus75 发表于 2021-9-10 16:56:57 | 显示全部楼层 |阅读模式 打印 上一主题 下一主题
Corelli, Telemann, Rameau (Le Concert des Nations, Pedro Estevan, Jordi Savall)
Жанр: Classical orchestra
Страна-производитель диска: Made in Austria
Год издания диска: 2010
Издатель (лейбл): AliaVox
Номер по каталогу: AVSA9877
Дата записи: 2010
Аудиокодек: FLAC
Тип рипа: image+.cue
Битрейт аудио: lossless
Продолжительность: 77:25
Источник: релизер
сайт-источник/ник/другое: odeonmusic; частичный буклет - ManWhoCan (PS³SACD); полный буклет - dtromp
Наличие сканов в содержимом раздачи: да
Треклист

Arcangelo Corelli (1653-1713)
Concerto Grosso en Ré Majeur Op.6 n.4
01. Adagio
02. Allegro
03. Adagio
04. Vivace
05. Allegro
06. Allegro
Georg Philipp Telemann (1681-1767)
Ouverture avec la Suite en Ré Majeur pour Viola da Gamba et Cordes TWV 55:D6
07. Ouverture
08. La Trompette
09. Sarabande
10. Rondeau
11. Bourrée
12. Courante-Double
13. Gigue
Georg Philipp Telemann (1681-1767)
Concerto in La minore per Flauto Dolce, Viola di Gamba, Corde e Fondamento TWV 52 a:1
14. Grave
15. Allegro
16. Dolce
17. Allegro
Georg Philipp Telemann (1681-1767)
Ouverture avec la Suite en Mi mineur, Tafelmusik à deux flûtes et cordes TWV 55:e1
18. Ouverture: Ouverture: Lentement - Vite - Lentement
19. Réjouissance
20. Rondeau
21. Loure
22. Passepied
23. Air, un peu vivement
24. Gigue
Jean-Philippe Rameau (1683-1764)
Les Indes Galantes. Suite des airs à jouer (Symphonies)
25. Air pour les Guerriers portans les Drapeaux
26. Air pour les Amants qui suivent Bellone - Lent, tendrement-Vite
27. Orage
28. Air pour les Esclaves Africains
29. Air pour Borée et la Rose - Très vite
30. 2ème Air pour Zéphire
31. Tambourins I et II


Исполнители

Le Concert Spirituel (1725-1774) Au temps de Louis XV
Arcangelo Corelli (1653-1713):
Concerto Grosso in D major, op.6 no.4
Georg Philipp Telemann (1681-1767):
Overture and Suite in D major
Concerto in A minor
Overture and Suite in E minor "Tafelmusik"
Jean-Philippe Rameau (1683-1764):
Les Indes Galantes. Suites des Airs à Jouer
Le Concert des Nations [on period instruments]
Jordi Savall - viola da gamba & direction
Le Concert des Nations
Enrico Onofri (violin concertino), Pierre Hamon (recorder), Marc Hantaï (transverse flute), Charles Zebley (transverse flute), Yi-Fen Chen (transverse flute), Mauro Lopes (violin), Riccardo Minasi (violin), Olivia Centurione (violin), Isabel Serrano (violin), Alba Rocca (violin), Lorenzo Colitto (violin), Santi Aubert (violin), Angelo Bartoletti (viola), Govanni Rosa (viola), Balázs Máté (‘cello), Antoine Ladrette (‘cello), Rolf Lislevand (theorbo, guitar), Xavier Diaz-Latorre (theorbo), Xavier Puertas (violone), Carles Cristóbal (bassoon), Luca Guglielmi (harpsichord), Pedro Estevan (percussion), Jordi Savall (viola da gamba)
Jordi Savall, dir.
Recording site & date:
Collegiate Castle of Cardona, Catalunya 02/2010


Лог создания рипа

Exact Audio Copy V1.0 beta 3 from 29. August 2011
EAC extraction logfile from 24. March 2013, 13:09
Le Concert des Nations / Corelli, Telemann, Rameau – Le Concert Spirituel – Jordi Savall
Used drive  : TSSTcorpCDDVDW SH-222BB   Adapter: 2  ID: 1
Read mode               : Secure
Utilize accurate stream : Yes
Defeat audio cache      : Yes
Make use of C2 pointers : No
Read offset correction                      : 6
Overread into Lead-In and Lead-Out          : No
Fill up missing offset samples with silence : Yes
Delete leading and trailing silent blocks   : No
Null samples used in CRC calculations       : Yes
Used interface                              : Native Win32 interface for Win NT & 2000
Used output format              : User Defined Encoder
Selected bitrate                : 1024 kBit/s
Quality                         : High
Add ID3 tag                     : No
Command line compressor         : C:\Program Files\Exact Audio Copy\Flac\flac.exe
Additional command line options : -8 -V -T "TITLE=%title%" -T "ARTIST=%artist%" -T "ALBUMARTIST=%albumartist%" -T "ALBUM=%albumtitle%" -T "DATE=%year%" -T "TRACKNUMBER=%tracknr%" -T "TRACKTOTAL=%numtracks%" -T "GENRE=%genre%" -T "COMMENT=%comment%" -T "PERFORMER=%albuminterpret%" -T "COMPOSER=%composer%" %source% -o %dest%
TOC of the extracted CD
     Track |   Start  |  Length  | Start sector | End sector
    ---------------------------------------------------------
        1  |  0:00.00 |  0:35.22 |         0    |     2646
        2  |  0:35.22 |  2:54.32 |      2647    |    15728
        3  |  3:29.54 |  2:08.04 |     15729    |    25332
        4  |  5:37.58 |  0:56.39 |     25333    |    29571
        5  |  6:34.22 |  2:22.16 |     29572    |    40237
        6  |  8:56.38 |  0:40.62 |     40238    |    43299
        7  |  9:37.25 |  5:05.04 |     43300    |    66178
        8  | 14:42.29 |  1:36.04 |     66179    |    73382
        9  | 16:18.33 |  4:18.37 |     73383    |    92769
       10  | 20:36.70 |  1:26.24 |     92770    |    99243
       11  | 22:03.19 |  1:42.36 |     99244    |   106929
       12  | 23:45.55 |  2:50.23 |    106930    |   119702
       13  | 26:36.03 |  2:30.49 |    119703    |   131001
       14  | 29:06.52 |  3:28.10 |    131002    |   146611
       15  | 32:34.62 |  4:39.39 |    146612    |   167575
       16  | 37:14.26 |  3:10.20 |    167576    |   181845
       17  | 40:24.46 |  4:01.31 |    181846    |   199951
       18  | 44:26.02 |  5:52.03 |    199952    |   226354
       19  | 50:18.05 |  3:25.61 |    226355    |   241790
       20  | 53:43.66 |  2:09.59 |    241791    |   251524
       21  | 55:53.50 |  2:56.08 |    251525    |   264732
       22  | 58:49.58 |  3:03.49 |    264733    |   278506
       23  | 61:53.32 |  3:37.70 |    278507    |   294851
       24  | 65:31.27 |  2:07.66 |    294852    |   304442
       25  | 67:39.18 |  1:29.74 |    304443    |   311191
       26  | 69:09.17 |  1:00.13 |    311192    |   315704
       27  | 70:09.30 |  0:46.65 |    315705    |   319219
       28  | 70:56.20 |  1:39.57 |    319220    |   326701
       29  | 72:36.02 |  1:08.58 |    326702    |   331859
       30  | 73:44.60 |  2:22.52 |    331860    |   342561
       31  | 76:07.37 |  1:38.04 |    342562    |   349915
Range status and errors
Selected range
     Filename G:\Ripped general\[9003] Corelli, Telemann, Rameau – Le Concert Spirituel – Jordi Savall\Corelli, Telemann, Rameau – Le Concert Spirituel – Jordi Savall.wav
     Peak level 99.1 %
     Extraction speed 6.8 X
     Range quality 99.9 %
     Test CRC 94738053
     Copy CRC 94738053
     Copy OK
No errors occurred
AccurateRip summary
Track  1  accurately ripped (confidence 5)  [31D7D96D]  (AR v2)
Track  2  accurately ripped (confidence 5)  [37F1FCFA]  (AR v2)
Track  3  accurately ripped (confidence 5)  [7AE5BF89]  (AR v2)
Track  4  accurately ripped (confidence 5)  [03F85F64]  (AR v2)
Track  5  accurately ripped (confidence 5)  [4B03B8F3]  (AR v2)
Track  6  accurately ripped (confidence 5)  [27416C84]  (AR v2)
Track  7  accurately ripped (confidence 5)  [E0AC7E10]  (AR v2)
Track  8  accurately ripped (confidence 5)  [8E329F12]  (AR v2)
Track  9  accurately ripped (confidence 5)  [FF9C14B7]  (AR v2)
Track 10  accurately ripped (confidence 5)  [9DC469CF]  (AR v2)
Track 11  accurately ripped (confidence 5)  [E0F77F43]  (AR v2)
Track 12  accurately ripped (confidence 5)  [F0CF881A]  (AR v2)
Track 13  accurately ripped (confidence 5)  [71354F6F]  (AR v2)
Track 14  accurately ripped (confidence 5)  [CD6245A6]  (AR v2)
Track 15  accurately ripped (confidence 5)  [1CF62A14]  (AR v2)
Track 16  accurately ripped (confidence 5)  [718AD8D4]  (AR v2)
Track 17  accurately ripped (confidence 5)  [5BA951F7]  (AR v2)
Track 18  accurately ripped (confidence 5)  [7A85B5B2]  (AR v2)
Track 19  accurately ripped (confidence 5)  [A6D159D0]  (AR v2)
Track 20  accurately ripped (confidence 5)  [0A85B218]  (AR v2)
Track 21  accurately ripped (confidence 5)  [66341FED]  (AR v2)
Track 22  accurately ripped (confidence 5)  [A1124FC3]  (AR v2)
Track 23  accurately ripped (confidence 5)  [82BA51B2]  (AR v2)
Track 24  accurately ripped (confidence 5)  [E8B371E1]  (AR v2)
Track 25  accurately ripped (confidence 5)  [675D85A9]  (AR v2)
Track 26  accurately ripped (confidence 5)  [BDD02F2E]  (AR v2)
Track 27  accurately ripped (confidence 5)  [D9DCBA29]  (AR v2)
Track 28  accurately ripped (confidence 4)  [10724170]  (AR v2)
Track 29  accurately ripped (confidence 4)  [D2B44F38]  (AR v2)
Track 30  accurately ripped (confidence 4)  [A7340330]  (AR v2)
Track 31  accurately ripped (confidence 5)  [3FD2CCB1]  (AR v2)
All tracks accurately ripped
End of status report


Содержание индексной карты (.CUE)

REM GENRE Classical
REM DATE 2010
REM DISCID D012391F
REM COMMENT "ExactAudioCopy v1.0b3"
PERFORMER "Le Concert des Nations"
TITLE "Corelli, Telemann, Rameau – Le Concert Spirituel – Jordi Savall"
FILE "Corelli, Telemann, Rameau – Le Concert Spirituel – Jordi Savall.flac" WAVE
  TRACK 01 AUDIO
    TITLE "Concerto Grosso in D major, Op. 6/4: Adagio"
    PERFORMER "Jordi Savall & Riccardo Minasi"
    INDEX 01 00:00:00
  TRACK 02 AUDIO
    TITLE "Concerto Grosso in D major, Op. 6/4: Allegro"
    PERFORMER "Jordi Savall & Riccardo Minasi"
    INDEX 01 00:35:22
  TRACK 03 AUDIO
    TITLE "Concerto Grosso in D major, Op. 6/4: Adagio"
    PERFORMER "Jordi Savall & Riccardo Minasi"
    INDEX 01 03:29:54
  TRACK 04 AUDIO
    TITLE "Concerto Grosso in D major, Op. 6/4: Vivace"
    PERFORMER "Jordi Savall & Riccardo Minasi"
    INDEX 01 05:37:58
  TRACK 05 AUDIO
    TITLE "Concerto Grosso in D major, Op. 6/4: Allegro"
    PERFORMER "Jordi Savall & Riccardo Minasi"
    INDEX 01 06:34:22
  TRACK 06 AUDIO
    TITLE "Concerto Grosso in D major, Op. 6/4: Allegro"
    PERFORMER "Jordi Savall & Riccardo Minasi"
    INDEX 01 08:56:38
  TRACK 07 AUDIO
    TITLE "Overture, suite for viola da gamba, 2 oboes, strings & continuo in D major, T..."
    PERFORMER "Jordi Savall"
    INDEX 00 09:33:53
    INDEX 01 09:37:25
  TRACK 08 AUDIO
    TITLE "Overture, suite for viola da gamba, 2 oboes, strings & continuo in D major, T..."
    PERFORMER "Jordi Savall"
    INDEX 01 14:42:29
  TRACK 09 AUDIO
    TITLE "Overture, suite for viola da gamba, 2 oboes, strings & continuo in D major, T..."
    PERFORMER "Jordi Savall"
    INDEX 01 16:18:33
  TRACK 10 AUDIO
    TITLE "Overture, suite for viola da gamba, 2 oboes, strings & continuo in D major, T..."
    PERFORMER "Jordi Savall"
    INDEX 01 20:36:70
  TRACK 11 AUDIO
    TITLE "Overture, suite for viola da gamba, 2 oboes, strings & continuo in D major, T..."
    PERFORMER "Jordi Savall"
    INDEX 01 22:03:19
  TRACK 12 AUDIO
    TITLE "Overture, suite for viola da gamba, 2 oboes, strings & continuo in D major, T..."
    PERFORMER "Jordi Savall"
    INDEX 01 23:45:55
  TRACK 13 AUDIO
    TITLE "Overture, suite for viola da gamba, 2 oboes, strings & continuo in D major, T..."
    PERFORMER "Jordi Savall"
    INDEX 01 26:36:03
  TRACK 14 AUDIO
    TITLE "Concerto for recorder, viola da gamba, strings & continuo in A minor, TWV 52:..."
    PERFORMER "Jordi Savall & Luca Guglielmi"
    INDEX 00 29:03:54
    INDEX 01 29:06:52
  TRACK 15 AUDIO
    TITLE "Concerto for recorder, viola da gamba, strings & continuo in A minor, TWV 52:..."
    PERFORMER "Jordi Savall & Luca Guglielmi"
    INDEX 01 32:34:62
  TRACK 16 AUDIO
    TITLE "Concerto for recorder, viola da gamba, strings & continuo in A minor, TWV 52:..."
    PERFORMER "Jordi Savall & Luca Guglielmi"
    INDEX 01 37:14:26
  TRACK 17 AUDIO
    TITLE "Concerto for recorder, viola da gamba, strings & continuo in A minor, TWV 52:..."
    PERFORMER "Jordi Savall & Luca Guglielmi"
    INDEX 01 40:24:46
  TRACK 18 AUDIO
    TITLE "Overture, suite for 2 flutes, strings & continuo in E minor (Tafelmusik I/1),..."
    PERFORMER "Jordi Savall & Mauro Lopes Ferreira"
    INDEX 00 44:19:50
    INDEX 01 44:26:02
  TRACK 19 AUDIO
    TITLE "Overture, suite for 2 flutes, strings & continuo in E minor (Tafelmusik I/1),..."
    PERFORMER "Jordi Savall & Mauro Lopes Ferreira"
    INDEX 01 50:18:05
  TRACK 20 AUDIO
    TITLE "Overture, suite for 2 flutes, strings & continuo in E minor (Tafelmusik I/1),..."
    PERFORMER "Jordi Savall & Mauro Lopes Ferreira"
    INDEX 01 53:43:66
  TRACK 21 AUDIO
    TITLE "Overture, suite for 2 flutes, strings & continuo in E minor (Tafelmusik I/1),..."
    PERFORMER "Jordi Savall & Mauro Lopes Ferreira"
    INDEX 01 55:53:50
  TRACK 22 AUDIO
    TITLE "Overture, suite for 2 flutes, strings & continuo in E minor (Tafelmusik I/1),..."
    PERFORMER "Jordi Savall & Mauro Lopes Ferreira"
    INDEX 01 58:49:58
  TRACK 23 AUDIO
    TITLE "Overture, suite for 2 flutes, strings & continuo in E minor (Tafelmusik I/1),..."
    PERFORMER "Jordi Savall & Mauro Lopes Ferreira"
    INDEX 01 61:53:32
  TRACK 24 AUDIO
    TITLE "Overture, suite for 2 flutes, strings & continuo in E minor (Tafelmusik I/1),..."
    PERFORMER "Jordi Savall & Mauro Lopes Ferreira"
    INDEX 01 65:31:27
  TRACK 25 AUDIO
    TITLE "Les Indes galantes, opéra-ballet: Air pour les guerriers portans les Drapeaux"
    PERFORMER "Jordi Savall"
    INDEX 00 67:31:00
    INDEX 01 67:39:18
  TRACK 26 AUDIO
    TITLE "Les Indes galantes, opéra-ballet: Air pour les Amants qui suivent Bellone Len..."
    PERFORMER "Jordi Savall"
    INDEX 01 69:09:17
  TRACK 27 AUDIO
    TITLE "Les Indes galantes, opéra-ballet: Orage"
    PERFORMER "Jordi Savall"
    INDEX 01 70:09:30
  TRACK 28 AUDIO
    TITLE "Les Indes galantes, opéra-ballet: Air pour les Esclaves Africains"
    PERFORMER "Jordi Savall"
    INDEX 01 70:56:20
  TRACK 29 AUDIO
    TITLE "Les Indes galantes, opéra-ballet: Air pour Borée et la Rose Très vite"
    PERFORMER "Jordi Savall"
    INDEX 01 72:36:02
  TRACK 30 AUDIO
    TITLE "Les Indes galantes, opéra-ballet: 2ème Air pour Zéphire"
    PERFORMER "Jordi Savall"
    INDEX 01 73:44:60
  TRACK 31 AUDIO
    TITLE "Les Indes galantes, opéra-ballet: Tambourins 1 et 2"
    PERFORMER "Jordi Savall"
    INDEX 01 76:07:37


Доп. информация

This Jordi Saval album, that was delayed in the post & just arrived, fits nicely at the end of the Telemann mini series
The ‘concert spirituel’ was 1 of the 1st public concert series in existence. The concerts began in Paris in 1725 & ended in 1790. The series was founded to provide entertainment during Lent & on religious holidays when the other spectacles (the Paris Opera, Comédie-Française, & Comédie-Italienne) were closed. The programmes featured a mixture of sacred choral works & virtuosic instrumental pieces, & for many years took place in a magnificently-decorated Salle des Cent Suisses (Hall of the Hundred Swiss Guards) in the Tuileries Palace. They started at 6pm & were primarily attended by well-to-do bourgeois, the lower aristocracy & foreign visitors.
Jordi Savall brings these magnificent evenings back to life, thanks to an imaginary ‘concert spirituel’ programme featuring 3 major composers from Italy, Germany & France: Corelli, Telemann & Rameau. This album enables us to (re)discover the quintessence of the musical life during the reign of Louis XV.
SA-CD.net:
Review by JJ September 14, 2010 (4 of 6 found this review helpful)
Performance: Sonics:
The new recording by Jordi Savall is devoted to the Concert Spirituel at the time of Louis XV, with works by Corelli (Concert Grosso in D major Op.6 N°4), Telemann (Overture with the Suite in D minor TWV 55:D6, Concerto in A minor, Overture with the Suite in E minor “Tafelmusik” TWV 55:e1), and Rameau (Les Indes Galantes, Suite des airs à jouer). The Concert Spirituel saw the light of day in 1725, and as Michael Hurd notes, it programmed every year a series of 24 public concerts, and did so until 1791. Founded by the oboist Anne Danican Philidor, they were in fact “benefits” given during the periods (like Lent) when other spectacles were forbidden. The term “spiritual” indicated, at least at first, that religious music was the major component.” Which is not the case in the program Jordi Savall has concocted. Rather, accompanying and directing the Concert des Nations, he plunges us into a universe of overwhelming musical beauty in which charm predominates from the beginning to end of the scores performed, with a little something extra in poetic delicacy for the work of Rameau. Here is, quite simply, a must-have SACD.
Jean-Jacques Millo
Translation Lawrence Schulman

                                                                                       
                       
                       
                       
                       
                       
                                磁力下载(论坛代下载服务)::
                                                               
                                       
付费主题

已有0人支付


                                               
  • 758.8 MB
  • 温馨提示

    记得善用社区搜索功能,那里可能会有你想要的资源;论坛站内搜索

    如果你有什么需要的资源可以去资源求档发帖,求助社区的网友,我们会在第一时间给你回复哦;资源求档

    对于本社区网盘链接失效密码错误各种报错请在反馈板块反馈报错发帖,您的支持,是我们发展的最大动力;投诉建议

    回复

    使用道具 举报

    您需要登录后才可以回帖 登录 | 立即注册 微信登录

    本版积分规则

    关注0

    粉丝1

    帖子31072

    发布主题
    阅读排行更多+
    关闭

    站长推荐上一条 /1 下一条

    活动提示

    赞助永久VIP会员送3T硬盘一块 限时活动

    地址:立刻参加

    我知道了
    收藏帖子 返回列表 这是一个自定义按钮
    音乐分享,音乐下载。
    微信公众号
    微信号:hires_
    意见反馈:admin@maomicd.com

    加入我们的官方QQ群和微信群

    Powered by Discuz! X3.4 Archiver|手机版|小黑屋|捌零音乐论坛 ( 苏ICP备20015413号 )|( 苏公网安备 32030502000272号) 繁體

    GMT+8, 2021-9-24 04:57