[古典] (Classical orchestral) J.S. Bach - Die Kunst der Fuge/The Art of the Fugue, BWV 1080 [2 CD's] (Neues Bachisches Collegium Musicum Leipzig, Max Pommer) - 1984, FLAC (image+.cue) los

[复制链接]
fqw1001 发表于 2021-9-10 16:56:57 | 显示全部楼层 |阅读模式 打印 上一主题 下一主题
J.S. Bach - Die Kunst der Fuge [2CD's] (Max Pommer)
Жанр: Classical orchestral
Страна-производитель диска: Made in Germany
Год издания диска: 1984
Издатель (лейбл): Capriccio
Номер по каталогу: 10 026/1-2
Дата записи: 1983-84
Аудиокодек: FLAC
Тип рипа: image+.cue
Битрейт аудио: lossless
Продолжительность: 37'04 + 52'53 / 88:00 / 01:28:00
Источник: релизер
сайт-источник/ник/другое: grison 57, подарок; Caterina Sforza - тяжелейшая работа с cue, доп. сканы
Наличие сканов в содержимом раздачи: да, четыре полных авторских буклета jpeg и pdf, 15 стр.
Треклист

CD1

Simple Fugues
1-1 Contrapunctus 1 (Subject In Similar Motion) 3:28
1-2 Contrapunctus 2 (Subject In Similar Motion) 2:57
1-3 Contrapunctus 3 (Subject In Contrary Motion) 3:08
1-4 Contrapunctus 4 (Sunject In Contrary Motion) 4:29
1-5 Canon Alla Ottava 4:54
Fugues By Contrary Motion And Stretto Fugues
1-6 Contrapunctus 5 (Subject In Contrary And In Similar Motion) 3:53
1-7 Contrapunctus 6 In Stile Francese (Sunject In Similar And Inverted Motion, Stretto) 4:18
1-8 Contrapunctus 7 Per Augmentationem (Subject In Augmentation And Diminution) 4:38
1-9 Canon Per Augmentation In Contrario Motu


CD2

Fugues With More Than One Subject
2-1 Contrapunctus 8 (Fugue With Three Subjects) 6:32
2-2 Contrapunctus 9 Alla Duodecima (Fuge With Two Subjects, Exchange Of Parts At Twelfth) 3:02
2-3 Contrapunctus 10 Alla Decima (Fugue With Two Subjects, Exchange Of Parts At Tenth) 4:22
2-4 Contrapunctus 11 (Four-part Fugue With Three Subjects 5:59
2-5 Canon Alla Decima, Contrapunto Alla Terza 5:28
Mirror Fugues
2-6 Contrapunctus 12 (Four-part Fugue, Inverted In All Parts) a. Rectus b. Inversus 5:15
2-7 Contrapunctus 13 (Three-Part Fugue, Inverted In All Parts) a. Rectus b. Inversus 3:47
2-8 Contrapunctus 13 "Alio Modo" (In Bach's Arrangement For 2 Harpsichords) a. Rectus b. Inversus 4:47
2-9 Canon Alla Duodecima In Contrapunto Alla Quinta (Canon At Twelfth And Exchange Of Parts To An Octave Canon) 4:05
2-10 Fuga A Tre Soggetti (Fugue With Three Subjects Unfinished)



Исполнители

Johann Sebastian Bach (1685-1750)
Die Kunst der Fuge, BWV 1080
Neues Bachisches Collegium Musicum Leipzig
Max Pommer, dir
CD1
01: Monika Tutschku (Diskantgambe), Thomas Fritzsch (Altgambe), Siegfried Pank (Tenorgambe), Nikolaus Gädeke (Tenorgambe), Achim Beyer (Violine)
02: Burkhard Glaetzner (Oboe d’amore), Axel Schmidt (Englisch Horn), Knut Sönstevold (Fagott), Thomas Reinhardt (Fagott), Rainer Hucke (Kontrabaß)
03: Eberhard Palm (Violine), Roald Reinecke (Violine), Siegfried Pank (Tenorgambe), Burkhard Schmidt (Violoncello), Rainer Hucke (Kontrabaß)
04: Wolfgang Loebner (Flöte), Burkhard Glaetzner (Oboe), Eberhard Palm (Violine), Axel Schmidt (Oboe d’amore), Roald Reinecke (Violine), Knut Sönstevold (Fagott), Nikolaus Gädeke (Tenorgambe), Wolfgang Espig (Viola), Thomas Reinhardt (Fagott), Burkhard Schmidt (Violoncello), Rainer Hucke (Kontrabaß)
05: Walter Heinz Bernstein (Orgel); 06: Streichorchester
07: Wolfgang Loebner (Flöte), Burkhard Glaetzner (Oboe), Axel Schmidt (Englisch Horn), Knut Sönstevold (Fagott), Thomas Reinhardt (Fagott)
08: Wolfgang Loebner (Flöte), Heinz Maier (Flöte), Wolfgang Espig (Viola), Knut Sönstevold (Fagott), Burkhard Schmidt (Violoncello), Rainer Hucke (Kontrabaß); Walter Heinz Bernstein (Orgel)
CD2
01: Burkhard Glaetzner (Oboe d’amore), Wolfgang Espig (Viola), Knut Sönstevold (Fagott), Rainer Hucke (Kontrabaß)
02: Wolfgang Loebner (Flöte); 03: Eberhard Palm (Violine), Axel Schmidt (Englisch Horn), Knut Sönstevold (Fagott), Burkhard Schmidt (Violoncello), Rainer Hucke (Kontrabaß)
04: Burkhard Glaetzner (Oboe), Axel Schmidt (Englisch Horn), Knut Sönstevold (Fagott), Thomas Reinhardt (Fagott)
05: Walter Heinz Bernstein (Orgel)
06: Walter Heinz Bernstein & Max Pommer (Cembalo)
07: a. rectus: Eberhard Palm (Violine), Axel Schmidt (Englisch Horn), Burkhardt Schmidt (Violoncello) & b. inversus: Wolfgang Loebner (Flöte), Roald Reinecke (Violine), Knut Sönstevold (Fagott)
08: Walter Heinz Bernstein & Max Pommer (Cembalo)
09: Walter Heinz Bernstein (Orgel)
10: a: Monika Tutschku (Diskantgambe), Thomas Fritzsch (Altgambe), Siegfried Pank (Tenorgambe), Nikolaus Gädeke (Tenorgambe), b: Streichorchester & c: Burkhard Glaetzner (Oboe), Axel Schmidt (Oboe d’amore), Knut Sönstevold (Fagott), Thomas Reinhardt (Fagott)
Recorded in 1983 (Organ, Dresden) and 1984 (Leipzig)


Лог создания рипа

CD1

Exact Audio Copy V1.4 from 3. February 2020
EAC extraction logfile from 27. April 2020, 15:12
Johann Sebastian Bach; Neues Bachisches Collegium Musicum, Max Pommer / Die Kunst der Fuge
Used drive  : HL-DT-STDVDRAM GUE0N   Adapter: 1  ID: 0
Read mode               : Secure
Utilize accurate stream : Yes
Defeat audio cache      : Yes
Make use of C2 pointers : No
Read offset correction                      : 102
Overread into Lead-In and Lead-Out          : No
Fill up missing offset samples with silence : Yes
Delete leading and trailing silent blocks   : No
Null samples used in CRC calculations       : Yes
Used interface                              : Native Win32 interface for Win NT & 2000
Used output format              : User Defined Encoder
Selected bitrate                : 1024 kBit/s
Quality                         : High
Add ID3 tag                     : No
Command line compressor         : C:\Program Files (x86)\Exact Audio Copy\FLAC\FLAC.EXE
Additional command line options : -8 -e -p  -V -T "ARTIST=%artist%" -T "TITLE=%title%" -T "ALBUM=%albumtitle%" -T "DATE=%year%" -T "TRACKNUMBER=%tracknr%" -T "GENRE=%genre%" -T "COMMENT=%comment%" -T "BAND=%albuminterpret%" -T "ALBUMARTIST=%albuminterpret%" -T "COMPOSER=%composer%" %haslyrics%--tag-from-file=LYRICS="%lyricsfile%"%haslyrics% -T "DISCNUMBER=%cdnumber%" -T "TOTALDISCS=%totalcds%" -T "TOTALTRACKS=%numtracks%" %hascover%--picture="%coverfile%"%hascover% %source% -o %dest%
TOC of the extracted CD
     Track |   Start  |  Length  | Start sector | End sector
    ---------------------------------------------------------
        1  |  0:00.00 |  3:33.00 |         0    |    15974
        2  |  3:33.00 |  3:01.00 |     15975    |    29549
        3  |  6:34.00 |  3:12.00 |     29550    |    43949
        4  |  9:46.00 |  4:34.00 |     43950    |    64499
        5  | 14:20.00 |  5:01.62 |     64500    |    87136
        6  | 19:21.62 |  3:58.00 |     87137    |   104986
        7  | 23:19.62 |  4:22.13 |    104987    |   124649
        8  | 27:42.00 |  4:42.62 |    124650    |   145861
        9  | 32:24.62 |  4:39.13 |    145862    |   166799
Range status and errors
Selected range
     Filename C:\Users\JML\Desktop\Bach  Art de la fugue  Pommer\Johann Sebastian Bach; Neues Bachisches Collegium Musicum, Max Pommer - Die Kunst der Fuge.wav
     Peak level 65.4 %
     Extraction speed 3.7 X
     Range quality 100.0 %
     Copy CRC 289498A4
     Copy OK
No errors occurred
AccurateRip summary
Track  1  accurately ripped (confidence 2)  [EAA3B602]  (AR v1)
Track  2  accurately ripped (confidence 2)  [4BD4B72F]  (AR v1)
Track  3  accurately ripped (confidence 2)  [DF0C2757]  (AR v1)
Track  4  accurately ripped (confidence 2)  [F540C70D]  (AR v1)
Track  5  accurately ripped (confidence 2)  [4F7731F3]  (AR v1)
Track  6  accurately ripped (confidence 2)  [52A2A31D]  (AR v1)
Track  7  accurately ripped (confidence 2)  [E861C78E]  (AR v1)
Track  8  accurately ripped (confidence 2)  [2D0A3AF3]  (AR v1)
Track  9  accurately ripped (confidence 2)  [99375D1F]  (AR v1)
All tracks accurately ripped
End of status report
---- CUETools DB Plugin V2.1.6
[CTDB TOCID: KtfhgrKKvHNbwen3YNWC.Hf3RpQ-] found
Submit result: KtfhgrKKvHNbwen3YNWC.Hf3RpQ- has been confirmed
Track | CTDB Status
  1   | (32/32) Accurately ripped
  2   | (32/32) Accurately ripped
  3   | (32/32) Accurately ripped
  4   | (32/32) Accurately ripped
  5   | (32/32) Accurately ripped
  6   | (32/32) Accurately ripped
  7   | (32/32) Accurately ripped
  8   | (32/32) Accurately ripped
  9   | (32/32) Accurately ripped
==== Log checksum 199729546CAF13729D8BB3B5D83254F3367A93FB1E5794938B324DDF7C254569 ====


CD2

Exact Audio Copy V1.4 from 3. February 2020
EAC extraction logfile from 27. April 2020, 16:02
Johann Sebastian Bach; Neues Bachisches Collegium Musicum, Max Pommer / Die Kunst der Fuge
Used drive  : HL-DT-STDVDRAM GUE0N   Adapter: 1  ID: 0
Read mode               : Secure
Utilize accurate stream : Yes
Defeat audio cache      : Yes
Make use of C2 pointers : No
Read offset correction                      : 102
Overread into Lead-In and Lead-Out          : No
Fill up missing offset samples with silence : Yes
Delete leading and trailing silent blocks   : No
Null samples used in CRC calculations       : Yes
Used interface                              : Native Win32 interface for Win NT & 2000
Used output format              : User Defined Encoder
Selected bitrate                : 1024 kBit/s
Quality                         : High
Add ID3 tag                     : No
Command line compressor         : C:\Program Files (x86)\Exact Audio Copy\FLAC\FLAC.EXE
Additional command line options : -8 -e -p  -V -T "ARTIST=%artist%" -T "TITLE=%title%" -T "ALBUM=%albumtitle%" -T "DATE=%year%" -T "TRACKNUMBER=%tracknr%" -T "GENRE=%genre%" -T "COMMENT=%comment%" -T "BAND=%albuminterpret%" -T "ALBUMARTIST=%albuminterpret%" -T "COMPOSER=%composer%" %haslyrics%--tag-from-file=LYRICS="%lyricsfile%"%haslyrics% -T "DISCNUMBER=%cdnumber%" -T "TOTALDISCS=%totalcds%" -T "TOTALTRACKS=%numtracks%" %hascover%--picture="%coverfile%"%hascover% %source% -o %dest%
TOC of the extracted CD
     Track |   Start  |  Length  | Start sector | End sector
    ---------------------------------------------------------
        1  |  0:00.00 |  6:36.70 |         0    |    29769
        2  |  6:36.70 |  3:08.05 |     29770    |    43874
        3  |  9:45.00 |  4:28.15 |     43875    |    63989
        4  | 14:13.15 |  6:04.55 |     63990    |    91344
        5  | 20:17.70 |  5:36.12 |     91345    |   116556
        6  | 25:54.07 |  5:20.00 |    116557    |   140556
        7  | 31:14.07 |  4:32.65 |    140557    |   161021
        8  | 35:46.72 |  4:52.00 |    161022    |   182921
        9  | 40:38.72 |  4:15.08 |    182922    |   202054
       10  | 44:54.05 |  7:59.07 |    202055    |   237986
Range status and errors
Selected range
     Filename C:\Users\JML\Desktop\Bach  Art de la fugue  Pommer\Johann Sebastian Bach; Neues Bachisches Collegium Musicum, Max Pommer - Die Kunst der Fuge.wav
     Peak level 64.4 %
     Extraction speed 4.0 X
     Range quality 100.0 %
     Copy CRC BC35D6E8
     Copy OK
No errors occurred
AccurateRip summary
Track  1  accurately ripped (confidence 3)  [0AC0FB26]  (AR v2)
Track  2  accurately ripped (confidence 3)  [B574181C]  (AR v2)
Track  3  accurately ripped (confidence 3)  [EE7F62CA]  (AR v2)
Track  4  accurately ripped (confidence 3)  [79BB7A5B]  (AR v2)
Track  5  accurately ripped (confidence 3)  [3808A48B]  (AR v2)
Track  6  accurately ripped (confidence 3)  [85B88ED5]  (AR v2)
Track  7  accurately ripped (confidence 3)  [46357D42]  (AR v2)
Track  8  accurately ripped (confidence 3)  [0CEE338C]  (AR v2)
Track  9  accurately ripped (confidence 3)  [19A72F3A]  (AR v2)
Track 10  accurately ripped (confidence 2)  [628372D3]  (AR v2)
All tracks accurately ripped
End of status report
---- CUETools DB Plugin V2.1.6
[CTDB TOCID: yL3azW85dN0zBncWZluMU4y9aUg-] found
Submit result: yL3azW85dN0zBncWZluMU4y9aUg- has been confirmed
Track | CTDB Status
  1   | (30/30) Accurately ripped
  2   | (30/30) Accurately ripped
  3   | (30/30) Accurately ripped
  4   | (30/30) Accurately ripped
  5   | (30/30) Accurately ripped
  6   | (30/30) Accurately ripped
  7   | (30/30) Accurately ripped
  8   | (30/30) Accurately ripped
  9   | (30/30) Accurately ripped
10   | (30/30) Accurately ripped
==== Log checksum 4091C33962DF5CCDD31D4A2CF13DE19BD0A1EC6A446E70E27ED0B5BEF5AB569D ====



Содержание индексной карты (.CUE)

CD1

REM GENRE Classical
REM DATE 1984
REM DISCID 7708B009
REM COMMENT "ExactAudioCopy v1.4"
PERFORMER "Neues Bachisches Collegium Musicum, Max Pommer (dir.); 01: Monika Tutschku (Diskantgambe), Thomas Fritzsch (Altgambe), Siegfried Pank (Tenorgambe), Nikolaus Gädeke (Tenorgambe), Achim Beyer (Violine); 02: Burkhard Glaetzner (Oboe d’amore), Axel Schmidt (Englisch Horn), Knut Sönstevold (Fagott), Thomas Reinhardt (Fagott), Rainer Hucke (Kontrabaß); 03: Eberhard Palm (Violine), Roald Reinecke (Violine), Siegfried Pank (Tenorgambe), Burkhard Schmidt (Violoncello), Rainer Hucke (Kontrabaß); 04: Wolfgang Loebner (Flöte), Burkhard Glaetzner (Oboe), Eberhard Palm (Violine), Axel Schmidt (Oboe d’amore), Roald Reinecke (Violine), Knut Sönstevold (Fagott), Nikolaus Gädeke (Tenorgambe), Wolfgang Espig (Viola), Thomas Reinhardt (Fagott), Burkhard Schmidt (Violoncello), Rainer Hucke (Kontrabaß); 05: Walter Heinz Bernstein (Orgel); 06: Streichorchester; 07: Wolfgang Loebner (Flöte), Burkhard Glaetzner (Oboe), Axel Schmidt (Englisch Horn), Knut Sönstevold (Fagott), Thomas Reinhardt (Fagott); 08: Wolfgang Loebner (Flöte), Heinz Maier (Flöte), Wolfgang Espig (Viola), Knut Sönstevold (Fagott), Burkhard Schmidt (Violoncello), Rainer Hucke (Kontrabaß); Walter Heinz Bernstein (Orgel)"
TITLE "J. S. Bach: Die Kunst der Fuge - Max Pommer (Disc 1)"
REM COMPOSER "Johann Sebastian Bach (1685-1750)"
FILE "J. S. Bach - Die Kunst der Fuge - Max Pommer (Disc 1).flac" WAVE
  TRACK 01 AUDIO
    TITLE "Die Kunst der Fuge BWV 1080: Contrapunctus 1 - Thema in Gerader Bewegung"
    PERFORMER "Monika Tutschku, Thomas Fritzsch, Siegfried Pank, Nikolaus Gädeke, Achim Beyer"
    REM COMPOSER "Johann Sebastian Bach"
    INDEX 01 00:00:00
  TRACK 02 AUDIO
    TITLE "Die Kunst der Fuge BWV 1080: Contrapunctus 2 - Thema in Gerader Bewegung"
    PERFORMER "Burkhard Glaetzner, Axel Schmidt, Knut Sönstevold, Thomas Reinhardt, Rainer Hucke"
    REM COMPOSER "Johann Sebastian Bach"
    REM INDEX 00 03:29:25
    INDEX 01 03:33:00
  TRACK 03 AUDIO
    TITLE "Die Kunst der Fuge BWV 1080: Contrapunctus 3 - Thema in Gegenbewegung"
    PERFORMER "Eberhard Palm, Roald Reinecke, Siegfried Pank, Burkhard Schmidt, Rainer Hucke"
    REM COMPOSER "Johann Sebastian Bach"
    REM INDEX 00 06:31:00
    INDEX 01 06:34:00
  TRACK 04 AUDIO
    TITLE "Die Kunst der Fuge BWV 1080: Contrapunctus 4 - Thema in Gegenbewegung"
    PERFORMER "Wolfgang Loebner, Burkhard Glaetzner, Eberhard Palm, Axel Schmidt, Roald Reinecke, Knut Sönstevold, Nikolaus Gädeke, Wolfgang Espig, Thomas Reinhardt, Burkhard Schmidt, Rainer Hucke"
    REM COMPOSER "Johann Sebastian Bach"
    REM INDEX 00 09:42:50
    INDEX 01 09:46:00
  TRACK 05 AUDIO
    TITLE "Die Kunst der Fuge BWV 1080: Canon alla Ottava - Kanon im Oktavabstand"
    PERFORMER "Walter Heinz Bernstein"
    REM COMPOSER "Johann Sebastian Bach"
    REM INDEX 00 14:16:00
    INDEX 01 14:20:00
  TRACK 06 AUDIO
    TITLE "Die Kunst der Fuge BWV 1080: Contrapunctus 5 - Thema in Umgekehrter und Gerader Bewegung"
    PERFORMER "Neues Bachisches Collegium Musicum, Max Pommer"
    REM COMPOSER "Johann Sebastian Bach"
    REM INDEX 00 19:15:25
    INDEX 01 19:21:62
  TRACK 07 AUDIO
    TITLE "Die Kunst der Fuge BWV 1080: Contrapunctus 6 in Stile francese - Thema in Umgekehrter und Gerader Bewegung"
    PERFORMER "Wolfgang Loebner, Burkhard Glaetzner, Axel Schmidt, Knut Sönstevold, Thomas Reinhardt"
    REM COMPOSER "Johann Sebastian Bach"
    REM INDEX 00 23:15:62
    INDEX 01 23:19:62
  TRACK 08 AUDIO
    TITLE "Die Kunst der Fuge BWV 1080: Contrapunctus 7 per Augmentationem et Dimintionem - Thema in Vergrößerung und Verkleinerung"
    PERFORMER "Wolfgang Loebner, Heinz Maier, Wolfgang Espig, Knut Sönstevold, Burkhard Schmidt, Rainer Hucke"
    REM COMPOSER "Johann Sebastian Bach"
    REM INDEX 00 27:39:00
    INDEX 01 27:42:00
  TRACK 09 AUDIO
    TITLE "Die Kunst der Fuge BWV 1080: Canon per Augmentationem in Contrario Motu"
    PERFORMER "Walter Heinz Bernstein"
    REM COMPOSER "Johann Sebastian Bach"
    REM INDEX 00 32:21:25
    INDEX 01 32:24:62


CD2

REM GENRE Classical
REM DATE 1984
REM DISCID A00C650A
REM COMMENT "ExactAudioCopy v1.4"
PERFORMER "Neues Bachisches Collegium Musicum, Max Pommer (dir.); 01: Burkhard Glaetzner (Oboe d’amore), Wolfgang Espig (Viola), Knut Sönstevold (Fagott), Rainer Hucke (Kontrabaß); 02: Wolfgang Loebner (Flöte); 03: Eberhard Palm (Violine), Axel Schmidt (Englisch Horn), Knut Sönstevold (Fagott), Burkhard Schmidt (Violoncello), Rainer Hucke (Kontrabaß); 04: Burkhard Glaetzner (Oboe), Axel Schmidt (Englisch Horn), Knut Sönstevold (Fagott), Thomas Reinhardt (Fagott); 05: Walter Heinz Bernstein (Orgel); 06: Walter Heinz Bernstein & Max Pommer (Cembalo); 07: a. rectus: Eberhard Palm (Violine), Axel Schmidt (Englisch Horn), Burkhardt Schmidt (Violoncello) & b. inversus: Wolfgang Loebner (Flöte), Roald Reinecke (Violine), Knut Sönstevold (Fagott); 08: Walter Heinz Bernstein & Max Pommer (Cembalo); 09: Walter Heinz Bernstein (Orgel); 10: a: Monika Tutschku (Diskantgambe), Thomas Fritzsch (Altgambe), Siegfried Pank (Tenorgambe), Nikolaus Gädeke (Tenorgambe), b: Streichorchester & c: Burkhard Glaetzner (Oboe), Axel Schmidt (Oboe d’amore), Knut Sönstevold (Fagott), Thomas Reinhardt (Fagott)"
TITLE "J. S. Bach: Die Kunst der Fuge - Max Pommer (Disc 2)"
REM COMPOSER "Johann Sebastian Bach (1685-1750)"
FILE "J. S. Bach - Die Kunst der Fuge - Max Pommer (Disc 2).flac" WAVE
  TRACK 01 AUDIO
    TITLE "Die Kunst der Fuge BWV 1080: Contrapunctus 8 - Dreithemige Fuge"
    PERFORMER "Burkhard Glaetzner, Wolfgang Espig, Knut Sönstevold, Rainer Hucke"
    REM COMPOSER "Johann Sebastian Bach"
    INDEX 01 00:00:00
  TRACK 02 AUDIO
    TITLE "Die Kunst der Fuge BWV 1080: Contrapunctus 9 alla Duodecima - Zweithemige Fuge, Austausch der Stimmen in der Duodezime"
    PERFORMER "Wolfgang Loebner"
    REM COMPOSER "Johann Sebastian Bach"
    INDEX 00 06:32:62
    INDEX 01 06:36:70
  TRACK 03 AUDIO
    TITLE "Die Kunst der Fuge BWV 1080: Contrapunctus 10 alla Decima - Zweithemige Fuge mit Vertausch der Stimmen in der Dezime"
    PERFORMER "Eberhard Palm, Axel Schmidt, Knut Sönstevold, Burkhard Schmidt, Rainer Hucke"
    REM COMPOSER "Johann Sebastian Bach"
    INDEX 00 09:40:42
    INDEX 01 09:45:00
  TRACK 04 AUDIO
    TITLE "Die Kunst der Fuge BWV 1080: Contrapunctus 11 - Dreithemige Fuge zu 4 Stimmen"
    PERFORMER "Burkhard Glaetzner, Axel Schmidt, Knut Sönstevold, Thomas Reinhardt"
    REM COMPOSER "Johann Sebastian Bach"
    INDEX 00 14:08:25
    INDEX 01 14:13:15
  TRACK 05 AUDIO
    TITLE "Die Kunst der Fuge BWV 1080: Canon alla Decima, Contrapunto alla Terza - Kanon im Abstand einer Dezime und Austausch der Stimmen"
    PERFORMER "Walter Heinz Bernstein"
    REM COMPOSER "Johann Sebastian Bach"
    INDEX 00 20:12:62
    INDEX 01 20:17:70
  TRACK 06 AUDIO
    TITLE "Die Kunst der Fuge BWV 1080: Contrapunctus 12 - Vierstimmige Fuge, in allen Stimmen Umgekehrt"
    PERFORMER "Walter Heinz Bernstein, Max Pommer"
    REM COMPOSER "Johann Sebastian Bach"
    INDEX 00 25:46:62
    INDEX 01 25:54:07
    INDEX 02 28:33:32
  TRACK 07 AUDIO
    TITLE "Die Kunst der Fuge BWV 1080: Contrapunctus 13 - Dreistimmige Fuge, in allen Stimmen umgkehrt"
    PERFORMER "Eberhard Palm, Axel Schmidt, Burkhardt Schmidt; Wolfgang Loebner, Roald Reinecke, Knut Sönstevold"
    REM COMPOSER "Johann Sebastian Bach"
    INDEX 00 31:09:62
    INDEX 01 31:14:07
    INDEX 02 33:26:62
  TRACK 08 AUDIO
    TITLE "Die Kunst der Fuge BWV 1080: Contrapunctus 13 Alio modo - in Bachs Bearbeitung für 2 Cembali"
    PERFORMER "Walter Heinz Bernstein, Max Pommer"
    REM COMPOSER "Johann Sebastian Bach"
    INDEX 00 35:41:50
    INDEX 01 35:46:72
    INDEX 02 38:08:50
  TRACK 09 AUDIO
    TITLE "Die Kunst der Fuge BWV 1080: Canon alla Duodecima in Contrapunto alla Quinta - Kanon im Abstand einer Duodezime und Austausch der Stimmen"
    PERFORMER "Walter Heinz Bernstein"
    REM COMPOSER "Johann Sebastian Bach"
    INDEX 00 40:34:62
    INDEX 01 40:38:72
  TRACK 10 AUDIO
    TITLE "Die Kunst der Fuge BWV 1080: Fuga a Tre Soggetti - Dreithemige Fuge - Unvollendet"
    PERFORMER "Monika Tutschku, Thomas Fritzsch, Siegfried Pank, Nikolaus Gädeke; Streichorchester; Burkhard Glaetzner, Axel Schmidt, Knut Sönstevold, Thomas Reinhardt"
    REM COMPOSER "Johann Sebastian Bach"
    INDEX 00 44:45:37
    INDEX 01 44:54:05


                                                                                       
                       
                       
                       
                       
                       
                                磁力下载(论坛代下载服务)::
                                                               
                                       
付费主题

已有0人支付


                                               
  • 427.1 MB
  • 温馨提示

    记得善用社区搜索功能,那里可能会有你想要的资源;论坛站内搜索

    如果你有什么需要的资源可以去资源求档发帖,求助社区的网友,我们会在第一时间给你回复哦;资源求档

    对于本社区网盘链接失效密码错误各种报错请在反馈板块反馈报错发帖,您的支持,是我们发展的最大动力;投诉建议

    回复

    使用道具 举报

    您需要登录后才可以回帖 登录 | 立即注册 微信登录

    本版积分规则

    关注0

    粉丝0

    帖子31064

    发布主题
    阅读排行更多+
    关闭

    站长推荐上一条 /1 下一条

    活动提示

    赞助永久VIP会员送3T硬盘一块 限时活动

    地址:立刻参加

    我知道了
    收藏帖子 返回列表 这是一个自定义按钮
    音乐分享,音乐下载。
    微信公众号
    微信号:hires_
    意见反馈:admin@maomicd.com

    加入我们的官方QQ群和微信群

    Powered by Discuz! X3.4 Archiver|手机版|小黑屋|捌零音乐论坛 ( 苏ICP备20015413号 )|( 苏公网安备 32030502000272号) 繁體

    GMT+8, 2021-9-25 05:08