[古典] (Симфоническая музыка) Чайковский Симфония No.5, Глазунов "Раймонда" (сюита) - Мравинский - 1983,69 (Tchaikovsky, Glazunov - Mravinsky), APE (image + .cue), lossl

[复制链接]
elmisy 发表于 2021-9-10 16:56:57 | 显示全部楼层 |阅读模式 打印 上一主题 下一主题
Чайковский Симфония No.5, Глазунов "Раймонда" (сюита) - Мравинский
Страна: Россия
Жанр: Симфоническая музыка
Год выпуска: 1983
Формат: APE (image + .cue)
Битрейт аудио: lossless
Продолжительность: 66'52''
Трэклист:
CD: Leningrad PhO, Mravinsky - Tchaikovsky 5 & Glazunov 'Raimonda'
01. Tchaikovsky Symphony No.5 - I. Andante - Allegro con anima [0:13:59.37]
02. Tchaikovsky Symphony No.5 - II. Andante cantabile con alcuna [0:11:49.38]
03. Tchaikovsky Symphony No.5 - III. Valse. Allegro moderato [0:05:36.30]
04. Tchaikovsky Symphony No.5 - IV. Finale. Andante maestoso [0:11:29.70]
05. Glazunov 'Raimonda' Suite [0:23:56.60]
Доп. информация: (В продолжение поста https://rutracker.org/forum/https://rutracker.net/forum/viewtopic.php?t=873376). Записано в Ленинградской филармонии 19 марта 1983 года (стерео; юбилейный концерт, посвященный 100-летию оркестра) и 28 декабря 1969 года (моно, но звук очень хороший!). Это последняя из 18 известных записей Пятой симфонии (одно из самых часто исполняемых и записанных произведений у Мравинского; второе - это Пятая симфония Шостаковича), своего рода итог... Дирижер очень любил исполнять Глазунова, который звучал душевно и лирично (но без слащавости), прозрачно по фактуре... иногда - мужественно и строго.
опять по поводу записей...
Эта запись Пятой симфонии в нашей стране не выпускалась, выходила только на CD. Имеется на дисках Erato-Warner и JVC (Япония). Существует и видео версия этой записи, но только на японских видеокассетах Triton и американских Parnassus (непонятно, почему до сих пор не издано на DVD...). Я до них пока не добрался, но всё равно можно заполучить только оцифровку VHS...)
Запись сюиты из балета "Раймонда" - единственная (у Мравинского). Выходила только за рубежом, на CD Erato-Warner и JVC.
Полных записей Пятой симфонии - 18 (15 аудио и 3 видео - 1973,82 и 83 гг.) Аудио и видеоварианты можно считать раздельно, поскольку на видео (даже на DVD) звук моно, а аудио фонограммы - стерео. DVD с записью 1982 года (специальная запись в пустом зале Филармонии) я планирую выложить ко дню рождения Мравинского (4 июня).

EAC-log
Exact Audio Copy V0.99 prebeta 3 from 28. July 2007
EAC extraction logfile from 25. May 2008, 11:03
Leningrad PhO, Mravinsky / Tchaikovsky 5 & Glazunov 'Raimonda'
Used drive : _NEC DVD_RW ND-3540A Adapter: 0 ID: 0
Read mode : Secure
Utilize accurate stream : Yes
Defeat audio cache : No
Make use of C2 pointers : No
Read offset correction : 48
Overread into Lead-In and Lead-Out : No
Fill up missing offset samples with silence : Yes
Delete leading and trailing silent blocks : No
Null samples used in CRC calculations : No
Used interface : Installed external ASPI interface
Used output format : Internal WAV Routines
Sample format : 44.100 Hz; 16 Bit; Stereo
TOC of the extracted CD
Track | Start | Length | Start sector | End sector
---------------------------------------------------------
1 | 0:00.00 | 13:59.37 | 0 | 62961
2 | 13:59.37 | 11:49.38 | 62962 | 116174
3 | 25:49.00 | 5:36.30 | 116175 | 141404
4 | 31:25.30 | 11:29.70 | 141405 | 193149
5 | 42:55.25 | 23:56.60 | 193150 | 300909
Range status and errors
Selected range
Filename C:\Tchaikovsky Symphony No. & Glazunov 'Raimonda' Suite - Mravinsky (1983,69)\Leningrad PhO, Mravinsky - Tchaikovsky 5 & Glazunov 'Raimonda'.wav
Peak level 96.6 %
Range quality 100.0 %
Test CRC 14F234FC
Copy CRC 14F234FC
Copy OK
No errors occurred
End of status report
Ссылки на другие выложенные записи Мравинского можно найти здесь https://rutracker.org/forum/https://rutracker.net/forum/viewtopic.php?t=674831                                                                                       
                       
                       
                       
                       
                       
                                磁力下载(论坛代下载服务)::
                                                               
                                       
付费主题

已有0人支付


                                               
  • 258.7 MB
  • 温馨提示

    记得善用社区搜索功能,那里可能会有你想要的资源;论坛站内搜索

    如果你有什么需要的资源可以去资源求档发帖,求助社区的网友,我们会在第一时间给你回复哦;资源求档

    对于本社区网盘链接失效密码错误各种报错请在反馈板块反馈报错发帖,您的支持,是我们发展的最大动力;投诉建议

    回复

    使用道具 举报

    您需要登录后才可以回帖 登录 | 立即注册 微信登录

    本版积分规则

    关注0

    粉丝3

    帖子30621

    发布主题
    阅读排行更多+
    关闭

    站长推荐上一条 /1 下一条

    活动提示

    赞助永久VIP会员送3T硬盘一块 限时活动

    地址:立刻参加

    我知道了
    收藏帖子 返回列表 这是一个自定义按钮
    音乐分享,音乐下载。
    微信公众号
    微信号:hires_
    意见反馈:admin@maomicd.com

    加入我们的官方QQ群和微信群

    Powered by Discuz! X3.4 Archiver|手机版|小黑屋|捌零音乐论坛 ( 苏ICP备20015413号 )|( 苏公网安备 32030502000272号) 繁體

    GMT+8, 2021-9-22 22:06