[古典] (Classical) Дмитрий Шостакович "Седьмая симфония"(Симфония №7 "Ленинградская", романс из музыки к фильму "Овод")(Кондрашин, Эр

[复制链接]
全球采集 发表于 2021-9-10 16:56:56 | 显示全部楼层 |阅读模式 打印 上一主题 下一主题
Великие композиторы - Коллекция классики от "КП". Том 9. Дмитрий Шостакович "Седьмая симфония"
Жанр: Classical
Страна-производитель диска: Россия
Год издания диска: 2010
Издатель (лейбл): ФГУП "Фирма Мелодия"
Номер по каталогу: MEL CD 10 01768
Дата записи: 1966-1975
Аудиокодек: FLAC
Тип рипа: image+.cue
Битрейт аудио: lossless
Продолжительность: 78 мин. 14 сек
Источник: собственный рип
Наличие сканов в содержимом раздачи: да
Треклист:
Симфония №7 до мажор, соч. 60 «Ленинградская»
01. I. Allegretto
02. II. Moderato (poco allegretto)
03. III. Adagio
04. IV. Allegro non troppo
05. Романс из музыки к фильму «Овод»
Исполнители:
Симфонический оркестр Московской филармонии
Дирижёр - Кирилл Кондрашин (1 - 4).
Оркестр Большого театра СССР
Дирижёр - Марк Эрмлер (5).
Отчёт ЕАС

Exact Audio Copy V0.99 prebeta 4 from 23. January 2008
Отчёт EAC об извлечении, выполненном 8. ноября 2010, 22:00
Various / №9. Дмитрий Дмитриевич Шостакович. Седьмая симфония
Дисковод: YAMAHA  CRW-F1E   Adapter: 1  ID: 1
Режим чтения                 : Достоверность
Использование точного потока : Да
Отключение кэша аудио        : Да
Использование указателей C2  : Нет
Коррекция смещения при чтении                     : 733
Способность читать области Lead-in и Lead-out     : Нет
Заполнение пропущенных сэмплов тишиной            : Да
Удаление блоков с тишиной в начале и конце        : Нет
При вычислениях CRC использовались нулевые сэмплы : Да
Интерфейс                                         : Встроенный Win32-интерфейс для Win NT/2000
Выходной формат          : Пользовательский кодировщик
Выбранный битрейт        : 768 kBit/s
Качество                 : Высокий
Добавление ID3-тэга      : Нет
Утилита сжатия           : C:\Program Files\Exact Audio Copy\FLAC\FLAC.EXE
Дополнительные параметры : -6 -V -T "ARTIST=%a" -T "TITLE=%t" -T "ALBUM=%g" -T "DATE=%y" -T "TRACKNUMBER=%n" -T "GENRE=%m" -T "COMMENT=%e" %s -o %d
TOC извлечённого CD
     Трек |   Старт  | Длительность | Начальный сектор | Конечный сектор
    ---------------------------------------------------------------------
       1  |  0:00.00 |   26:27.13   |           0      |     119037
       2  | 26:27.13 |   10:33.21   |      119038      |     166533
       3  | 37:00.34 |   16:40.02   |      166534      |     241535
       4  | 53:40.36 |   17:28.26   |      241536      |     320161
       5  | 71:08.62 |    7:02.74   |      320162      |     351885
Характеристики диапазона извлечения и сообщения об ошибках
Выбранный диапазон
     Имя файла D:\-На шару-\Великие композиторы\CD9-Дмитрий Шостакович\Various - №9. Дмитрий Дмитриевич Шостакович. Седьмая симфония.wav
     Пиковый уровень 85.2 %
     Качество диапазона 100.0 %
     CRC копии 8A7D0723
     Копирование... OK
Ошибок не произошло
AccurateRip: сводка
Трек  1  нет в базе данных
Трек  2  нет в базе данных
Трек  3  нет в базе данных
Трек  4  нет в базе данных
Трек  5  нет в базе данных
Ни одного трека нет в базе AccurateRip
Конец отчёта


Содержание индексной карты (.CUE)

REM GENRE Classical
REM DATE 2010
REM DISCID 37125305
REM COMMENT "ExactAudioCopy v0.99pb4"
PERFORMER "Various"
TITLE "№9. Дмитрий Дмитриевич Шостакович. Седьмая симфония"
FILE "Various - №9. Дмитрий Дмитриевич Шостакович. Седьмая симфония.flac" WAVE
  TRACK 01 AUDIO
    TITLE "Симфония №7 до мажор, соч. 60 «Ленинградская». I. Allegretto"
    PERFORMER "Симфония №7 до мажор, соч. 60 «Ленинградская». I. Allegretto"
    INDEX 01 00:00:00
  TRACK 02 AUDIO
    TITLE "Симфония №7 до мажор, соч. 60 «Ленинградская». II. Moderato (poco allegretto)"
    PERFORMER "Симфония №7 до мажор, соч. 60 «Ленинградская». II. Moderato (poco allegretto)"
    INDEX 01 26:27:13
  TRACK 03 AUDIO
    TITLE "Симфония №7 до мажор, соч. 60 «Ленинградская». III. Adagio"
    PERFORMER "Симфония №7 до мажор, соч. 60 «Ленинградская». III. Adagio"
    INDEX 01 37:00:34
  TRACK 04 AUDIO
    TITLE "Симфония №7 до мажор, соч. 60 «Ленинградская». IV. Allegro non troppo"
    PERFORMER "Симфония №7 до мажор, соч. 60 «Ленинградская». IV. Allegro non troppo"
    INDEX 01 53:40:36
  TRACK 05 AUDIO
    TITLE "Романс из музыки к фильму «Овод»"
    PERFORMER "Романс из музыки к фильму «Овод»"
    INDEX 01 71:08:62

Доп. информация: Годы записи: 1975 (1 - 4), 1966 (5).
(P) ФГУП «Фирма Мелодия», 2010.
(C) ЗАО «Издательский Дом «Комсомольская правда», 2010.
Другие CD серии КП ''Великие композиторы''
Том 1. Никколло Паганини - "Сонаты и каприсы" - https://rutracker.org/forum/https://rutracker.net/forum/viewtopic.php?t=3159822
Том 2. Сергей Прокофьев - "Ромео и Джульетта" - https://rutracker.org/forum/https://rutracker.net/forum/viewtopic.php?t=3167519
Том 3. Михаил Глинка - "Руслан и Людмила" - https://rutracker.org/forum/https://rutracker.net/forum/viewtopic.php?t=3181131
Том 4. Георг Фридрих Гендель - "Музыка на воде" - https://rutracker.org/forum/https://rutracker.net/forum/viewtopic.php?t=3193751
Том 5. Луи-Гектор Берлиоз - "Фантастическая симфония" - https://rutracker.org/forum/https://rutracker.net/forum/viewtopic.php?t=3203885
Том 6. Арам Ильич Хачатурян - "Спартак" - https://rutracker.org/forum/https://rutracker.net/forum/viewtopic.php?t=3213735
Том 7. Джорж Гершвин - "Рапсодия в стиле блюз" - https://rutracker.org/forum/https://rutracker.net/forum/viewtopic.php?t=3227413
Том 8. Альфред Шнитке - "История доктора Иоганна Фауста" - https://rutracker.org/forum/https://rutracker.net/forum/viewtopic.php?t=3238298
Том 10.Рихард Штраус - "Так говорил Заратустра" - https://rutracker.org/forum/https://rutracker.net/forum/viewtopic.php?t=3264484
Том 11.Георгий Свиридов - "Метель" - https://rutracker.org/forum/https://rutracker.net/forum/viewtopic.php?t=3277454
Том 12.Игорь Стравинский - "Петрушка" - https://rutracker.org/forum/https://rutracker.net/forum/viewtopic.php?t=3290700
Том 13.Итальянская опера - "Паяцы" - https://rutracker.org/forum/https://rutracker.net/forum/viewtopic.php?t=3302544
Том 14.Родион Щедрин - "Кармен-сюита" - https://rutracker.org/forum/https://rutracker.net/forum/viewtopic.php?t=3316322
Том 15.Испанская музыка - "Иберия" - https://rutracker.org/forum/https://rutracker.net/forum/viewtopic.php?t=3328063
Том 16.Русский романс - "Колокольчик" - https://rutracker.org/forum/https://rutracker.net/forum/viewtopic.php?t=3338755
Том 17.Имре Кальман - "Принцесса цирка" - https://rutracker.org/forum/https://rutracker.net/forum/viewtopic.php?t=3370835
Том 18.Классическая оперетта - "Летучая мышь" - https://rutracker.org/forum/https://rutracker.net/forum/viewtopic.php?t=3376232
Том 19.Модест Мусоргский - "Борис Годунов" - https://rutracker.org/forum/https://rutracker.net/forum/viewtopic.php?t=3390865
Том 20.Средневековая церковная музыка - "Григорианский хорал" - https://rutracker.org/forum/https://rutracker.net/forum/viewtopic.php?t=3401739
Том 21.Антон Рубинштейн - "Демон" - https://rutracker.org/forum/https://rutracker.net/forum/viewtopic.php?t=3413723
Том 22.Шарль Гуно - "Фауст" - https://rutracker.org/forum/https://rutracker.net/forum/viewtopic.php?t=3427136
Том 23.Густав Малер - "Симфонии" - https://rutracker.org/forum/https://rutracker.net/forum/viewtopic.php?t=3439471
Том 24.Органная музыка - "Токката" - https://rutracker.org/forum/https://rutracker.net/forum/viewtopic.php?t=3453099
Том 25.Русская духовная музыка - «Всенощное бдение» - https://rutracker.org/forum/https://rutracker.net/forum/viewtopic.php?t=3479145
Нажмите, пожалуйста, на кнопку "Сказать "Спасибо"".                                                                                       
                       
                       
                       
                       
                       
                                磁力下载(论坛代下载服务)::
                                                               
                                       
付费主题

已有0人支付


                                               
  • 426.6 MB
  • 温馨提示

    记得善用社区搜索功能,那里可能会有你想要的资源;论坛站内搜索

    如果你有什么需要的资源可以去资源求档发帖,求助社区的网友,我们会在第一时间给你回复哦;资源求档

    对于本社区网盘链接失效密码错误各种报错请在反馈板块反馈报错发帖,您的支持,是我们发展的最大动力;投诉建议

    回复

    使用道具 举报

    您需要登录后才可以回帖 登录 | 立即注册 微信登录

    本版积分规则

    关注0

    粉丝19

    帖子87653

    发布主题
    阅读排行更多+
    关闭

    站长推荐上一条 /1 下一条

    活动提示

    赞助永久VIP会员送3T硬盘一块 限时活动

    地址:立刻参加

    我知道了
    收藏帖子 返回列表 这是一个自定义按钮
    音乐分享,音乐下载。
    微信公众号
    微信号:hires_
    意见反馈:admin@maomicd.com

    加入我们的官方QQ群和微信群

    Powered by Discuz! X3.4 Archiver|手机版|小黑屋|捌零音乐论坛 ( 苏ICP备20015413号 )|( 苏公网安备 32030502000272号) 繁體

    GMT+8, 2021-9-22 21:55