[古典] (Classical) Shostakovich (Шостакович) - Symphony No. 10 (Симфония No 10) / The Gadfly Suite (Сюита из фильма "Овод") (The Royal Philharmonic Orchestra, Frank Ship

[复制链接]
全球搬运 发表于 2021-9-10 16:56:56 | 显示全部楼层 |阅读模式 打印 上一主题 下一主题
Shostakovich (Шостакович) - Symphony No. 10 (Симфония No 10) / The Gadfly Suite (Сюита из фильма "Овод") (The Royal Philharmonic Orchestra, Frank Shipway)
Жанр: Classical
Год выпуска диска: 1995
Производитель диска: EEC
Аудио кодек: FLAC
Тип рипа: tracks+.cue
Битрейт аудио: lossless
Продолжительность: 65:45
Трэклист:
Symphony No. 10 in E minor , opus 93
1. Moderato
2. Allegro
3. Allegretto
4. Andante - Allegro
The Gadfly Suite, opus 97
5. Overture
6. Romance (Violin Soloist Jonathan Carney)
7. Scene
The Royal Philharmonic Orchestra
Patron: Her Majesty Queen Elizabeth The Queen Mother
President/Associate Conductor: The Lord Menuhin OM KBE
Music Director: Vladimir Ashkenazy
Violins I: Jonathan Carney (Leader), Richard Layton, Russell Gilbert, Kevin Duffy, Charles Nolan, Julian Cummings, Anthony Protheroe, Charles Beldom, Geoffrey Palmer, Carolyn Franks, Brian Thomas, Kate Smith, Gordon McKay, Ian Humphries
Violins II: Alain Petitclerc, Gil White, Peter Nutting, David Herd, Guy Webb, Colin Huber, Denise Merlin, Gillian Cohen, Jonathan Hill, David Ellis, Douglas Mackie, Ingrid Sellschop
Violas: Andrew Williams, David Newland, Mary Samuel, Robin Del Mar, Timothy Welch, Peter Sermon, Donald Thompson, Martin Chivers, Harry Jones, Peter Stevens
Cellos: Francois Rive, Tamsy Kaner, Nigel Pinkett, Peter Vel, Christopher Irby, Lawrence Cromwell, William Heggart, Eldon Fox
Double Basses: Jack McCormack, Roy Benson, Peter Hetherington, Gareth Wood, Neil Watson, Albert Dennis
Flutes: Margaret Campbell, Julian Coward, Philip Rowson
Oboes: Leila Ward, Susan Smith, Michael Winfield
Clarinets: Prudence Whittaker, Douglas Mitchell, Barnaby Prangnell
Bassoons: Michael Chapman, Alan Hammond, Rebecca Menday
Horns: Jeffrey Bryant, James Warburton, Peter Blake, Simon Rayner, Richard Ashton
Trumpets: Paul Ringham, Gerry Ruddock, Paul Archibald, Dave Archer
Trombones: Derek James, John Sibley
Tuba: Chris McShane
Timpani: Michael Baker
Percussion: Stephen Quigley, Martin Owens, Peter Chrippes, Gerald Kirby
Conductor: Frank Shipway
DDD / 32 Bit Digital Sound / High Quality Audiofile Edition
Отчёт EAC
Exact Audio Copy V0.99 prebeta 4 from 23. January 2008
EAC extraction logfile from 9. August 2008, 12:21
Shostakovich / Symphony No 10, The Gadfly Suite
Used drive : PLEXTOR DVDR PX-760A Adapter: 4 ID: 0
Read mode : Secure
Utilize accurate stream : Yes
Defeat audio cache : Yes
Make use of C2 pointers : No
Read offset correction : 30
Overread into Lead-In and Lead-Out : Yes
Fill up missing offset samples with silence : Yes
Delete leading and trailing silent blocks : No
Null samples used in CRC calculations : Yes
Used interface : Native Win32 interface for Win NT & 2000
Gap handling : Appended to previous track
Used output format : User Defined Encoder
Selected bitrate : 128 kBit/s
Quality : High
Add ID3 tag : No
Command line compressor : C:\Program Files\FLAC\flac.exe
Additional command line options : -8 -V -T "ARTIST=%a" -T "TITLE=%t" -T "ALBUM=%g" -T "DATE=%y" -T "TRACKNUMBER=%n" -T "GENRE=%m" -T "COMMENT=EAC FLAC -8" %s
TOC of the extracted CD
Track | Start | Length | Start sector | End sector
---------------------------------------------------------
1 | 0:00.32 | 23:29.00 | 32 | 105706
2 | 23:29.32 | 4:08.00 | 105707 | 124306
3 | 27:37.32 | 11:36.00 | 124307 | 176506
4 | 39:13.32 | 13:55.00 | 176507 | 239131
5 | 53:08.32 | 3:03.00 | 239132 | 252856
6 | 56:11.32 | 7:16.00 | 252857 | 285556
7 | 63:27.32 | 2:18.00 | 285557 | 295906
Track 1
Filename H:\Shostakovich - Symphony No 10, The Gadfly Suite (1993) [FLAC]\01 - Symphony No 10,1 - Moderato.wav
Pre-gap length 0:00:02.32
Peak level 96.8 %
Track quality 100.0 %
Test CRC 00C538EE
Copy CRC 00C538EE
Track not present in AccurateRip database
Copy OK
Track 2
Filename H:\Shostakovich - Symphony No 10, The Gadfly Suite (1993) [FLAC]\02 - Symphony No 10,2 - Allegro.wav
Peak level 100.0 %
Track quality 100.0 %
Test CRC 8DC91B37
Copy CRC 8DC91B37
Track not present in AccurateRip database
Copy OK
Track 3
Filename H:\Shostakovich - Symphony No 10, The Gadfly Suite (1993) [FLAC]\03 - Symphony No 10,3 - Allegretto.wav
Peak level 94.9 %
Track quality 99.9 %
Test CRC FB686F08
Copy CRC FB686F08
Track not present in AccurateRip database
Copy OK
Track 4
Filename H:\Shostakovich - Symphony No 10, The Gadfly Suite (1993) [FLAC]\04 - Symphony No 10,4 - Andante, Allegro.wav
Peak level 99.6 %
Track quality 100.0 %
Test CRC 43E15E26
Copy CRC 43E15E26
Track not present in AccurateRip database
Copy OK
Track 5
Filename H:\Shostakovich - Symphony No 10, The Gadfly Suite (1993) [FLAC]\05 - The Gadfly Suite, 1 - Overture.wav
Pre-gap length 0:00:08.00
Peak level 94.7 %
Track quality 100.0 %
Test CRC 9B78BA6A
Copy CRC 9B78BA6A
Track not present in AccurateRip database
Copy OK
Track 6
Filename H:\Shostakovich - Symphony No 10, The Gadfly Suite (1993) [FLAC]\06 - The Gadfly Suite, 2 - Romance.wav
Peak level 94.7 %
Track quality 99.9 %
Test CRC 6F666E3E
Copy CRC 6F666E3E
Track not present in AccurateRip database
Copy OK
Track 7
Filename H:\Shostakovich - Symphony No 10, The Gadfly Suite (1993) [FLAC]\07 - The Gadfly Suite, 3 - Scene.wav
Peak level 81.4 %
Track quality 100.0 %
Test CRC 46FE4535
Copy CRC 46FE4535
Track not present in AccurateRip database
Copy OK
None of the tracks are present in the AccurateRip database
No errors occurred
End of status report
Рип оригинального диска. Сканы прилагаются.
Мои раздачи на трекере
Этническая музыка Индии (lossy и lossless)
Pandit Pran Nath - Ragas of Morning & Night (Ragas Todi & Darbari)
Вокальное и Хоровое искусства (lossless)
Jah Wobble - Requiem
Mozart - Requiem/Реквием (Dr. Stefan Klimo, Zdenek Kosler), Exultate, jubilate (Klaus Donath); Beethoven - Mass C-dur (Anton Nanut)
Оркестровая (lossless)
Joseph Haydn - Wiedenski klasyk - Trumpet Concerto (Alberto Lizzio) / Symphony No. 94 (Alfred Scholz)/ The Quartet No. 62 (Caspar da Salo)
Камерная и Инструментальная (lossless)
Jean Barraque - Sonate pour piano (Herbert Henck)
Зарубежный Джаз (lossless)
Gilbert Isbin, Jeff Gauthier, Scott Walton - Venice Suite
Mosalini/Agri Quintet - Mosalini/Agri Quintet
Jean-Marc Padovani - Chants du Monde
Earl Howard - Clepton
Elton Dean - Three's Company Two's a Crowd
Glenn Spearman & Dominic Duval - Working With The Elements
Fred Anderson - Staying in the Game
Simon Nabatov, Han Bennink - Chat Room
The Fonda/Stevens Group - Forever Real
Dominic Duval Quintet - Cries and Whispers
George Lewis - Homage to Charles Parker
Marco Benevento - Invisible Baby
Matt Darriau Paradox Trio with Theodosii Spassov - Gambit
Enders Room - Random Guru (Johannes Enders)
Mike Stern - Between the Lines
Jon Eberson - Stash
Sun Ra and His Astro-Infinity Arkestra - Sound Sun Pleasure!!
Kenny Wheeler - Gnu High
Orquesta De Las Nubes - Me Paro Cuando Suena
Orquesta De Las Nubes - El Orden Del Azar
Jazzonia - Little Boy Don't Get Scared
VA - Warsaw Summer Jazz Days 2001 - Nastroj i zgraj zmysly
bILL fRISELL music for the films of bUSTER kEATON Go West
Fred Frith - Speechless
Jonas Hellborg - Adfa (featuring Trilok Gurtu)
Keith Jarrett - Belonging (w. Jan Garbarek)
Jan Garbarek-Bobo Stenson Quartet - Dansere
Jan Garbarek - Places
Shakti with John McLaughlin - Natural Elements (Japan release)
Shakti with John McLaughlin - A Handful of Beauty (Japan release)
Jaco Pastorius - Golden Roads
Mel Lewis and The Jazz Orchestra / Bob Brookmeyer - Live At The Village Vanguard
David Liebman and Richard Beirach - Chant
Louis Sclavis / Dominique Pifarely - Acoustic Quartet
Herbie Hancock - Future 2 Future (Japan bonus track)
Joachim Kühn with Daniel Humair and J. F. Jenny-Clark - Easy to Read
Joachim Kuhn, Mark Nauseef, Tony Newton, Miroslav Tadic - Let's Be Generous
George E. Lewis - Voyager
Christian Muthspiel, Gary Peacock, Wolfgang Muthspiel, Paul Motian
Oregon - Roots in the Sky
Oregon - Winter Light
Nana Vasconcelos, Steve Gorn, Badal Roy, Mike Richmond - Asian Journal
Charles Lloyd / Billy Higgins - Which Way Is East (2 CD)
Jamaaladeen Tacuma - Jukebox
Jamaaladeen Tacuma - Show Stopper
Jamaaladeen Tacuma - Renaissance Man
Edward Vesala Sound & Fury - Nordic Gallery
Original Silence - The Second Original Silence (Mats Gustafsson)
Eartha Kitt - Thinking Jazz
Steven Bernstein - Diaspora Hollywood
Moscow Composers Orchestra - Kings and Cabbages
John Zorn - Filmworks XXIII- el General
Зарубежная музыка других жанров (Lossless)
Trio Mocoto - Samba Rock
Avant-garde, Experimental Metal (lossless)
Praxis - Tennessee 2004
Azonic - Halo (Bill Laswell, Andy Hawkins)
Chillout, Lounge, Downtempo (Lossless)
Transglobal Underground - Interplanetary Meltdown
Reggae, Dancehall, Dub (lossless)
Black Uhuru - Ultimate Collection
Black Uhuru - Now Dub
VA - Axiom Dub: Mysteries of Creation (Bill Laswell)
Indie, Post-Rock & Post-Punk (lossless)
Jah Wobble - The Legend Lives On...Jah Wobbles in ''Betrayal"
Progressive & Art-Rock (lossless)
The Golden Palominos - A Dead Horse
Западноевропейский фолк (lossless)
Lena Willemark & Ale Möller - Nordan
Джаз и Блюз (DVD Video)
Bugge Wesseltoft & Laurent Garnier - Jazz a Vienne
Dave Liebman - Sketches of Spain
Michel Portal - Jazz à Vienne
Джаз и Блюз (Видео)
Louis Sclavis Quintet "Lost On the Way" - Europa Jazz Festival
Арт-хаус и авторское кино (DVD, HD Video)
Коротко и со вкусом II - Ты и я / Kurz und gut II - Du und Ich
Коротко и со вкусом II - Близко и далеко / Kurz und gut II - Nach und fern
Коротко и со вкусом II - Стар и млад / Kurz und Gut II - Jung und Alt
Коротко и со вкусом II - Уйти или остаться / Kurz und gut II - Abhaun oder dableiben
                                                                                       
                       
                       
                       
                       
                       
                                磁力下载(论坛代下载服务)::
                                                               
                                       
付费主题

已有0人支付


                                               
  • 285.6 MB
  • 温馨提示

    记得善用社区搜索功能,那里可能会有你想要的资源;论坛站内搜索

    如果你有什么需要的资源可以去资源求档发帖,求助社区的网友,我们会在第一时间给你回复哦;资源求档

    对于本社区网盘链接失效密码错误各种报错请在反馈板块反馈报错发帖,您的支持,是我们发展的最大动力;投诉建议

    回复

    使用道具 举报

    您需要登录后才可以回帖 登录 | 立即注册 微信登录

    本版积分规则

    关注0

    粉丝16

    帖子70967

    发布主题
    阅读排行更多+
    关闭

    站长推荐上一条 /1 下一条

    活动提示

    赞助永久VIP会员送3T硬盘一块 限时活动

    地址:立刻参加

    我知道了
    收藏帖子 返回列表 这是一个自定义按钮
    音乐分享,音乐下载。
    微信公众号
    微信号:hires_
    意见反馈:admin@maomicd.com

    加入我们的官方QQ群和微信群

    Powered by Discuz! X3.4 Archiver|手机版|小黑屋|捌零音乐论坛 ( 苏ICP备20015413号 )|( 苏公网安备 32030502000272号) 繁體

    GMT+8, 2021-9-21 12:13