[古典] (Classical, symphony) Antonio Salieri - Symphonies, Overtures & Variations - London Mozart Players, Matthias Bamert - 2001, FLAC (image+.cue) lossless

[复制链接]
全球采集 发表于 2021-9-10 16:56:56 | 显示全部楼层 |阅读模式 打印 上一主题 下一主题
Antonio Salieri - Symphonies, Overtures & Variations - London Mozart Players, Matthias Bamert
Жанр: Classical, symphony
Страна-производитель диска: UK
Год издания диска: 2001
Издатель (лейбл): Chandos Records
Номер по каталогу: CHAN 9877
Дата записи: 2000
Аудиокодек: FLAC
Тип рипа: image+.cue
Битрейт аудио: lossless
Продолжительность: 65:41
Источник: собственный рип
Наличие сканов в содержимом раздачи: да
Треклист:
Antonio Salieri (1750–1825)
[1] Overture to 'Cublai, gran kan de' Tartari' in D major
[2] 26 Variations on 'La folia di Spagna'
[3] Overture to 'Angiolina, ossia Il matrimonio per sussuro' in D major
[4]-[6] Sinfonia Veneziana in D major
[7]-[9] Overture to 'La locandiera' in D major
[10]-[13] Sinfonia 'Il giorno onomastico' in D major
[14] Overture to 'Falstaff, ossia Le tre burle' in D major
Исполнители:
London Mozart Players
Matthias Bamert
Лог создания рипа

Exact Audio Copy V1.0 beta 3 from 29. August 2011
EAC extraction logfile from 9. December 2011, 15:33
London Mozart Players, Matthias Bamert / Salieri - Symphonies, Overtures & Variations
Used drive  : Optiarc DVD+-RW AD-5170S   Adapter: 1  ID: 2
Read mode               : Secure
Utilize accurate stream : Yes
Defeat audio cache      : Yes
Make use of C2 pointers : No
Read offset correction                      : 48
Overread into Lead-In and Lead-Out          : No
Fill up missing offset samples with silence : Yes
Delete leading and trailing silent blocks   : No
Null samples used in CRC calculations       : Yes
Used interface                              : Native Win32 interface for Win NT & 2000
Used output format              : User Defined Encoder
Selected bitrate                : 896 kBit/s
Quality                         : High
Add ID3 tag                     : Yes
Command line compressor         : C:\Program Files\Exact Audio Copy\Flac\flac.exe
Additional command line options : -V -8 %source%
TOC of the extracted CD
     Track |   Start  |  Length  | Start sector | End sector
    ---------------------------------------------------------
        1  |  0:00.00 |  3:52.00 |         0    |    17399
        2  |  3:52.00 | 17:55.00 |     17400    |    98024
        3  | 21:47.00 |  3:56.00 |     98025    |   115724
        4  | 25:43.00 |  4:02.00 |    115725    |   133874
        5  | 29:45.00 |  3:30.17 |    133875    |   149641
        6  | 33:15.17 |  2:32.58 |    149642    |   161099
        7  | 35:48.00 |  3:47.20 |    161100    |   178144
        8  | 39:35.20 |  2:09.52 |    178145    |   187871
        9  | 41:44.72 |  1:36.03 |    187872    |   195074
       10  | 43:21.00 |  4:19.00 |    195075    |   214499
       11  | 47:40.00 |  5:21.00 |    214500    |   238574
       12  | 53:01.00 |  2:41.00 |    238575    |   250649
       13  | 55:42.00 |  5:41.00 |    250650    |   276224
       14  | 61:23.00 |  4:18.25 |    276225    |   295599
Range status and errors
Selected range
     Filename D:\temp\pics\Salieri - Symphonies, Overtures & Variations\Salieri - Symphonies, Overtures & Variations.wav
     Peak level 98.4 %
     Extraction speed 5.5 X
     Range quality 100.0 %
     Test CRC AC4F76D1
     Copy CRC AC4F76D1
     Copy OK
No errors occurred
End of status report
==== Log checksum C0AF9245515A84C49199B0B0CA6687A4F88F9A8855E9E74DD6C1EF912031A0F9 ====

                                                                                       
                       
                       
                       
                       
                       
                                磁力下载(论坛代下载服务)::
                                                               
                                       
付费主题

已有0人支付


                                               
  • 269.1 MB
  • 温馨提示

    记得善用社区搜索功能,那里可能会有你想要的资源;论坛站内搜索

    如果你有什么需要的资源可以去资源求档发帖,求助社区的网友,我们会在第一时间给你回复哦;资源求档

    对于本社区网盘链接失效密码错误各种报错请在反馈板块反馈报错发帖,您的支持,是我们发展的最大动力;投诉建议

    回复

    使用道具 举报

    您需要登录后才可以回帖 登录 | 立即注册 微信登录

    本版积分规则

    关注0

    粉丝19

    帖子88104

    发布主题
    阅读排行更多+
    关闭

    站长推荐上一条 /1 下一条

    活动提示

    赞助永久VIP会员送3T硬盘一块 限时活动

    地址:立刻参加

    我知道了
    收藏帖子 返回列表 这是一个自定义按钮
    音乐分享,音乐下载。
    微信公众号
    微信号:hires_
    意见反馈:admin@maomicd.com

    加入我们的官方QQ群和微信群

    Powered by Discuz! X3.4 Archiver|手机版|小黑屋|捌零音乐论坛 ( 苏ICP备20015413号 )|( 苏公网安备 32030502000272号) 繁體

    GMT+8, 2021-9-25 06:22