[古典] (Classical symphonie) [CD] Berlioz - Symphonie fantastique Op. 14, H. 48 & Les Francs-Juges, Op. 3, H. 23 (Francois-Xavier Roth, Les Siecles) - 2019, FLAC (image+.cue) loss

[复制链接]
全球搬运 发表于 2021-9-10 16:56:56 | 显示全部楼层 |阅读模式 打印 上一主题 下一主题
Berlioz: Symphonie Fantastique [Les Siècles]
Жанр: Classical symphonie
Носитель: CD
Страна-производитель диска: Made in the EU
Год издания диска: 2019
Издатель (лейбл): Harmonia Mundi ‎
Номер по каталогу: HMM 902644
Дата записи: 2019
Аудиокодек: FLAC
Тип рипа: image+.cue
Битрейт аудио: lossless
Продолжительность: 01:05:45
Источник: релизер
сайт-источник/ник/другое: Bodtje, подарок; Caterina Sforza - доп. сканы
Наличие сканов в содержимом раздачи: да
Треклист:
Symphonie Fantastique, Op. 14, H. 48
1 I. Reveries - Passions
2 II. Un bal
3 III. Scene aux champs
4 IV. Marche au supplice
5 V. Songe d'une nuit de sabbat
6 Les Francs-Juges, Ouverture Op 3, H. 23
Исполнители

Hector Berlioz (1803-1869)
Symphonie fantastique Op. 14, H. 48
"Les Francs-Juges", Ouverture Op. 3, H. 23
Les Siècles
François-Xavier Roth, dir.
Recording Date: July 16, 2019 & July 17, 2019
Recording Location: Maison de l'Orchestre national d'île-de-France, Alfortville (France)
Release Date: October 25, 2019
Дата релиза: 22 Nov 2019


Лог создания рипа

Exact Audio Copy V1.6 from 23. October 2020
EAC extraction logfile from 2. May 2021, 13:35
François-Xavier Roth / Symphonie Fantastique
Used drive  : HL-DT-STDVDRAM GH24NSD5   Adapter: 1  ID: 0
Read mode               : Secure
Utilize accurate stream : Yes
Defeat audio cache      : Yes
Make use of C2 pointers : No
Read offset correction                      : 6
Overread into Lead-In and Lead-Out          : No
Fill up missing offset samples with silence : Yes
Delete leading and trailing silent blocks   : No
Null samples used in CRC calculations       : Yes
Used interface                              : Native Win32 interface for Win NT & 2000
Used output format              : User Defined Encoder
Selected bitrate                : 1024 kBit/s
Quality                         : High
Add ID3 tag                     : No
Command line compressor         : C:\Program Files (x86)\Exact Audio Copy\FLAC\FLAC.EXE
Additional command line options : -6 -V -T "ARTIST=%artist%" -T "TITLE=%title%" -T "ALBUM=%albumtitle%" -T "DATE=%year%" -T "TRACKNUMBER=%tracknr%" -T "GENRE=%genre%" -T "COMMENT=%comment%" -T "BAND=%albuminterpret%" -T "ALBUMARTIST=%albuminterpret%" -T "COMPOSER=%composer%" %haslyrics%--tag-from-file=LYRICS="%lyricsfile%"%haslyrics% -T "DISCNUMBER=%cdnumber%" -T "TOTALDISCS=%totalcds%" -T "TOTALTRACKS=%numtracks%" %hascover%--picture="%coverfile%"%hascover% %source% -o %dest%
TOC of the extracted CD
     Track |   Start  |  Length  | Start sector | End sector
    ---------------------------------------------------------
        1  |  0:00.00 | 14:27.45 |         0    |    65069
        2  | 14:27.45 |  6:07.50 |     65070    |    92644
        3  | 20:35.20 | 15:32.02 |     92645    |   162546
        4  | 36:07.22 |  6:49.45 |    162547    |   193266
        5  | 42:56.67 | 10:38.20 |    193267    |   241136
        6  | 53:35.12 | 12:12.33 |    241137    |   296069
Range status and errors
Selected range
     Filename I:\Rips\Berlioz - Symphonie Fantastique - Roth\François-Xavier Roth - Symphonie Fantastique.wav
     Peak level 100.0 %
     Extraction speed 7.5 X
     Range quality 100.0 %
     Test CRC 9A99F63D
     Copy CRC 9A99F63D
     Copy OK
No errors occurred
AccurateRip summary
Track  1  accurately ripped (confidence 16)  [BAEDF982]  (AR v2)
Track  2  accurately ripped (confidence 16)  [ECE8590A]  (AR v2)
Track  3  accurately ripped (confidence 16)  [C0C5534F]  (AR v2)
Track  4  accurately ripped (confidence 16)  [6B0B7E8C]  (AR v2)
Track  5  accurately ripped (confidence 16)  [3F37A2B7]  (AR v2)
Track  6  accurately ripped (confidence 15)  [8CB4C3ED]  (AR v2)
All tracks accurately ripped
End of status report
---- CUETools DB Plugin V2.1.6
[CTDB TOCID: Sq9epb58LeOG4I.n3hNzIXvdww4-] found
Submit result: Sq9epb58LeOG4I.n3hNzIXvdww4- has been confirmed
Track | CTDB Status
  1   | (60/60) Accurately ripped
  2   | (60/60) Accurately ripped
  3   | (60/60) Accurately ripped
  4   | (60/60) Accurately ripped
  5   | (60/60) Accurately ripped
  6   | (56/60) Accurately ripped, or (2/60) differs in 1295 samples @12:12:21-12:12:23
==== Log checksum 696598E28BFD1F6F62760F9E72705D53F0DB3A10981765D78EF50E55BC0C280E ====


Содержание индексной карты (.CUE)

REM GENRE Classical
REM DATE 2019
REM DISCID 5B0F6B06
REM COMMENT "ExactAudioCopy v1.6"
PERFORMER "Les Siècles, François-Xavier Roth (dir.)"
TITLE "Berlioz: Symphonie fantastique"
REM COMPOSER "Hector Berlioz (1803-1869)"
FILE "Berlioz - Symphonie fantastique (Les Siècles, François-Xavier Roth).flac" WAVE
  TRACK 01 AUDIO
    TITLE "Symphonie fantastique: Épisode de la vie d'un artiste … en cinq parties, Op. 14, H. 48 in C major: 1. Reveries - Passions"
    PERFORMER "Les Siècles, François-Xavier Roth"
    REM COMPOSER "Hector Berlioz"
    INDEX 01 00:00:00
  TRACK 02 AUDIO
    TITLE "Symphonie fantastique: 2. Un bal"
    PERFORMER "Les Siècles, François-Xavier Roth"
    REM COMPOSER "Hector Berlioz"
    INDEX 01 14:27:45
  TRACK 03 AUDIO
    TITLE "Symphonie fantastique: 3. Scène aux champs"
    PERFORMER "Les Siècles, François-Xavier Roth"
    REM COMPOSER "Hector Berlioz"
    INDEX 01 20:35:20
  TRACK 04 AUDIO
    TITLE "Symphonie fantastique: 4. Marche au supplice"
    PERFORMER "Les Siècles, François-Xavier Roth"
    REM COMPOSER "Hector Berlioz"
    INDEX 01 36:07:22
  TRACK 05 AUDIO
    TITLE "Symphonie fantastique: 5. Songe d'une nuit de sabbat"
    PERFORMER "Les Siècles, François-Xavier Roth"
    REM COMPOSER "Hector Berlioz"
    INDEX 01 42:56:67
  TRACK 06 AUDIO
    TITLE "Les Francs-Juges, Op. 3, H. 23"
    PERFORMER "Les Siècles, François-Xavier Roth"
    REM COMPOSER "Hector Berlioz"
    INDEX 00 53:25:54
    INDEX 01 53:35:12


Review

AllMusic Review by Blair Sanderson  [-]
The large collection of antique instruments at Les Siècles' command makes its recordings more than just speculative period exercises, but something approaching musical time travel. Led since 2003 by its founder, François-Xavier Roth, this singular French orchestra has given thrilling historically-informed recreations of the repertoire of the 18th, 19th, and early 20th centuries on vintage instruments that were available to the musicians of the time, crafted by hand, and possessing the unique sonorities and tunings of different regions. For this 2019 album from Harmonia Mundi, Roth and his musicians play Hector Berlioz's hallucinatory Symphonie fantastique and the dramatic overture Les Francs-Juges with marvelous orchestral colors and a striking textural clarity that almost makes their distinctive characteristics seem especially highlighted. However, this recording isn't meant to be a sonic showcase for audiophiles, because the drama, musicality, and visceral excitement of the performances soon override the novelty of instrumentation, and the overall effect of the presentation is a startling reassessment and a refreshing change from the weightier Berlioz of a Thomas Beecham or a Colin Davis. No one could write for brass more blazingly than Berlioz, and his skillful handling of the woodwinds is even more apparent when heard with early Romantic timbres. The ultimate pleasure of this disc, though, is found in the cohesion, agility, and passion of the group's playing, and Roth's confident leadership comes through in his precision and alert attention to details. Highly recommended.

Вместо:
https://rutracker.org/forum/https://rutracker.net/forum/viewtopic.php?t=5875569                                                                                       
                       
                       
                       
                       
                       
                                磁力下载(论坛代下载服务)::
                                                               
                                       
付费主题

已有0人支付


                                               
  • 316 MB
  • 温馨提示

    记得善用社区搜索功能,那里可能会有你想要的资源;论坛站内搜索

    如果你有什么需要的资源可以去资源求档发帖,求助社区的网友,我们会在第一时间给你回复哦;资源求档

    对于本社区网盘链接失效密码错误各种报错请在反馈板块反馈报错发帖,您的支持,是我们发展的最大动力;投诉建议

    回复

    使用道具 举报

    您需要登录后才可以回帖 登录 | 立即注册 微信登录

    本版积分规则

    关注0

    粉丝16

    帖子70967

    发布主题
    阅读排行更多+
    关闭

    站长推荐上一条 /1 下一条

    活动提示

    赞助永久VIP会员送3T硬盘一块 限时活动

    地址:立刻参加

    我知道了
    收藏帖子 返回列表 这是一个自定义按钮
    音乐分享,音乐下载。
    微信公众号
    微信号:hires_
    意见反馈:admin@maomicd.com

    加入我们的官方QQ群和微信群

    Powered by Discuz! X3.4 Archiver|手机版|小黑屋|捌零音乐论坛 ( 苏ICP备20015413号 )|( 苏公网安备 32030502000272号) 繁體

    GMT+8, 2021-9-22 23:18