[古典] (Orchestral, Avant-garde) Xenakis - Orchestral Works Vol. I - Arturo Tamayo, O.P. de Luxembourg, etc - 2000, FLAC (image+.cue) lossless

[复制链接]
tikus75 发表于 2021-9-10 16:56:56 | 显示全部楼层 |阅读模式 打印 上一主题 下一主题
Xenakis - Orchestral Works Vol. I - Arturo Tamayo, O.P. de Luxembourg, etc
Жанр: Orchestral, Avant-garde
Страна-производитель диска: Франциа
Год издания диска: 2000
Издатель (лейбл): Timpani
Дата записи: 2000
Аудиокодек: FLAC
Тип рипа: image+.cue
Битрейт аудио: lossless
Продолжительность: 59m 4s
Источник: собственный рип
Наличие сканов в содержимом раздачи: да
Треклист:
[1] Aïs
[2] Tracées
[3] Empreintes
[4] Noomena
[5] Roáï
Исполнители:
[1]-[5] Arturo Tamayo, Orchestre Philharmonique du Luxembourg
[1] Spyros Sakkas, baritone
[1] Béatrice Daudin, percussion
Лог создания рипа

Exact Audio Copy V1.0 beta 3 from 29. August 2011
EAC extraction logfile from 26. April 2014, 15:05
Iannis Xenakis / Orchestral Works - Vol. I
Used drive  : HL-DT-STDVD+-RW GT80N   Adapter: 0  ID: 1
Read mode               : Secure
Utilize accurate stream : Yes
Defeat audio cache      : Yes
Make use of C2 pointers : No
Read offset correction                      : 102
Overread into Lead-In and Lead-Out          : No
Fill up missing offset samples with silence : Yes
Delete leading and trailing silent blocks   : No
Null samples used in CRC calculations       : Yes
Used interface                              : Native Win32 interface for Win NT & 2000
Used output format              : User Defined Encoder
Selected bitrate                : 768 kBit/s
Quality                         : High
Add ID3 tag                     : No
Command line compressor         : E:\Exact Audio Copy\FLAC\FLAC.EXE
Additional command line options : -6 -V -T "ARTIST=%artist%" -T "TITLE=%title%" -T "ALBUM=%albumtitle%" -T "DATE=%year%" -T "TRACKNUMBER=%tracknr%" -T "GENRE=%genre%" -T "COMMENT=%comment%" -T "BAND=%albuminterpret%" -T "ALBUMARTIST=%albuminterpret%" -T "COMPOSER=%composer%" %haslyrics%--tag-from-file=LYRICS="%lyricsfile%"%haslyrics% -T "DISCNUMBER=%cdnumber%" -T "TOTALDISCS=%totalcds%" -T "TOTALTRACKS=%numtracks%" %hascover%--picture="%coverfile%"%hascover% %source% -o %dest%
TOC of the extracted CD
     Track |   Start  |  Length  | Start sector | End sector
    ---------------------------------------------------------
        1  |  0:00.32 | 17:40.10 |        32    |    79541
        2  | 17:40.42 |  5:22.10 |     79542    |   103701
        3  | 23:02.52 | 10:39.60 |    103702    |   151686
        4  | 33:42.37 | 12:45.33 |    151687    |   209094
        5  | 46:27.70 | 12:36.62 |    209095    |   265856
Range status and errors
Selected range
     Filename E:\Xenakis - Vol 1\Iannis Xenakis - Orchestral Works - Vol. I.wav
     Peak level 100.0 %
     Extraction speed 6.8 X
     Range quality 99.9 %
     Copy CRC 3C11E610
     Copy OK
No errors occurred
AccurateRip summary
Track  1  accurately ripped (confidence 7)  [D96B34C4]  (AR v2)
Track  2  accurately ripped (confidence 6)  [DE4D19DF]  (AR v2)
Track  3  accurately ripped (confidence 6)  [9FE00412]  (AR v2)
Track  4  accurately ripped (confidence 6)  [02D64895]  (AR v2)
Track  5  accurately ripped (confidence 5)  [F9F0E31D]  (AR v2)
All tracks accurately ripped
End of status report


Содержание индексной карты (.CUE)

REM GENRE Avant-Garde
REM DATE 2000
REM DISCID 3D0DD805
REM COMMENT "ExactAudioCopy v1.0b3"
PERFORMER "Iannis Xenakis"
TITLE "Orchestral Works - Vol. I"
FILE "Iannis Xenakis - Orchestral Works - Vol. I.flac" WAVE
  TRACK 01 AUDIO
    TITLE "AÔs (1980)"
    PERFORMER "Iannis Xenakis"
    INDEX 00 00:00:00
    INDEX 01 00:00:32
  TRACK 02 AUDIO
    TITLE "TracÈes (1987)"
    PERFORMER "Iannis Xenakis"
    INDEX 01 17:40:42
  TRACK 03 AUDIO
    TITLE "Empreintes (1975)"
    PERFORMER "Iannis Xenakis"
    INDEX 00 22:52:05
    INDEX 01 23:02:52
  TRACK 04 AUDIO
    TITLE "Noomena (1974)"
    PERFORMER "Iannis Xenakis"
    INDEX 01 33:42:37
  TRACK 05 AUDIO
    TITLE "Ro·Ô (1991)"
    PERFORMER "Iannis Xenakis"
    INDEX 00 46:16:08
    INDEX 01 46:27:70

Доп. информация: Сканы в английский единственно.
Все тома:
Vol. II
Vol. III
Vol. IV
Vol. V                                                                                       
                       
                       
                       
                       
                       
                                磁力下载(论坛代下载服务)::
                                                               
                                       
付费主题

已有0人支付


                                               
  • 306.4 MB
  • 温馨提示

    记得善用社区搜索功能,那里可能会有你想要的资源;论坛站内搜索

    如果你有什么需要的资源可以去资源求档发帖,求助社区的网友,我们会在第一时间给你回复哦;资源求档

    对于本社区网盘链接失效密码错误各种报错请在反馈板块反馈报错发帖,您的支持,是我们发展的最大动力;投诉建议

    回复

    使用道具 举报

    您需要登录后才可以回帖 登录 | 立即注册 微信登录

    本版积分规则

    关注0

    粉丝1

    帖子31072

    发布主题
    阅读排行更多+
    关闭

    站长推荐上一条 /1 下一条

    活动提示

    赞助永久VIP会员送3T硬盘一块 限时活动

    地址:立刻参加

    我知道了
    收藏帖子 返回列表 这是一个自定义按钮
    音乐分享,音乐下载。
    微信公众号
    微信号:hires_
    意见反馈:admin@maomicd.com

    加入我们的官方QQ群和微信群

    Powered by Discuz! X3.4 Archiver|手机版|小黑屋|捌零音乐论坛 ( 苏ICP备20015413号 )|( 苏公网安备 32030502000272号) 繁體

    GMT+8, 2021-9-24 05:48