[古典] (Classical) Berlioz - Symphonie Fantastique (Scottish Chamber Orchestra, Robin Ticciati) - 2012, FLAC (image+.cue) lossless

[复制链接]
10086 发表于 2021-9-10 16:56:56 | 显示全部楼层 |阅读模式 打印 上一主题 下一主题
Berlioz - Symphonie Fantastique (Scottish Chamber Orchestra, Robin Ticciati)
Жанр: Classical
Год издания диска: 2012
Издатель (лейбл): Linn Records
Дата записи: 2011
Аудиокодек: FLAC
Тип рипа: image+.cue
Битрейт аудио: lossless
Продолжительность: 63:12
Источник: собственный рип
Наличие сканов в содержимом раздачи: да
Треклист:
Symphonie Fantastique
- I. Reveries - Passions
- II. Un bal
- III. Scene aux champs
- IV. Marche au supplice
- V. Songe d'une nuit de sabbat
Ouverture: Beatrice et Benedict
Исполнители:
Scottish Chamber Orchestra
Robin Ticciati, conductor
Лог создания рипа

Exact Audio Copy V1.0 beta 3 from 29. August 2011
EAC extraction logfile from 23. May 2012, 21:42
Robin Ticciati, Scottish Chamber Orchestra / Berlioz. Symphonie Fantastique
Used drive  : Optiarc DVD RW AD-7260S   Adapter: 2  ID: 0
Read mode               : Secure
Utilize accurate stream : Yes
Defeat audio cache      : Yes
Make use of C2 pointers : No
Read offset correction                      : 48
Overread into Lead-In and Lead-Out          : No
Fill up missing offset samples with silence : Yes
Delete leading and trailing silent blocks   : No
Null samples used in CRC calculations       : Yes
Used interface                              : Native Win32 interface for Win NT & 2000
Used output format              : User Defined Encoder
Selected bitrate                : 768 kBit/s
Quality                         : High
Add ID3 tag                     : No
Command line compressor         : C:\Program Files (x86)\Exact Audio Copy\FLAC\FLAC.EXE
Additional command line options : -6 -V -T "ARTIST=%artist%" -T "TITLE=%title%" -T "ALBUM=%albumtitle%" -T "DATE=%year%" -T "TRACKNUMBER=%tracknr%" -T "GENRE=%genre%" -T "COMMENT=%comment%" -T "BAND=%albuminterpret%" -T "ALBUMARTIST=%albuminterpret%" -T "COMPOSER=%composer%" %haslyrics%--tag-from-file=LYRICS="%lyricsfile%"%haslyrics% -T "DISCNUMBER=%cdnumber%" -T "TOTALDISCS=%totalcds%" -T "TOTALTRACKS=%numtracks%" %hascover%--picture="%coverfile%"%hascover% %source% -o %dest%
TOC of the extracted CD
     Track |   Start  |  Length  | Start sector | End sector
    ---------------------------------------------------------
        1  |  0:00.00 | 15:12.28 |         0    |    68427
        2  | 15:12.28 |  6:20.41 |     68428    |    96968
        3  | 21:32.69 | 16:17.14 |     96969    |   170257
        4  | 37:50.08 |  6:35.49 |    170258    |   199931
        5  | 44:25.57 | 10:30.11 |    199932    |   247192
        6  | 54:55.68 |  8:14.13 |    247193    |   284255
Range status and errors
Selected range
     Filename D:\Berlioz. Symphonie Fantastique. Robin Ticciati.wav
     Peak level 95.1 %
     Extraction speed 4.3 X
     Range quality 100.0 %
     Test CRC 442CFA8C
     Copy CRC 442CFA8C
     Copy OK
No errors occurred
AccurateRip summary
Track  1  not present in database
Track  2  not present in database
Track  3  not present in database
Track  4  not present in database
Track  5  not present in database
Track  6  not present in database
None of the tracks are present in the AccurateRip database
End of status report
---- CUETools DB Plugin V2.1.3
[CTDB TOCID: yptG7bHemLonl6pFGgqoWTIoUZI-] found, Submit result: already submitted
[4f49f253] (1/1) Accurately ripped
==== Log checksum 2176CBC9AAFD5750F034006A16F76797A2FE62DF976CF31C63C471DD0F1785AB ====


Содержание индексной карты (.CUE)

REM GENRE Classical
REM DATE 2012
REM DISCID 570ECE06
REM COMMENT "ExactAudioCopy v1.0b3"
PERFORMER "Robin Ticciati, Scottish Chamber Orchestra"
TITLE "Berlioz. Symphonie Fantastique"
FILE "Berlioz. Symphonie Fantastique. Robin Ticciati.flac" WAVE
  TRACK 01 AUDIO
    TITLE "Symphonie Fantastique, Op. 14 -  I. Reveries - Passions"
    PERFORMER "Robin Ticciati, Scottish Chamber Orchestra"
    INDEX 01 00:00:00
  TRACK 02 AUDIO
    TITLE "Symphonie Fantastique, Op. 14 - II. Un bal"
    PERFORMER "Robin Ticciati, Scottish Chamber Orchestra"
    INDEX 01 15:12:28
  TRACK 03 AUDIO
    TITLE "Symphonie Fantastique, Op. 14 - III. Scene aux champs"
    PERFORMER "Robin Ticciati, Scottish Chamber Orchestra"
    INDEX 01 21:32:69
  TRACK 04 AUDIO
    TITLE "Symphonie Fantastique, Op. 14 - IV. Marche au supplice"
    PERFORMER "Robin Ticciati, Scottish Chamber Orchestra"
    INDEX 01 37:50:08
  TRACK 05 AUDIO
    TITLE "Symphonie Fantastique, Op. 14 - V. Songe d'une nuit de sabbat"
    PERFORMER "Robin Ticciati, Scottish Chamber Orchestra"
    INDEX 01 44:25:57
  TRACK 06 AUDIO
    TITLE "Beatrice et Benedict -  Overture"
    PERFORMER "Robin Ticciati, Scottish Chamber Orchestra"
    INDEX 00 54:47:00
    INDEX 01 54:55:68

                                                                                       
                       
                       
                       
                       
                       
                                磁力下载(论坛代下载服务)::
                                                               
                                       
付费主题

已有0人支付


                                               
  • 229.1 MB
  • 温馨提示

    记得善用社区搜索功能,那里可能会有你想要的资源;论坛站内搜索

    如果你有什么需要的资源可以去资源求档发帖,求助社区的网友,我们会在第一时间给你回复哦;资源求档

    对于本社区网盘链接失效密码错误各种报错请在反馈板块反馈报错发帖,您的支持,是我们发展的最大动力;投诉建议

    回复

    使用道具 举报

    您需要登录后才可以回帖 登录 | 立即注册 微信登录

    本版积分规则

    关注0

    粉丝7

    帖子53363

    发布主题
    阅读排行更多+
    关闭

    站长推荐上一条 /1 下一条

    活动提示

    赞助永久VIP会员送3T硬盘一块 限时活动

    地址:立刻参加

    我知道了
    收藏帖子 返回列表 这是一个自定义按钮
    音乐分享,音乐下载。
    微信公众号
    微信号:hires_
    意见反馈:admin@maomicd.com

    加入我们的官方QQ群和微信群

    Powered by Discuz! X3.4 Archiver|手机版|小黑屋|捌零音乐论坛 ( 苏ICP备20015413号 )|( 苏公网安备 32030502000272号) 繁體

    GMT+8, 2021-9-26 09:17