[古典] (Orchestral) [CD] Бетховен - Симфония № 5, Увертюра "Эгмонт", Вебер, Моцарт, Лист (дир. Артур Никиш) | Beethoven - Symphony No.5, Overture "Egmont&qu

[复制链接]
elmisy 发表于 2021-9-10 16:56:56 | 显示全部楼层 |阅读模式 打印 上一主题 下一主题
Beethoven - Symphony No. 5 • Egmont Overture
- Легендарная запись Пятой симфонии Бетховена -
Жанр: Orchestral • Издание диска: Dutton England • Номер по каталогу: CDBP 9784 • Год издания: 2008
Продолжительность: 1:14:42 • Аудиокодек: FLAC (*.flac) • Тип рипа: image+.cue • Битрейт аудио: lossless • Источник: свой диск • Наличие сканов: да
Wikipedia писал(а):
Исполнение Пятой симфонии Бетховена Берлинским филармоническим оркестром под управлением Артура Никиша (1913) считается первой коммерчески успешной записью многочастного оркестрового произведения в истории. Фонограмма была широко растиражирована и получила «Титул» - внесшей «эпохальные» изменения в музыкальную индустрию. Фактически же, первая запись «Пятой» Бетховена была сделана тремя годами ранее Фридрихом Карком и берлинским симфоническим оркестром «Одеон» в 1910 году. Но обе эти записи (и Карка и Никиша) осуществлены по купированной партитуре. Первая полноценная «Пятая» Бетховена записана Альбертом Коутсом только в 1920 году.
⠀⠀Полный каталог работ Майкла Даттона на сайте лэйбла - duttonvocalion.co.uk
⠀⠀Реставрации Майкла Даттона на трекере - Dutton Vocalion
⠀⠀Запись Пятой симфонии Бетховена Фридрихом Карком: lossless и mp3
Oliver Lomax (из буклета) писал(а):
Никиш был одним из первых дирижеров, записавших полную симфонию. Сделал он это с Берлинским филармоническим оркестром, записав монументальную Пятую симфонию Бетховена, которая была издана на четырех дисках His Master's Voice на 78 об/мин в 1914 году. На момент выпуска запись Никиша была провозглашена шедевром и до сих пор считается одной из выдающихся записей этой симфонии.

Треклист
Beethoven:
01. Egmont Ouverture (8:33)
Symphony No. 5:*
02. Allegro con brio (6:49)
03. Andante con moto (9:57)
04. Allegro (5:32)
05. Allegro (9:18)
Weber:
06. Der Freischutz Overture (9:12)
07. Oberon Overture (8:56)
08. Mozart - The Merriage of Figaro Overture (4:14)
09. Liszt - Hungarian Rhapsody No.1 (12:11)

Arthur Nikisch (conductor)
London Symphony Orchestra (Rec. 1914), Berlin Philharmonic Orchestra (Rec. 1913)*

Лог создания рипа

Exact Audio Copy V1.6 from 23. October 2020
EAC extraction logfile from 9. March 2021, 16:41
Ludwig van Beethoven - Arthur Nikisch / Berlin Philharmonic Orchestra & London Symphony Orchestra
Used drive  : HL-DT-STDVDRAM GP65NB60   Adapter: 1  ID: 0
Read mode               : Secure
Utilize accurate stream : Yes
Defeat audio cache      : Yes
Make use of C2 pointers : No
Read offset correction                      : 6
Overread into Lead-In and Lead-Out          : No
Fill up missing offset samples with silence : Yes
Delete leading and trailing silent blocks   : No
Null samples used in CRC calculations       : Yes
Used interface                              : Native Win32 interface for Win NT & 2000
Used output format              : User Defined Encoder
Selected bitrate                : 1024 kBit/s
Quality                         : High
Add ID3 tag                     : No
Command line compressor         : C:\Program Files (x86)\Exact Audio Copy\Flac\flac.exe
Additional command line options : -V -8 -T "Date=%year%" -T "Genre=%genre%" %source%
TOC of the extracted CD
     Track |   Start  |  Length  | Start sector | End sector
    ---------------------------------------------------------
        1  |  0:01.00 |  8:32.49 |        75    |    38523
        2  |  8:33.49 |  6:49.10 |     38524    |    69208
        3  | 15:22.59 |  9:57.33 |     69209    |   114016
        4  | 25:20.17 |  5:31.55 |    114017    |   138896
        5  | 30:51.72 |  9:17.73 |    138897    |   180744
        6  | 40:09.70 |  9:12.01 |    180745    |   222145
        7  | 49:21.71 |  8:56.34 |    222146    |   262379
        8  | 58:18.30 |  4:14.07 |    262380    |   281436
        9  | 62:32.37 | 12:10.50 |    281437    |   336236
Range status and errors
Selected range
     Filename D:\Ludwig van Beethoven - Arthur Nikisch [CDBP 9784].wav
     Peak level 90.1 %
     Extraction speed 2.2 X
     Range quality 100.0 %
     Test CRC C777DD09
     Copy CRC C777DD09
     Copy OK
No errors occurred
AccurateRip summary
Track  1  accurately ripped (confidence 4)  [A6C4F252]  (AR v2)
Track  2  accurately ripped (confidence 4)  [D4933247]  (AR v2)
Track  3  accurately ripped (confidence 4)  [7B7CD9A1]  (AR v2)
Track  4  accurately ripped (confidence 4)  [D52A34E2]  (AR v2)
Track  5  accurately ripped (confidence 4)  [9B422AB3]  (AR v2)
Track  6  accurately ripped (confidence 4)  [DA117C58]  (AR v2)
Track  7  accurately ripped (confidence 4)  [39DA3445]  (AR v2)
Track  8  accurately ripped (confidence 4)  [CF21DD55]  (AR v2)
Track  9  accurately ripped (confidence 4)  [E0246298]  (AR v2)
All tracks accurately ripped
End of status report
---- CUETools DB Plugin V2.1.6
[CTDB TOCID: EjCtIVMZzL_lDmfky2IczefWOIk-] found
Submit result: EjCtIVMZzL_lDmfky2IczefWOIk- has been confirmed
Track | CTDB Status
  1   | (7/7) Accurately ripped
  2   | (7/7) Accurately ripped
  3   | (7/7) Accurately ripped
  4   | (7/7) Accurately ripped
  5   | (7/7) Accurately ripped
  6   | (7/7) Accurately ripped
  7   | (7/7) Accurately ripped
  8   | (7/7) Accurately ripped
  9   | (7/7) Accurately ripped
==== Log checksum 6D2812BFBC4EEE4F5CA40562DA3F79670C4983F85D859FDE12C5B5A2F309372E ====


Содержание индексной карты (.cue)

REM GENRE "[CDBP 9784]"
REM DATE 2008
REM DISCID 6F118209
REM COMMENT "ExactAudioCopy v1.6"
PERFORMER "Ludwig van Beethoven - Arthur Nikisch"
TITLE "Berlin Philharmonic Orchestra & London Symphony Orchestra"
REM COMPOSER ""
FILE "Ludwig van Beethoven - Arthur Nikisch [CDBP 9784].flac" WAVE
  TRACK 01 AUDIO
    TITLE "Beethoven - Egmont Overture"
    PERFORMER "Ludwig van Beethoven - Arthur Nikisch"
    REM COMPOSER ""
    ISRC GBCTP0798401
    INDEX 00 00:00:00
    INDEX 01 00:01:00
  TRACK 02 AUDIO
    TITLE "Symphony No. 5: Allegro con brio"
    PERFORMER "Ludwig van Beethoven - Arthur Nikisch"
    REM COMPOSER ""
    ISRC GBCTP0798402
    INDEX 00 08:28:49
    INDEX 01 08:33:49
  TRACK 03 AUDIO
    TITLE "Andante con moto"
    PERFORMER "Ludwig van Beethoven - Arthur Nikisch"
    REM COMPOSER ""
    ISRC GBCTP0798403
    INDEX 00 15:21:05
    INDEX 01 15:22:59
  TRACK 04 AUDIO
    TITLE "Scherzo: Allegro"
    PERFORMER "Ludwig van Beethoven - Arthur Nikisch"
    REM COMPOSER ""
    ISRC GBCTP0798404
    INDEX 00 25:19:69
    INDEX 01 25:20:17
  TRACK 05 AUDIO
    TITLE "Allegro"
    PERFORMER "Ludwig van Beethoven - Arthur Nikisch"
    REM COMPOSER ""
    ISRC GBCTP0798405
    INDEX 00 30:51:49
    INDEX 01 30:51:72
  TRACK 06 AUDIO
    TITLE "Weber - Der Freischutz Overture"
    PERFORMER "Ludwig van Beethoven - Arthur Nikisch"
    REM COMPOSER ""
    ISRC GBCTP0798406
    INDEX 00 40:07:26
    INDEX 01 40:09:70
  TRACK 07 AUDIO
    TITLE "Oberon Overture"
    PERFORMER "Ludwig van Beethoven - Arthur Nikisch"
    REM COMPOSER ""
    ISRC GBCTP0798407
    INDEX 00 49:19:31
    INDEX 01 49:21:71
  TRACK 08 AUDIO
    TITLE "Mozart - Le nozze di Figaro Overture"
    PERFORMER "Ludwig van Beethoven - Arthur Nikisch"
    REM COMPOSER ""
    ISRC GBCTP0798408
    INDEX 00 58:15:46
    INDEX 01 58:18:30
  TRACK 09 AUDIO
    TITLE "Liszt - Hungarian Rhapsody No. 1"
    PERFORMER "Ludwig van Beethoven - Arthur Nikisch"
    REM COMPOSER ""
    ISRC GBCTP0798409
    INDEX 00 62:29:26
    INDEX 01 62:32:37


DRM

foobar2000 1.1.7 / Замер динамического диапазона (DR) 1.1.1
Дата отчёта:  2021-03-18 18:55:16
--------------------------------------------------------------------------------
Анализ:   Ludwig van Beethoven - Arthur Nikisch / Berlin Philharmonic Orchestra & London Symphony Orchestra
--------------------------------------------------------------------------------
DR         Пики         RMS           Продолжительность трека
--------------------------------------------------------------------------------
DR13      -2.77 дБ   -21.37 дБ      8:33 01-Beethoven - Egmont Overture
DR12      -0.90 дБ   -17.49 дБ      6:49 02-Symphony No. 5: Allegro con brio
DR14      -1.04 дБ   -22.80 дБ      9:57 03-Andante con moto
DR14      -2.36 дБ   -23.11 дБ      5:32 04-Scherzo: Allegro
DR14      -2.11 дБ   -20.07 дБ      9:18 05-Allegro
DR13      -3.45 дБ   -22.74 дБ      9:12 06-Weber - Der Freischutz Overture
DR15      -2.55 дБ   -22.79 дБ      8:56 07-Oberon Overture
DR12      -3.96 дБ   -21.87 дБ      4:14 08-Mozart - Le nozze di Figaro Overture
DR14      -1.81 дБ   -20.56 дБ     12:11 09-Liszt - Hungarian Rhapsody No. 1
--------------------------------------------------------------------------------
Количество треков: 9
Реальные значения DR: DR14
Частота:   44100 Гц
Каналов:   2
Разрядность:   16
Битрейт:   450 кбит/с
Кодек:   FLAC
================================================================================


.accurip

[CUETools log; Date: 19.03.2021 18:17:08; Version: 2.1.6]
Pregap length 00:01:00.
[CTDB TOCID: EjCtIVMZzL_lDmfky2IczefWOIk-] found.
Track | CTDB Status
  1   | (8/8) Accurately ripped
  2   | (8/8) Accurately ripped
  3   | (8/8) Accurately ripped
  4   | (8/8) Accurately ripped
  5   | (8/8) Accurately ripped
  6   | (8/8) Accurately ripped
  7   | (8/8) Accurately ripped
  8   | (8/8) Accurately ripped
  9   | (8/8) Accurately ripped
[AccurateRip ID: 00191493-00b82912-6f118209] found.
Track   [  CRC   |   V2   ] Status
01     [7127a0ad|a6c4f252] (3+4/7) Accurately ripped
02     [764d7caf|d4933247] (3+4/7) Accurately ripped
03     [034de711|7b7cd9a1] (3+4/7) Accurately ripped
04     [47f967fd|d52a34e2] (3+4/7) Accurately ripped
05     [bea3949b|9b422ab3] (3+4/7) Accurately ripped
06     [e6c91edd|da117c58] (3+4/7) Accurately ripped
07     [3639cb6e|39da3445] (3+4/7) Accurately ripped
08     [61dd8a2b|cf21dd55] (3+4/7) Accurately ripped
09     [7a5fe6a7|e0246298] (3+4/7) Accurately ripped
Track Peak [ CRC32  ] [W/O NULL] [  LOG   ]
--   90,1 [C777DD09] [F99A975D]   CRC32
01   72,7 [2F2ECE60] [63A32CCC]
02   90,1 [6D28709B] [AE7213D5]
03   88,7 [75DF8259] [C3AD9731]
04   76,2 [6FC9B92B] [1110C5A7]
05   78,4 [9CCF5DEF] [B22E5A09]
06   67,2 [ECFB6A55] [4D23B400]
07   74,5 [B805A29C] [B3EDA47E]
08   63,3 [EABD101A] [7F978ABE]
09   81,1 [1B41F720] [67B7E016]

                                                                                       
                       
                       
                       
                       
                       
                                磁力下载(论坛代下载服务)::
                                                               
                                       
付费主题

已有0人支付


                                               
  • 257.9 MB
  • 温馨提示

    记得善用社区搜索功能,那里可能会有你想要的资源;论坛站内搜索

    如果你有什么需要的资源可以去资源求档发帖,求助社区的网友,我们会在第一时间给你回复哦;资源求档

    对于本社区网盘链接失效密码错误各种报错请在反馈板块反馈报错发帖,您的支持,是我们发展的最大动力;投诉建议

    回复

    使用道具 举报

    您需要登录后才可以回帖 登录 | 立即注册 微信登录

    本版积分规则

    关注0

    粉丝3

    帖子30621

    发布主题
    阅读排行更多+
    关闭

    站长推荐上一条 /1 下一条

    活动提示

    赞助永久VIP会员送3T硬盘一块 限时活动

    地址:立刻参加

    我知道了
    收藏帖子 返回列表 这是一个自定义按钮
    音乐分享,音乐下载。
    微信公众号
    微信号:hires_
    意见反馈:admin@maomicd.com

    加入我们的官方QQ群和微信群

    Powered by Discuz! X3.4 Archiver|手机版|小黑屋|捌零音乐论坛 ( 苏ICP备20015413号 )|( 苏公网安备 32030502000272号) 繁體

    GMT+8, 2021-9-21 13:38