[古典] (Classical) Alexander Borodin - Symphonies / Бородин - Симфонии, Маленькая сюита, Половецкие пляски (Rozhdestvensky / Рождественский) 2 CD - 1994, APE (image+.cue), lossless

[复制链接]
韬199435 发表于 2021-9-10 16:56:56 | 显示全部楼层 |阅读模式 打印 上一主题 下一主题
Alexander Borodin
Symphonies
Жанр: Classical
Год выпуска диска: 1994
Производитель диска: Brilliant classics
Аудио кодек: APE
Тип рипа: image+.cue
Битрейт аудио: lossless
Продолжительность: 62:56+75:00
Трэклист:
CD1
Symphony № 1 in E flat major
1. Adagio - Allegro - Andantino
2. Scherzo. Prestissimo - Trio. Allegro
3. Andante
4. Allegro molto vivo
Symphony № 3 in A minor
5. Moderato assai
6. Scherzo. Vivo - Trio. Moderato
7. Romance' for baritone and orchestra
8. At the homes of other folk' for mezzo-soprano and orchestra

CD2
Symphony № 2 in B minor
1. Allegro
2. Scherzo: Prestissimo - Allegretto
3. Andante
4. Finale: Allegro
Petite suite (orch. Glazunov)
5. Au couvent: Andante religioso
6. Intermezzo: Tempo di menuetto
7. Mazurka: Allegro
8. Mazurka: Allegretto
9. Reverie: Andante
10. Serenade: Allegretto
11. Finale: Scherzo - Nocturne
Polovtsian Dances
12. Presto
13. Introduzione: Andantino
14. Allegro vivo
15. Allegro
16. Presto
17. Moderato alla breve
18. Presto
19. Allegro con spirito
Исполнители:
Royal Stockholm Philharmonic Orchestra
Conductor: Gennady Rozhdestvensky
Tord Wallstrom - baritone
Larissa Dyadkova - mezzo-soprano
Отчёт EAC CD1

Exact Audio Copy V0.99 prebeta 4 from 23. January 2008
Отчёт EAC об извлечении, выполненном 16. декабря 2008, 19:24
Royal Stockholm Philharmonic Orchestra (Gennady Rozhdestvensky) / Borodin - Symphonies 1 in E flat major & 3 in A minor
Дисковод: ASUS    DRW-2014L1   Adapter: 2  ID: 0
Режим чтения                 : Достоверность
Использование точного потока : Да
Отключение кэша аудио        : Да
Использование указателей C2  : Нет
Коррекция смещения при чтении                     : 6
Способность читать области Lead-in и Lead-out     : Нет
Заполнение пропущенных сэмплов тишиной            : Да
Удаление блоков с тишиной в начале и конце        : Нет
При вычислениях CRC использовались нулевые сэмплы : Да
Интерфейс                                         : Встроенный Win32-интерфейс для Win NT/2000
Выходной формат : Внутренние WAV-операции
Формат сэмплов  : 44.100 Гц; 16 бит; стерео
TOC извлечённого CD
     Трек |   Старт  | Длительность | Начальный сектор | Конечный сектор
    ---------------------------------------------------------------------
       1  |  0:00.00 |   13:55.37   |           0      |      62661
       2  | 13:55.37 |    7:44.45   |       62662      |      97506
       3  | 21:40.07 |    6:52.50   |       97507      |     128456
       4  | 28:32.57 |    7:08.70   |      128457      |     160626
       5  | 35:41.52 |    9:16.13   |      160627      |     202339
       6  | 44:57.65 |   10:32.02   |      202340      |     249741
       7  | 55:29.67 |    3:34.08   |      249742      |     265799
       8  | 59:04.00 |    3:51.00   |      265800      |     283124
Характеристики диапазона извлечения и сообщения об ошибках
Выбранный диапазон
     Имя файла U:\tor\Royal Stockholm Philharmonic Orchestra (Gennady Rozhdestvensky) - Borodin - Symphonies 1 in E flat major & 3 in A minor.wav
     Пиковый уровень 97.7 %
     Качество диапазона 100.0 %
     CRC копии 91B55DA6
     Копирование... OK
Ошибок не произошло
Конец отчёта


Отчёт EAC CD2

Exact Audio Copy V0.99 prebeta 4 from 23. January 2008
Отчёт EAC об извлечении, выполненном 16. декабря 2008, 19:49
Royal Stockholm Philharmonic Orchestra / Borodin Symphony No. 2
Дисковод: ASUS    DRW-2014L1   Adapter: 2  ID: 0
Режим чтения                 : Достоверность
Использование точного потока : Да
Отключение кэша аудио        : Да
Использование указателей C2  : Нет
Коррекция смещения при чтении                     : 6
Способность читать области Lead-in и Lead-out     : Нет
Заполнение пропущенных сэмплов тишиной            : Да
Удаление блоков с тишиной в начале и конце        : Нет
При вычислениях CRC использовались нулевые сэмплы : Да
Интерфейс                                         : Встроенный Win32-интерфейс для Win NT/2000
Выходной формат : Внутренние WAV-операции
Формат сэмплов  : 44.100 Гц; 16 бит; стерео
TOC извлечённого CD
     Трек |   Старт  | Длительность | Начальный сектор | Конечный сектор
    ---------------------------------------------------------------------
       1  |  0:00.00 |    8:22.50   |           0      |      37699
       2  |  8:22.50 |    5:53.50   |       37700      |      64224
       3  | 14:16.25 |    8:35.65   |       64225      |     102914
       4  | 22:52.15 |    6:58.10   |      102915      |     134274
       5  | 29:50.25 |    4:36.37   |      134275      |     155011
       6  | 34:26.62 |    5:18.38   |      155012      |     178899
       7  | 39:45.25 |    3:39.25   |      178900      |     195349
       8  | 43:24.50 |    3:46.62   |      195350      |     212361
       9  | 47:11.37 |    3:02.65   |      212362      |     226076
      10  | 50:14.27 |    2:06.73   |      226077      |     235599
      11  | 52:21.25 |    7:32.00   |      235600      |     269499
      12  | 59:53.25 |    2:35.42   |      269500      |     281166
      13  | 62:28.67 |    2:38.23   |      281167      |     293039
      14  | 65:07.15 |    1:17.65   |      293040      |     298879
      15  | 66:25.05 |    2:21.62   |      298880      |     309516
      16  | 68:46.67 |    1:30.35   |      309517      |     316301
      17  | 70:17.27 |    1:31.05   |      316302      |     323131
      18  | 71:48.32 |    1:31.30   |      323132      |     329986
      19  | 73:19.62 |    1:40.63   |      329987      |     337549
Характеристики диапазона извлечения и сообщения об ошибках
Выбранный диапазон
     Имя файла U:\tor\Royal Stockholm Philharmonic Orchestra - Borodin Symphony No. 2.wav
     Пиковый уровень 97.7 %
     Качество диапазона 100.0 %
     CRC копии E3DCEADE
     Копирование... OK
Ошибок не произошло
Конец отчёта

                                                                                       
                       
                       
                       
                       
                       
                                磁力下载(论坛代下载服务)::
                                                               
                                       
付费主题

已有0人支付


                                               
  • 518.7 MB
  • 温馨提示

    记得善用社区搜索功能,那里可能会有你想要的资源;论坛站内搜索

    如果你有什么需要的资源可以去资源求档发帖,求助社区的网友,我们会在第一时间给你回复哦;资源求档

    对于本社区网盘链接失效密码错误各种报错请在反馈板块反馈报错发帖,您的支持,是我们发展的最大动力;投诉建议

    回复

    使用道具 举报

    您需要登录后才可以回帖 登录 | 立即注册 微信登录

    本版积分规则

    关注0

    粉丝0

    帖子32440

    发布主题
    阅读排行更多+
    关闭

    站长推荐上一条 /1 下一条

    活动提示

    赞助永久VIP会员送3T硬盘一块 限时活动

    地址:立刻参加

    我知道了
    收藏帖子 返回列表 这是一个自定义按钮
    音乐分享,音乐下载。
    微信公众号
    微信号:hires_
    意见反馈:admin@maomicd.com

    加入我们的官方QQ群和微信群

    Powered by Discuz! X3.4 Archiver|手机版|小黑屋|捌零音乐论坛 ( 苏ICP备20015413号 )|( 苏公网安备 32030502000272号) 繁體

    GMT+8, 2021-9-26 09:41