[古典] (Симфония) A.Dvorak - Symphonies Nos.6 and 7 / А.Дворжак - Симфонии №№6 и 7 (Czech Philharmonic Orchestra - V.Talich / В.Талих) - 2007, APE (image+.cue), lossless

[复制链接]
韬199435 发表于 7 天前 | 显示全部楼层 |阅读模式 打印 上一主题 下一主题
Vaclav TALICH - Special Edition Vol.12
A.Dvorak - Symphonies Nos.6 and 7
Жанр: Симфония
Год выпуска диска: 2007
Производитель диска: Czech Republic
Аудио кодек: APE
Тип рипа: image+.cue
Битрейт аудио: lossless
Продолжительность: 80'59''
Трэклист:
[1-4] A.Dvorak - Symphony No.6
[5-9] A.Dvorak - Symphony No.7
Czech Philharmonic Orchestra
V.Talich
rec. 1938
EAC
Exact Audio Copy V0.99 prebeta 3 from 28. July 2007
EAC extraction logfile from 15. May 2010, 16:51
Antonin Dvorak / Symphony Nos 6 and 7 (Op. 60 and Op. 70)
Used drive : ATAPI iHAS422 8 Adapter: 9 ID: 0
Read mode : Secure
Utilize accurate stream : Yes
Defeat audio cache : Yes
Make use of C2 pointers : No
Read offset correction : 6
Overread into Lead-In and Lead-Out : No
Fill up missing offset samples with silence : Yes
Delete leading and trailing silent blocks : No
Null samples used in CRC calculations : Yes
Used interface : Installed external ASPI interface
Used output format : Internal WAV Routines
Sample format : 44.100 Hz; 16 Bit; Stereo
TOC of the extracted CD
Track | Start | Length | Start sector | End sector
---------------------------------------------------------
1 | 0:00.00 | 13:05.29 | 0 | 58903
2 | 13:05.29 | 13:26.08 | 58904 | 119361
3 | 26:31.37 | 8:20.18 | 119362 | 156879
4 | 34:51.55 | 9:23.02 | 156880 | 199106
5 | 44:14.57 | 10:31.16 | 199107 | 246447
6 | 54:45.73 | 10:03.38 | 246448 | 291710
7 | 64:49.36 | 7:32.19 | 291711 | 325629
8 | 72:21.55 | 8:35.65 | 325630 | 364319
Range status and errors
Selected range
Filename F:\Talich\Vol.12\Antonin Dvorak - Symphony Nos 6 and 7 (Op. 60 and Op. 70).wav
Peak level 88.3 %
Range quality 100.0 %
Copy CRC 3215135A
Copy OK
No errors occurred
AccurateRip summary
Track 1 not present in database
Track 2 not present in database
Track 3 not present in database
Track 4 not present in database
Track 5 not present in database
Track 6 not present in database
Track 7 not present in database
Track 8 not present in database
None of the tracks are present in the AccurateRip database
End of status report
Доп. информация: Все рипы этой серии найдены в блоге celestial-invocation на сайте blogspot.com                                                                                       
                       
                       
                       
                       
                       
                                磁力下载(论坛代下载服务)::
                                                               
                                       
付费主题

已有0人支付


                                               
  • 177 MB
  • 温馨提示

    记得善用社区搜索功能,那里可能会有你想要的资源;论坛站内搜索

    如果你有什么需要的资源可以去资源求档发帖,求助社区的网友,我们会在第一时间给你回复哦;资源求档

    对于本社区网盘链接失效密码错误各种报错请在反馈板块反馈报错发帖,您的支持,是我们发展的最大动力;投诉建议

    回复

    使用道具 举报

    您需要登录后才可以回帖 登录 | 立即注册 微信登录

    本版积分规则

    关注0

    粉丝0

    帖子31315

    发布主题
    阅读排行更多+
    关闭

    站长推荐上一条 /1 下一条

    活动提示

    赞助永久VIP会员送3T硬盘一块 限时活动

    地址:立刻参加

    我知道了
    收藏帖子 返回列表 这是一个自定义按钮
    音乐分享,音乐下载。
    微信公众号
    微信号:hires_
    意见反馈:admin@maomicd.com

    加入我们的官方QQ群和微信群

    Powered by Discuz! X3.4 Archiver|手机版|小黑屋|捌零音乐论坛 ( 苏ICP备20015413号 )|( 苏公网安备 32030502000272号) 繁體

    GMT+8, 2021-9-17 00:21