[古典] (Classical) Brahms: Symphonie Nr. 1; Beethoven: Ouvertüre Egmont, Münchner Philharmoniker, Christian Thielemann/ Брамс - Симфония № 1, Бетховен - увертюра &qu

[复制链接]
如果有神 发表于 2021-9-10 16:56:56 | 显示全部楼层 |阅读模式 打印 上一主题 下一主题
Brahms: Symphonie Nr. 1; Beethoven: Ouvertüre Egmont/ Брамс - Симфония № 1, Бетховен - увертюра "Эгмонт"
Страна: E.U.
Жанр: Classical
Год выпуска: 2007
Формат: FLAC (tracks+.cue)
Битрейт аудио: lossless
Трэклист:
Münchner Philharmoniker, Christian Thielemann
Beethoven
Music to Goethe's Tragedy "Egmont" op.84
1. Overture [9:03]
Brahms
Symphony No.1 in C minor, Op.68
2. Un poco sostenuto - Allegro - Meno allegro [18:10]
3. Andante sostenuto [9:21]
4. Un poco allegretto e grazioso [5:13]
5. Adagio - Piu andante - Allegro non troppo, ma con brio - Piu allegro [18:43]
Доп. информация:
скрытый текст
Exact Audio Copy V0.99 prebeta 1 from 25. May 2007
Отчёт EAC об извлечении, выполненном 5. мая 2008, 2:41
Thielemann / Thielemann, Mьnchner Philharmoniker
Дисковод: PHILIPS DVDR1648P1 Adapter: 0 ID: 1
Режим чтения : Достоверность
Использование точного потока : Да
Отключение кэша аудио : Да
Использование указателей C2 : Нет
Коррекция смещения при чтении : 618
Способность читать области Lead-in и Lead-out : Нет
Заполнение пропущенных сэмплов тишиной : Да
Удаление блоков с тишиной в начале и конце : Нет
Интерфейс : Установленный внешний ASPI-интерфейс
Выходной формат : Пользовательский кодировщик
Выбранный битрейт : 768 kBit/s
Качество : Высокий
Добавление ID3-тэга : Нет
Утилита сжатия : C:\Program Files\Exact Audio Copy\FLAC\FLAC.EXE
Дополнительные параметры : -6 -V -T "ARTIST=%a" -T "TITLE=%t" -T "ALBUM=%g" -T "DATE=%y" -T "TRACKNUMBER=%n" -T "GENRE=%m" -T "COMMENT=%e" %s -o %d
TOC извлечённого CD
Трек | Старт | Длительность | Начальный сектор | Конечный сектор
---------------------------------------------------------------------
1 | 0:00.00 | 9:09.16 | 0 | 41190
2 | 9:09.16 | 18:10.51 | 41191 | 122991
3 | 27:19.67 | 9:20.09 | 122992 | 165000
4 | 36:40.01 | 5:14.43 | 165001 | 188593
5 | 41:54.44 | 18:49.20 | 188594 | 273288
Трек 1, Индекс 1
Пиковый уровень 99.2 %
Качество трека 100.0 %
Копирование... OK
Трек 2, Индекс 0
Пиковый уровень 0.3 %
Качество трека 100.0 %
Копирование... OK
Трек 2, Индекс 1
Пиковый уровень 98.9 %
Качество трека 100.0 %
Копирование... OK
Трек 3, Индекс 0
Пиковый уровень 0.2 %
Качество трека 100.0 %
Копирование... OK
Трек 3, Индекс 1
Пиковый уровень 43.5 %
Качество трека 100.0 %
Копирование... OK
Трек 4, Индекс 0
Пиковый уровень 0.2 %
Качество трека 100.0 %
Копирование... OK
Трек 4, Индекс 1
Пиковый уровень 71.0 %
Качество трека 100.0 %
Копирование... OK
Трек 5, Индекс 0
Пиковый уровень 0.4 %
Качество трека 100.0 %
Копирование... OK
Трек 5, Индекс 1
Пиковый уровень 99.9 %
Качество трека 100.0 %
Копирование... OK
AccurateRip: сводка
Трек 1 точное извлечение (доверие 2) [4F0A0041]
Трек 2 точное извлечение (доверие 2) [BDFB3A10]
Трек 3 точное извлечение (доверие 2) [C890D195]
Трек 4 точное извлечение (доверие 2) [612E1CA1]
Трек 5 точное извлечение (доверие 2) [4878097B]
Ошибок не произошло
Конец отчёта
                                                                                       
                       
                       
                       
                       
                       
                                磁力下载(论坛代下载服务)::
                                                               
                                       
付费主题

已有0人支付


                                               
  • 240.6 MB
  • 温馨提示

    记得善用社区搜索功能,那里可能会有你想要的资源;论坛站内搜索

    如果你有什么需要的资源可以去资源求档发帖,求助社区的网友,我们会在第一时间给你回复哦;资源求档

    对于本社区网盘链接失效密码错误各种报错请在反馈板块反馈报错发帖,您的支持,是我们发展的最大动力;投诉建议

    回复

    使用道具 举报

    您需要登录后才可以回帖 登录 | 立即注册 微信登录

    本版积分规则

    发布主题
    阅读排行更多+
    关闭

    站长推荐上一条 /1 下一条

    活动提示

    赞助永久VIP会员送3T硬盘一块 限时活动

    地址:立刻参加

    我知道了
    收藏帖子 返回列表 这是一个自定义按钮
    音乐分享,音乐下载。
    微信公众号
    微信号:hires_
    意见反馈:admin@maomicd.com

    加入我们的官方QQ群和微信群

    Powered by Discuz! X3.4 Archiver|手机版|小黑屋|捌零音乐论坛 ( 苏ICP备20015413号 )|( 苏公网安备 32030502000272号) 繁體

    GMT+8, 2021-9-21 13:51