[古典] (Classical, 20th century) Gian Francesco Malipiero - Impressioni dal vero; Pause del silenzio - Orchestra Sinfonica di Roma, Francesco La Vecchia - 2011, FLAC (image+.cue) lossless

[复制链接]
lz189 发表于 6 天前 | 显示全部楼层 |阅读模式 打印 上一主题 下一主题
Gian Francesco Malipiero - Impressioni dal vero; Pause del silenzio - Orchestra Sinfonica di Roma, Francesco La Vecchia
Жанр: Classical, 20th century
Год издания диска: 2011
Издатель (лейбл): Naxos
Номер по каталогу: 8.572409
Дата записи: 2009,2010
Аудиокодек: FLAC
Тип рипа: image+.cue
Битрейт аудио: lossless
Продолжительность: 79:53
Источник: собственный рип
Наличие сканов в содержимом раздачи: да
Треклист:
Gian Francesco Malipiero (1882-1973)
[1]-[3] Impressioni dal vero I (1910-11)
[4]-[6] Impressioni dal vero II (1914-15)
[7]-[9] Impressioni dal vero III (1921-22)
[10] Pause del silenzio I (1917)
[11]-[14] Pause del silenzio II (1925-26)
Исполнители:
Orchestra Sinfonica di Roma
Francesco La Vecchia
Лог создания рипа

Exact Audio Copy V1.0 beta 3 from 29. August 2011
EAC extraction logfile from 13. October 2012, 12:38
Orchestra Sinfonica di Roma, Francesco La Vecchia / Malipiero - Impressioni dal vero; Pause del silenzio
Used drive  : HL-DT-STDVDRAM GSA-4083N   Adapter: 1  ID: 0
Read mode               : Secure
Utilize accurate stream : Yes
Defeat audio cache      : Yes
Make use of C2 pointers : No
Read offset correction                      : 667
Overread into Lead-In and Lead-Out          : No
Fill up missing offset samples with silence : Yes
Delete leading and trailing silent blocks   : No
Null samples used in CRC calculations       : Yes
Used interface                              : Native Win32 interface for Win NT & 2000
Used output format              : User Defined Encoder
Selected bitrate                : 896 kBit/s
Quality                         : High
Add ID3 tag                     : No
Command line compressor         : C:\Program Files\Exact Audio Copy\Flac\flac.exe
Additional command line options : -V -8 %source%
TOC of the extracted CD
     Track |   Start  |  Length  | Start sector | End sector
    ---------------------------------------------------------
        1  |  0:00.00 |  5:18.70 |         0    |    23919
        2  |  5:18.70 |  3:01.61 |     23920    |    37555
        3  |  8:20.56 |  4:58.56 |     37556    |    59961
        4  | 13:19.37 |  8:44.67 |     59962    |    99328
        5  | 22:04.29 |  6:15.55 |     99329    |   127508
        6  | 28:20.09 |  4:03.02 |    127509    |   145735
        7  | 32:23.11 |  4:10.18 |    145736    |   164503
        8  | 36:33.29 |  4:10.10 |    164504    |   183263
        9  | 40:43.39 |  1:34.51 |    183264    |   190364
       10  | 42:18.15 | 12:46.19 |    190365    |   247833
       11  | 55:04.34 |  5:37.70 |    247834    |   273178
       12  | 60:42.29 |  4:22.46 |    273179    |   292874
       13  | 65:05.00 |  5:24.03 |    292875    |   317177
       14  | 70:29.03 |  3:59.31 |    317178    |   335133
       15  | 74:28.34 |  5:22.41 |    335134    |   359324
Range status and errors
Selected range
     Filename J:\Music\Malipiero - Impressioni dal vero; Pause del silenzio\Malipiero - Impressioni dal vero; Pause del silenzio.wav
     Peak level 95.3 %
     Extraction speed 4.4 X
     Range quality 100.0 %
     Test CRC 46A16873
     Copy CRC 46A16873
     Copy OK
No errors occurred
End of status report
==== Log checksum 92BBE2EA0D8E7DDD1757A1B093022F6596669881DFAD58643AEAD16349B03989 ====

                                                                                       
                       
                       
                       
                       
                       
                                磁力下载(论坛代下载服务)::
                                                               
                                       
付费主题

已有0人支付


                                               
  • 359.2 MB
  • 温馨提示

    记得善用社区搜索功能,那里可能会有你想要的资源;论坛站内搜索

    如果你有什么需要的资源可以去资源求档发帖,求助社区的网友,我们会在第一时间给你回复哦;资源求档

    对于本社区网盘链接失效密码错误各种报错请在反馈板块反馈报错发帖,您的支持,是我们发展的最大动力;投诉建议

    回复

    使用道具 举报

    您需要登录后才可以回帖 登录 | 立即注册 微信登录

    本版积分规则

    关注0

    粉丝0

    帖子31255

    发布主题
    阅读排行更多+
    关闭

    站长推荐上一条 /1 下一条

    活动提示

    赞助永久VIP会员送3T硬盘一块 限时活动

    地址:立刻参加

    我知道了
    收藏帖子 返回列表 这是一个自定义按钮
    音乐分享,音乐下载。
    微信公众号
    微信号:hires_
    意见反馈:admin@maomicd.com

    加入我们的官方QQ群和微信群

    Powered by Discuz! X3.4 Archiver|手机版|小黑屋|捌零音乐论坛 ( 苏ICP备20015413号 )|( 苏公网安备 32030502000272号) 繁體

    GMT+8, 2021-9-16 23:53