[古典] (Симфония) G.Mahler - Symphony No.8 "Symphonie der Tausend" (London Symphony Orchestra - J.Horenstein) 2 CD - 1998, FLAC (tracks+.cue), lossless

[复制链接]
tikus75 发表于 2021-9-10 16:56:55 | 显示全部楼层 |阅读模式 打印 上一主题 下一主题
MAHLER - Symphony No.8 "Symphonie der Tausend"
London Symphony Orchestra - J.Horenstein
Жанр: Симфония
Год выпуска диска: 1998
Производитель диска: GB
Аудио кодек: FLAC
Тип рипа: tracks+.cue
Битрейт аудио: lossless
Продолжительность: 42'56'' + 57'57''
Треклист:
CD1
[1-5] Jascha Horenstein in conversation with Alan Blyth
[6-13] G.Mahler - Symphony No.8 - Erster Teil
EAC
Exact Audio Copy V0.99 prebeta 4 from 23. January 2008
EAC extraction logfile from 16. March 2009, 21:26
Jascha Horenstein, London Symphony Orchestra / Gustav Mahler - Symphony No. 8 [disk I]
Used drive : HL-DT-STDVDRAM GSA-T20N Adapter: 1 ID: 0
Read mode : Secure
Utilize accurate stream : Yes
Defeat audio cache : No
Make use of C2 pointers : No
Read offset correction : 667
Overread into Lead-In and Lead-Out : No
Fill up missing offset samples with silence : Yes
Delete leading and trailing silent blocks : No
Null samples used in CRC calculations : Yes
Used interface : Native Win32 interface for Win NT & 2000
Gap handling : Appended to previous track
Used output format : User Defined Encoder
Selected bitrate : 320 kBit/s
Quality : High
Add ID3 tag : No
Command line compressor : C:\Program Files\FLAC\flac.exe
Additional command line options : -8 -V -T "artist=%a" -T "title=%t" -T "album=%g" -T "date=%y" -T "tracknumber=%n" -T "genre=%m" %s
TOC of the extracted CD
Track | Start | Length | Start sector | End sector
---------------------------------------------------------
1 | 0:00.00 | 1:16.47 | 0 | 5746
2 | 1:16.47 | 2:27.65 | 5747 | 16836
3 | 3:44.37 | 7:47.60 | 16837 | 51921
4 | 11:32.22 | 4:24.55 | 51922 | 71776
5 | 15:57.02 | 3:33.48 | 71777 | 87799
6 | 19:30.50 | 1:29.65 | 87800 | 94539
7 | 21:00.40 | 4:02.65 | 94540 | 112754
8 | 25:03.30 | 1:43.40 | 112755 | 120519
9 | 26:46.70 | 1:34.45 | 120520 | 127614
10 | 28:21.40 | 2:35.35 | 127615 | 139274
11 | 30:57.00 | 5:43.45 | 139275 | 165044
12 | 36:40.45 | 3:13.27 | 165045 | 179546
13 | 39:53.72 | 3:00.63 | 179547 | 193109
Track 1
Filename C:\Users\elemental5\Desktop\Mahler 8 Horenstein\Jascha Horenstein, London Symphony Orchestra - Gustav Mahler - Symphony No. 8 [disk I]\01 - Introduction- Highlights of his Career.wav
Pre-gap length 0:00:02.00
Peak level 42.0 %
Track quality 100.0 %
Test CRC C9855632
Copy CRC C9855632
Track not present in AccurateRip database
Copy OK
Track 2
Filename C:\Users\elemental5\Desktop\Mahler 8 Horenstein\Jascha Horenstein, London Symphony Orchestra - Gustav Mahler - Symphony No. 8 [disk I]\02 - First encounters with Mahler's music.wav
Peak level 45.5 %
Track quality 100.0 %
Test CRC B606C55B
Copy CRC B606C55B
Track not present in AccurateRip database
Copy OK
Track 3
Filename C:\Users\elemental5\Desktop\Mahler 8 Horenstein\Jascha Horenstein, London Symphony Orchestra - Gustav Mahler - Symphony No. 8 [disk I]\03 - On Schoenberg, Berg and Webern.wav
Peak level 54.7 %
Track quality 100.0 %
Test CRC 10197A6C
Copy CRC 10197A6C
Track not present in AccurateRip database
Copy OK
Track 4
Filename C:\Users\elemental5\Desktop\Mahler 8 Horenstein\Jascha Horenstein, London Symphony Orchestra - Gustav Mahler - Symphony No. 8 [disk I]\04 - On Bartok, Janacek, Nielsen and Furtwangler.wav
Peak level 50.3 %
Track quality 100.0 %
Test CRC 91A5456C
Copy CRC 91A5456C
Track not present in AccurateRip database
Copy OK
Track 5
Filename C:\Users\elemental5\Desktop\Mahler 8 Horenstein\Jascha Horenstein, London Symphony Orchestra - Gustav Mahler - Symphony No. 8 [disk I]\05 - On Richard Strauss.wav
Peak level 53.0 %
Track quality 100.0 %
Test CRC F7351E7F
Copy CRC F7351E7F
Track not present in AccurateRip database
Copy OK
Track 6
Filename C:\Users\elemental5\Desktop\Mahler 8 Horenstein\Jascha Horenstein, London Symphony Orchestra - Gustav Mahler - Symphony No. 8 [disk I]\06 - Part One Hymnus - Veni, creator spiritus - 1. [Veni, creator spiritus!].wav
Pre-gap length 0:00:14.08
Peak level 86.8 %
Track quality 100.0 %
Test CRC 91EB8033
Copy CRC 91EB8033
Cannot be verified as accurate (confidence 2) [45985BAC], AccurateRip returned [D9BCFFF3]
Copy OK
Track 7
Filename C:\Users\elemental5\Desktop\Mahler 8 Horenstein\Jascha Horenstein, London Symphony Orchestra - Gustav Mahler - Symphony No. 8 [disk I]\07 - Part One Hymnus - Veni, creator spiritus - 2. [Imple superna gratia].wav
Peak level 85.0 %
Track quality 100.0 %
Test CRC C00B2653
Copy CRC C00B2653
Cannot be verified as accurate (confidence 2) [2D871833], AccurateRip returned [A513A8B2]
Copy OK
Track 8
Filename C:\Users\elemental5\Desktop\Mahler 8 Horenstein\Jascha Horenstein, London Symphony Orchestra - Gustav Mahler - Symphony No. 8 [disk I]\08 - Part One Hymnus - Veni, creator spiritus - 3. [Infirma nostri corporis].wav
Peak level 64.5 %
Track quality 100.0 %
Test CRC E88BC502
Copy CRC E88BC502
Cannot be verified as accurate (confidence 2) [B076CDF7], AccurateRip returned [A6E0E21E]
Copy OK
Track 9
Filename C:\Users\elemental5\Desktop\Mahler 8 Horenstein\Jascha Horenstein, London Symphony Orchestra - Gustav Mahler - Symphony No. 8 [disk I]\09 - Part One Hymnus - Veni, creator spiritus - 4. Tempo I. (Allegro, etwas hastig).wav
Peak level 20.5 %
Track quality 100.0 %
Test CRC CA85B321
Copy CRC CA85B321
Cannot be verified as accurate (confidence 2) [1E8ED108], AccurateRip returned [8BD7DE97]
Copy OK
Track 10
Filename C:\Users\elemental5\Desktop\Mahler 8 Horenstein\Jascha Horenstein, London Symphony Orchestra - Gustav Mahler - Symphony No. 8 [disk I]\10 - Part One Hymnus - Veni, creator spiritus - 5. [Infirma nostri corpis].wav
Peak level 36.4 %
Track quality 100.0 %
Test CRC 817ABAA3
Copy CRC 817ABAA3
Cannot be verified as accurate (confidence 2) [A9963231], AccurateRip returned [324C091B]
Copy OK
Track 11
Filename C:\Users\elemental5\Desktop\Mahler 8 Horenstein\Jascha Horenstein, London Symphony Orchestra - Gustav Mahler - Symphony No. 8 [disk I]\11 - Part One Hymnus - Veni, creator spiritus - 6. [Accende lumen sensibus].wav
Peak level 98.0 %
Track quality 100.0 %
Test CRC AB6D2970
Copy CRC AB6D2970
Cannot be verified as accurate (confidence 2) [FA649AFE], AccurateRip returned [2E8719C6]
Copy OK
Track 12
Filename C:\Users\elemental5\Desktop\Mahler 8 Horenstein\Jascha Horenstein, London Symphony Orchestra - Gustav Mahler - Symphony No. 8 [disk I]\12 - Part One Hymnus - Veni, creator spiritus - 6. [Qui Paraclitus Diceeris].wav
Peak level 76.7 %
Track quality 100.0 %
Test CRC AD8852E0
Copy CRC AD8852E0
Cannot be verified as accurate (confidence 2) [06174F6C], AccurateRip returned [9686D411]
Copy OK
Track 13
Filename C:\Users\elemental5\Desktop\Mahler 8 Horenstein\Jascha Horenstein, London Symphony Orchestra - Gustav Mahler - Symphony No. 8 [disk I]\13 - Part One Hymnus - Veni, creator spiritus - 7. [Gloria Patri Domino].wav
Peak level 98.0 %
Track quality 100.0 %
Test CRC DD9CD05F
Copy CRC DD9CD05F
Cannot be verified as accurate (confidence 2) [871C22C9], AccurateRip returned [EF0BDDDA]
Copy OK
8 track(s) could not be verified as accurate
5 track(s) not present in the AccurateRip database
No tracks could be verified as accurate
You may have a different pressing from the one(s) in the database
No errors occurred
End of status report

CUE
REM GENRE Symphony
REM DATE 1959
REM DISCID B00A0E0D
REM COMMENT "ExactAudioCopy v0.99pb4"
PERFORMER "Jascha Horenstein, London Symphony Orchestra"
TITLE "Gustav Mahler - Symphony No. 8 [disk I]"
FILE "Jascha Horenstein, London Symphony Orchestra - Gustav Mahler - Symphony No. 8 [disk I]\01 - Introduction- Highlights of his Career.wav" WAVE
TRACK 01 AUDIO
TITLE "Introduction: Highlights of his Career"
PERFORMER "Jascha Horenstein, London Symphony Orchestra"
INDEX 01 00:00:00
FILE "Jascha Horenstein, London Symphony Orchestra - Gustav Mahler - Symphony No. 8 [disk I]\02 - First encounters with Mahler's music.wav" WAVE
TRACK 02 AUDIO
TITLE "First encounters with Mahler's music"
PERFORMER "Jascha Horenstein, London Symphony Orchestra"
INDEX 01 00:00:00
FILE "Jascha Horenstein, London Symphony Orchestra - Gustav Mahler - Symphony No. 8 [disk I]\03 - On Schoenberg, Berg and Webern.wav" WAVE
TRACK 03 AUDIO
TITLE "On Schoenberg, Berg and Webern"
PERFORMER "Jascha Horenstein, London Symphony Orchestra"
INDEX 01 00:00:00
FILE "Jascha Horenstein, London Symphony Orchestra - Gustav Mahler - Symphony No. 8 [disk I]\04 - On Bartok, Janacek, Nielsen and Furtwangler.wav" WAVE
TRACK 04 AUDIO
TITLE "On Bartok, Janacek, Nielsen and Furtwangler"
PERFORMER "Jascha Horenstein, London Symphony Orchestra"
INDEX 01 00:00:00
FILE "Jascha Horenstein, London Symphony Orchestra - Gustav Mahler - Symphony No. 8 [disk I]\05 - On Richard Strauss.wav" WAVE
TRACK 05 AUDIO
TITLE "On Richard Strauss"
PERFORMER "Jascha Horenstein, London Symphony Orchestra"
INDEX 01 00:00:00
TRACK 06 AUDIO
TITLE "Part One Hymnus : Veni, creator spiritus - 1. [Veni, creator spiritus!]"
PERFORMER "Jascha Horenstein, London Symphony Orchestra"
INDEX 00 03:19:40
FILE "Jascha Horenstein, London Symphony Orchestra - Gustav Mahler - Symphony No. 8 [disk I]\06 - Part One Hymnus - Veni, creator spiritus - 1. [Veni, creator spiritus!].wav" WAVE
INDEX 01 00:00:00
FILE "Jascha Horenstein, London Symphony Orchestra - Gustav Mahler - Symphony No. 8 [disk I]\07 - Part One Hymnus - Veni, creator spiritus - 2. [Imple superna gratia].wav" WAVE
TRACK 07 AUDIO
TITLE "Part One Hymnus : Veni, creator spiritus - 2. [Imple superna gratia]"
PERFORMER "Jascha Horenstein, London Symphony Orchestra"
INDEX 01 00:00:00
FILE "Jascha Horenstein, London Symphony Orchestra - Gustav Mahler - Symphony No. 8 [disk I]\08 - Part One Hymnus - Veni, creator spiritus - 3. [Infirma nostri corporis].wav" WAVE
TRACK 08 AUDIO
TITLE "Part One Hymnus : Veni, creator spiritus - 3. [Infirma nostri corporis]"
PERFORMER "Jascha Horenstein, London Symphony Orchestra"
INDEX 01 00:00:00
FILE "Jascha Horenstein, London Symphony Orchestra - Gustav Mahler - Symphony No. 8 [disk I]\09 - Part One Hymnus - Veni, creator spiritus - 4. Tempo I. (Allegro, etwas hastig).wav" WAVE
TRACK 09 AUDIO
TITLE "Part One Hymnus : Veni, creator spiritus - 4. Tempo I. (Allegro, etwas hastig)"
PERFORMER "Jascha Horenstein, London Symphony Orchestra"
INDEX 01 00:00:00
FILE "Jascha Horenstein, London Symphony Orchestra - Gustav Mahler - Symphony No. 8 [disk I]\10 - Part One Hymnus - Veni, creator spiritus - 5. [Infirma nostri corpis].wav" WAVE
TRACK 10 AUDIO
TITLE "Part One Hymnus : Veni, creator spiritus - 5. [Infirma nostri corpis]"
PERFORMER "Jascha Horenstein, London Symphony Orchestra"
INDEX 01 00:00:00
FILE "Jascha Horenstein, London Symphony Orchestra - Gustav Mahler - Symphony No. 8 [disk I]\11 - Part One Hymnus - Veni, creator spiritus - 6. [Accende lumen sensibus].wav" WAVE
TRACK 11 AUDIO
TITLE "Part One Hymnus : Veni, creator spiritus - 6. [Accende lumen sensibus]"
PERFORMER "Jascha Horenstein, London Symphony Orchestra"
INDEX 01 00:00:00
FILE "Jascha Horenstein, London Symphony Orchestra - Gustav Mahler - Symphony No. 8 [disk I]\12 - Part One Hymnus - Veni, creator spiritus - 6. [Qui Paraclitus Diceeris].wav" WAVE
TRACK 12 AUDIO
TITLE "Part One Hymnus : Veni, creator spiritus - 6. [Qui Paraclitus Diceeris]"
PERFORMER "Jascha Horenstein, London Symphony Orchestra"
INDEX 01 00:00:00
FILE "Jascha Horenstein, London Symphony Orchestra - Gustav Mahler - Symphony No. 8 [disk I]\13 - Part One Hymnus - Veni, creator spiritus - 7. [Gloria Patri Domino].wav" WAVE
TRACK 13 AUDIO
TITLE "Part One Hymnus : Veni, creator spiritus - 7. [Gloria Patri Domino]"
PERFORMER "Jascha Horenstein, London Symphony Orchestra"
INDEX 01 00:00:00


CD2
[1-13] G.Mahler - Symphony No.8 - Zweiter Teil
EAC
Exact Audio Copy V0.99 prebeta 4 from 23. January 2008
EAC extraction logfile from 17. March 2009, 10:45
Jascha Horenstein, London Symphony Orchestra / Gustav Mahler - Symphony No. 8 [disk II]
Used drive : HL-DT-STDVDRAM GSA-T20N Adapter: 1 ID: 0
Read mode : Secure
Utilize accurate stream : Yes
Defeat audio cache : No
Make use of C2 pointers : No
Read offset correction : 667
Overread into Lead-In and Lead-Out : No
Fill up missing offset samples with silence : Yes
Delete leading and trailing silent blocks : No
Null samples used in CRC calculations : Yes
Used interface : Native Win32 interface for Win NT & 2000
Gap handling : Appended to previous track
Used output format : User Defined Encoder
Selected bitrate : 320 kBit/s
Quality : High
Add ID3 tag : No
Command line compressor : C:\Program Files\FLAC\flac.exe
Additional command line options : -8 -V -T "artist=%a" -T "title=%t" -T "album=%g" -T "date=%y" -T "tracknumber=%n" -T "genre=%m" %s
TOC of the extracted CD
Track | Start | Length | Start sector | End sector
---------------------------------------------------------
1 | 0:00.00 | 8:23.22 | 0 | 37746
2 | 8:23.22 | 3:48.30 | 37747 | 54876
3 | 12:11.52 | 1:24.48 | 54877 | 61224
4 | 13:36.25 | 4:40.20 | 61225 | 82244
5 | 18:16.45 | 1:05.37 | 82245 | 87156
6 | 19:22.07 | 2:40.30 | 87157 | 99186
7 | 22:02.37 | 1:49.08 | 99187 | 107369
8 | 23:51.45 | 5:57.10 | 107370 | 134154
9 | 29:48.55 | 3:35.00 | 134155 | 150279
10 | 33:23.55 | 6:48.37 | 150280 | 180916
11 | 40:12.17 | 4:38.05 | 180917 | 201771
12 | 44:50.22 | 6:25.33 | 201772 | 230679
13 | 51:15.55 | 6:39.25 | 230680 | 260629
Track 1
Filename C:\Users\elemental5\Desktop\Mahler 8 Horenstein\Jascha Horenstein, London Symphony Orchestra - Gustav Mahler - Symphony No. 8 [disk II]\01 - Sym No 8, II - Poco Adagio.wav
Pre-gap length 0:00:02.00
Peak level 66.6 %
Track quality 100.0 %
Test CRC E6ACF844
Copy CRC E6ACF844
Track not present in AccurateRip database
Copy OK
Track 2
Filename C:\Users\elemental5\Desktop\Mahler 8 Horenstein\Jascha Horenstein, London Symphony Orchestra - Gustav Mahler - Symphony No. 8 [disk II]\02 - - 'Waldung, sie schwank heran'.wav
Peak level 16.2 %
Track quality 100.0 %
Test CRC 4E2F3E20
Copy CRC 4E2F3E20
Track not present in AccurateRip database
Copy OK
Track 3
Filename C:\Users\elemental5\Desktop\Mahler 8 Horenstein\Jascha Horenstein, London Symphony Orchestra - Gustav Mahler - Symphony No. 8 [disk II]\03 - - 'Ewiger Wonnebrand'.wav
Peak level 62.5 %
Track quality 99.8 %
Test CRC 46C79E89
Copy CRC 46C79E89
Track not present in AccurateRip database
Copy OK
Track 4
Filename C:\Users\elemental5\Desktop\Mahler 8 Horenstein\Jascha Horenstein, London Symphony Orchestra - Gustav Mahler - Symphony No. 8 [disk II]\04 - - 'Wie Felsenabgrund mir zu FьЯen'.wav
Peak level 76.9 %
Track quality 99.9 %
Test CRC B20EE575
Copy CRC B20EE575
Track not present in AccurateRip database
Copy OK
Track 5
Filename C:\Users\elemental5\Desktop\Mahler 8 Horenstein\Jascha Horenstein, London Symphony Orchestra - Gustav Mahler - Symphony No. 8 [disk II]\05 - - 'Gerettet ist das edle Glied'.wav
Peak level 75.4 %
Track quality 100.0 %
Test CRC 733A0625
Copy CRC 733A0625
Track not present in AccurateRip database
Copy OK
Track 6
Filename C:\Users\elemental5\Desktop\Mahler 8 Horenstein\Jascha Horenstein, London Symphony Orchestra - Gustav Mahler - Symphony No. 8 [disk II]\06 - - 'Jen Rosen, aus den Erdenrest'.wav
Peak level 91.0 %
Track quality 99.9 %
Test CRC A3AE22C9
Copy CRC A3AE22C9
Track not present in AccurateRip database
Copy OK
Track 7
Filename C:\Users\elemental5\Desktop\Mahler 8 Horenstein\Jascha Horenstein, London Symphony Orchestra - Gustav Mahler - Symphony No. 8 [disk II]\07 - - Uns bleibt ein Erdenrest'.wav
Peak level 24.0 %
Track quality 100.0 %
Test CRC 49112845
Copy CRC 49112845
Track not present in AccurateRip database
Copy OK
Track 8
Filename C:\Users\elemental5\Desktop\Mahler 8 Horenstein\Jascha Horenstein, London Symphony Orchestra - Gustav Mahler - Symphony No. 8 [disk II]\08 - - 'Ich spьr' soeben'.wav
Peak level 78.2 %
Track quality 100.0 %
Test CRC 4DFAEF36
Copy CRC 4DFAEF36
Track not present in AccurateRip database
Copy OK
Track 9
Filename C:\Users\elemental5\Desktop\Mahler 8 Horenstein\Jascha Horenstein, London Symphony Orchestra - Gustav Mahler - Symphony No. 8 [disk II]\09 - - Дusserst langsam, Adagissimo.wav
Peak level 56.2 %
Track quality 100.0 %
Test CRC 8A5A9F45
Copy CRC 8A5A9F45
Track not present in AccurateRip database
Copy OK
Track 10
Filename C:\Users\elemental5\Desktop\Mahler 8 Horenstein\Jascha Horenstein, London Symphony Orchestra - Gustav Mahler - Symphony No. 8 [disk II]\10 - - 'Bei der Liebe, die den FьЯen'.wav
Peak level 46.4 %
Track quality 100.0 %
Test CRC 68EDDF46
Copy CRC 68EDDF46
Track not present in AccurateRip database
Copy OK
Track 11
Filename C:\Users\elemental5\Desktop\Mahler 8 Horenstein\Jascha Horenstein, London Symphony Orchestra - Gustav Mahler - Symphony No. 8 [disk II]\11 - - 'Er ьberwдchst uns schon'.wav
Peak level 52.7 %
Track quality 100.0 %
Test CRC C4AC1B88
Copy CRC C4AC1B88
Track not present in AccurateRip database
Copy OK
Track 12
Filename C:\Users\elemental5\Desktop\Mahler 8 Horenstein\Jascha Horenstein, London Symphony Orchestra - Gustav Mahler - Symphony No. 8 [disk II]\12 - - 'Blicket, auf, alle reuig Zarten'.wav
Peak level 73.6 %
Track quality 100.0 %
Test CRC 88FE03BB
Copy CRC 88FE03BB
Track not present in AccurateRip database
Copy OK
Track 13
Filename C:\Users\elemental5\Desktop\Mahler 8 Horenstein\Jascha Horenstein, London Symphony Orchestra - Gustav Mahler - Symphony No. 8 [disk II]\13 - - 'Alles Vergдngliche'.wav
Peak level 98.0 %
Track quality 100.0 %
Test CRC 9FD72188
Copy CRC 9FD72188
Track not present in AccurateRip database
Copy OK
None of the tracks are present in the AccurateRip database
No errors occurred
End of status report

CUE
REM GENRE Symphony
REM DATE 1959
REM DISCID A40D930D
REM COMMENT "ExactAudioCopy v0.99pb4"
PERFORMER "Jascha Horenstein, London Symphony Orchestra"
TITLE "Gustav Mahler - Symphony No. 8 [disk II]"
FILE "Jascha Horenstein, London Symphony Orchestra - Gustav Mahler - Symphony No. 8 [disk II]\01 - Sym No 8, II - Poco Adagio.wav" WAVE
TRACK 01 AUDIO
TITLE "Sym No 8, II - Poco Adagio"
PERFORMER "Jascha Horenstein, London Symphony Orchestra"
INDEX 01 00:00:00
FILE "Jascha Horenstein, London Symphony Orchestra - Gustav Mahler - Symphony No. 8 [disk II]\02 - - 'Waldung, sie schwank heran'.wav" WAVE
TRACK 02 AUDIO
TITLE "- 'Waldung, sie schwank heran'"
PERFORMER "Jascha Horenstein, London Symphony Orchestra"
INDEX 01 00:00:00
FILE "Jascha Horenstein, London Symphony Orchestra - Gustav Mahler - Symphony No. 8 [disk II]\03 - - 'Ewiger Wonnebrand'.wav" WAVE
TRACK 03 AUDIO
TITLE "- 'Ewiger Wonnebrand'"
PERFORMER "Jascha Horenstein, London Symphony Orchestra"
INDEX 01 00:00:00
FILE "Jascha Horenstein, London Symphony Orchestra - Gustav Mahler - Symphony No. 8 [disk II]\04 - - 'Wie Felsenabgrund mir zu FьЯen'.wav" WAVE
TRACK 04 AUDIO
TITLE "- 'Wie Felsenabgrund mir zu FьЯen'"
PERFORMER "Jascha Horenstein, London Symphony Orchestra"
INDEX 01 00:00:00
FILE "Jascha Horenstein, London Symphony Orchestra - Gustav Mahler - Symphony No. 8 [disk II]\05 - - 'Gerettet ist das edle Glied'.wav" WAVE
TRACK 05 AUDIO
TITLE "- 'Gerettet ist das edle Glied'"
PERFORMER "Jascha Horenstein, London Symphony Orchestra"
INDEX 01 00:00:00
FILE "Jascha Horenstein, London Symphony Orchestra - Gustav Mahler - Symphony No. 8 [disk II]\06 - - 'Jen Rosen, aus den Erdenrest'.wav" WAVE
TRACK 06 AUDIO
TITLE "- 'Jen Rosen, aus den Erdenrest'"
PERFORMER "Jascha Horenstein, London Symphony Orchestra"
INDEX 01 00:00:00
FILE "Jascha Horenstein, London Symphony Orchestra - Gustav Mahler - Symphony No. 8 [disk II]\07 - - Uns bleibt ein Erdenrest'.wav" WAVE
TRACK 07 AUDIO
TITLE "- Uns bleibt ein Erdenrest'"
PERFORMER "Jascha Horenstein, London Symphony Orchestra"
INDEX 01 00:00:00
FILE "Jascha Horenstein, London Symphony Orchestra - Gustav Mahler - Symphony No. 8 [disk II]\08 - - 'Ich spьr' soeben'.wav" WAVE
TRACK 08 AUDIO
TITLE "- 'Ich spьr' soeben'"
PERFORMER "Jascha Horenstein, London Symphony Orchestra"
INDEX 01 00:00:00
FILE "Jascha Horenstein, London Symphony Orchestra - Gustav Mahler - Symphony No. 8 [disk II]\09 - - Дusserst langsam, Adagissimo.wav" WAVE
TRACK 09 AUDIO
TITLE "- Дusserst langsam, Adagissimo"
PERFORMER "Jascha Horenstein, London Symphony Orchestra"
INDEX 01 00:00:00
FILE "Jascha Horenstein, London Symphony Orchestra - Gustav Mahler - Symphony No. 8 [disk II]\10 - - 'Bei der Liebe, die den FьЯen'.wav" WAVE
TRACK 10 AUDIO
TITLE "- 'Bei der Liebe, die den FьЯen'"
PERFORMER "Jascha Horenstein, London Symphony Orchestra"
INDEX 01 00:00:00
FILE "Jascha Horenstein, London Symphony Orchestra - Gustav Mahler - Symphony No. 8 [disk II]\11 - - 'Er ьberwдchst uns schon'.wav" WAVE
TRACK 11 AUDIO
TITLE "- 'Er ьberwдchst uns schon'"
PERFORMER "Jascha Horenstein, London Symphony Orchestra"
INDEX 01 00:00:00
FILE "Jascha Horenstein, London Symphony Orchestra - Gustav Mahler - Symphony No. 8 [disk II]\12 - - 'Blicket, auf, alle reuig Zarten'.wav" WAVE
TRACK 12 AUDIO
TITLE "- 'Blicket, auf, alle reuig Zarten'"
PERFORMER "Jascha Horenstein, London Symphony Orchestra"
INDEX 01 00:00:00
FILE "Jascha Horenstein, London Symphony Orchestra - Gustav Mahler - Symphony No. 8 [disk II]\13 - - 'Alles Vergдngliche'.wav" WAVE
TRACK 13 AUDIO
TITLE "- 'Alles Vergдngliche'"
PERFORMER "Jascha Horenstein, London Symphony Orchestra"
INDEX 01 00:00:00

London Symphony Orchestra
BBC Chorus
BBC Choral Society
Goldsmith's Choral Union
Hampstead Choral Society
Emanuel School Boys' Choir
Orpington Junior Singers
Goldsmith's Choral Union
Soloists: Joyce Barker, Agnes Giebel and Bery ll Hatt, sopranos;
Kerstin Meyer and Helen Watts, contraltos;
Kenneth Neate, tenor;
Alfred Orda, baritone;
Arnold van Mill, bass.
Доп. информация:

                                                                                       
                       
                       
                       
                       
                       
                                磁力下载(论坛代下载服务)::
                                                               
                                       
付费主题

已有0人支付


                                               
  • 456.7 MB
  • 温馨提示

    记得善用社区搜索功能,那里可能会有你想要的资源;论坛站内搜索

    如果你有什么需要的资源可以去资源求档发帖,求助社区的网友,我们会在第一时间给你回复哦;资源求档

    对于本社区网盘链接失效密码错误各种报错请在反馈板块反馈报错发帖,您的支持,是我们发展的最大动力;投诉建议

    回复

    使用道具 举报

    您需要登录后才可以回帖 登录 | 立即注册 微信登录

    本版积分规则

    关注0

    粉丝1

    帖子32192

    发布主题
    阅读排行更多+
    关闭

    站长推荐上一条 /1 下一条

    活动提示

    赞助永久VIP会员送3T硬盘一块 限时活动

    地址:立刻参加

    我知道了
    收藏帖子 返回列表 这是一个自定义按钮
    音乐分享,音乐下载。
    微信公众号
    微信号:hires_
    意见反馈:admin@maomicd.com

    加入我们的官方QQ群和微信群

    Powered by Discuz! X3.4 Archiver|手机版|小黑屋|捌零音乐论坛 ( 苏ICP备20015413号 )|( 苏公网安备 32030502000272号) 繁體

    GMT+8, 2021-9-26 08:43