[古典] (Classical) Gustav Mahler - Symphony No.5 - Minnesota Orchestra, Osmo Vänskä (Vanska) - 2017, FLAC (image+.cue) lossless

[复制链接]
10086 发表于 2021-9-10 16:56:55 | 显示全部楼层 |阅读模式 打印 上一主题 下一主题
Gustav Mahler - Symphony No.5 - Minnesota Orchestra, Osmo Vänskä
Жанр: Classical
Страна-производитель диска: Sweden
Год издания диска: 2017
Издатель (лейбл): BIS
Номер по каталогу: BIS-SACD-2226
Дата записи: 2016
Аудиокодек: FLAC
Тип рипа: image+.cue
Битрейт аудио: lossless
Продолжительность: 75:30
Источник: собственный рип
Наличие сканов в содержимом раздачи: да
Треклист:
Gustav Mahler (1860–1911)
[1]-[5] Symphony No.5 in C sharp minor (1901–02)
Исполнители:
Minnesota Orchestra
Osmo Vänskä conductor
Лог создания рипа

Exact Audio Copy V1.3 from 2. September 2016
EAC extraction logfile from 4. January 2018, 22:56
Minnesota Orchestra, Osmo Vänskä / Gustav Mahler - Symphony No.5
Used drive  : PLDS    DVD-RW DU8A6SH   Adapter: 1  ID: 0
Read mode               : Secure
Utilize accurate stream : Yes
Defeat audio cache      : Yes
Make use of C2 pointers : No
Read offset correction                      : 6
Overread into Lead-In and Lead-Out          : No
Fill up missing offset samples with silence : Yes
Delete leading and trailing silent blocks   : No
Null samples used in CRC calculations       : Yes
Used interface                              : Native Win32 interface for Win NT & 2000
Used output format              : User Defined Encoder
Selected bitrate                : 128 kBit/s
Quality                         : High
Add ID3 tag                     : No
Command line compressor         : C:\Program Files (x86)\Exact Audio Copy\Flac\flac.exe
Additional command line options : -V -8 -T "Date=%year%" -T "Genre=%genre%" %source%
TOC of the extracted CD
     Track |   Start  |  Length  | Start sector | End sector
    ---------------------------------------------------------
        1  |  0:00.00 | 13:09.16 |         0    |    59190
        2  | 13:09.16 | 15:46.00 |     59191    |   130140
        3  | 28:55.16 | 17:57.43 |    130141    |   210958
        4  | 46:52.59 | 12:39.69 |    210959    |   267952
        5  | 59:32.53 | 15:57.72 |    267953    |   339799
Range status and errors
Selected range
     Filename C:\temp\BIS-SACD-2226 - Mahler - Symphony No.5\Mahler - Symphony No.5.wav
     Peak level 95.9 %
     Extraction speed 4.0 X
     Range quality 100.0 %
     Test CRC 1C3FCD7D
     Copy CRC 1C3FCD7D
     Copy OK
No errors occurred
AccurateRip summary
Track  1  accurately ripped (confidence 6)  [8512613F]  (AR v2)
Track  2  accurately ripped (confidence 6)  [B97B2DF5]  (AR v2)
Track  3  accurately ripped (confidence 6)  [737142C0]  (AR v2)
Track  4  accurately ripped (confidence 6)  [F9A4A9A6]  (AR v2)
Track  5  accurately ripped (confidence 6)  [3ADF70AC]  (AR v2)
All tracks accurately ripped
End of status report
==== Log checksum 0EC862A801D514255AFF57CFD3E6097B7150775FCA671996826AD7EA17CF6EF8 ====

                                                                                       
                       
                       
                       
                       
                       
                                磁力下载(论坛代下载服务)::
                                                               
                                       
付费主题

已有0人支付


                                               
  • 301.8 MB
  • 温馨提示

    记得善用社区搜索功能,那里可能会有你想要的资源;论坛站内搜索

    如果你有什么需要的资源可以去资源求档发帖,求助社区的网友,我们会在第一时间给你回复哦;资源求档

    对于本社区网盘链接失效密码错误各种报错请在反馈板块反馈报错发帖,您的支持,是我们发展的最大动力;投诉建议

    回复

    使用道具 举报

    您需要登录后才可以回帖 登录 | 立即注册 微信登录

    本版积分规则

    关注0

    粉丝7

    帖子52319

    发布主题
    阅读排行更多+
    关闭

    站长推荐上一条 /1 下一条

    活动提示

    赞助永久VIP会员送3T硬盘一块 限时活动

    地址:立刻参加

    我知道了
    收藏帖子 返回列表 这是一个自定义按钮
    音乐分享,音乐下载。
    微信公众号
    微信号:hires_
    意见反馈:admin@maomicd.com

    加入我们的官方QQ群和微信群

    Powered by Discuz! X3.4 Archiver|手机版|小黑屋|捌零音乐论坛 ( 苏ICP备20015413号 )|( 苏公网安备 32030502000272号) 繁體

    GMT+8, 2021-9-24 04:52