[古典] (Classical) Ludwig van Beethoven: The Complete Symphonies (Czech Philharmonic Orchestra, Paul Kletzki) — 2011, FLAC (tracks+.cue) lossless

[复制链接]
如果有神 发表于 2021-9-10 16:56:55 | 显示全部楼层 |阅读模式 打印 上一主题 下一主题
Ludwig van Beethoven: The Complete Symphonies
Жанр: Classical
Страна-производитель диска: Czech Republic
Год издания диска: 2011
Издатель (лейбл): Supraphon
Номер по каталогу: SU 4051-2
Дата записи: 1964 (Op. 62, 84 & 125), 1965 (Op. 60 & 68), 1967 (Op. 55, 67, 92 & 93), 1968 (Op. 21 & 36)
Аудио кодек: flac
Тип рипа: tracks+.cue
Битрейт аудио: lossless
Продолжительность: 6h04'22"
Источник: intoclassics
Наличие сканов в содержимом раздачи: даТреклист:
CD1 [59'24"]
(01-04) Symphony № 1 C-Dur Op. 21 [25'47"]
(05-08) Symphony № 2 D-Dur Op. 36 [33'38"]

CD2 [56'36"]
(01-04) Symphony № 3 Es-Dur Op. 55 «Eroica» [47'51"]
(05) Overture «Egmont» № 1 f-moll Op. 84 [8'46"]

CD3 [1h05'37"]
(01-04) Symphony № 4 B-Dur Op. 60 [33'21"]
(05-08) Symphony № 5 c-moll Op. 67 [32'16"]

CD4 [52'15"]
(01-05) Symphony № 6 F-Dur Op. 68 «Pastorale» [44'02"]
(06) Overture «Coriolanus» e-moll Op. 62 [8'13"]

CD5 [1h02'44"]
(01-04) Symphony № 7 A-Dur Op. 92 [36'42"]
(05-08) Symphony № 8 F-Dur Op. 93 [26'02"]

CD6 [1h07'44"]
(01-04) Symphony № 9 d-moll Op. 125 «Choral» [01h07'44"]
Исполнители:
Czech Philharmonic Orchestra Paul Kletzki
Czech Philharmonic Chorus Josef Veselka (Op. 125)
Ingeborg Wenglor soprano, Annelis Burmeister mezzo-soprano, Martin Ritzmann tenor, Rolf Kühne bass (Op. 125)
XLD

CD1

X Lossless Decoder version 20140504 (147.0)
XLD extraction logfile from 2014-07-26 15:56:58 -0600
Czech Philharmonic Orchestra, Paul Kletzki / Ludwig van Beethoven Complete Symphonies
Used drive : HL-DT-ST DVDRW  GS31N (revision TA17)
Media type : Pressed CD
Ripper mode             : XLD Secure Ripper
Disable audio cache     : OK for the drive with a cache less than 1375KiB
Make use of C2 pointers : NO
Read offset correction  : 667
Max retry count         : 20
Gap status              : Analyzed, Appended (except HTOA)
TOC of the extracted CD
     Track |   Start  |  Length  | Start sector | End sector
    ---------------------------------------------------------
        1  | 00:00:00 | 09:35:38 |         0    |    43162
        2  | 09:35:38 | 06:29:06 |     43163    |    72343
        3  | 16:04:44 | 03:48:28 |     72344    |    89471
        4  | 19:52:72 | 05:53:58 |     89472    |   116004
        5  | 25:46:55 | 12:35:15 |    116005    |   172644
        6  | 38:21:70 | 10:52:19 |    172645    |   221563
        7  | 49:14:14 | 03:59:44 |    221564    |   239532
        8  | 53:13:58 | 06:10:47 |    239533    |   267329
AccurateRip Summary (DiscID: 0012a5a8-007c5d34-7b0dec08)
    Track 01 : OK (v2, confidence 3/3)
    Track 02 : OK (v2, confidence 3/3)
    Track 03 : OK (v2, confidence 3/3)
    Track 04 : OK (v2, confidence 3/3)
    Track 05 : OK (v2, confidence 3/3)
    Track 06 : OK (v2, confidence 3/3)
    Track 07 : OK (v2, confidence 3/3)
    Track 08 : OK (v2, confidence 3/3)
        ->All tracks accurately ripped.
All Tracks
    Album gain               : 0.22 dB
    Peak                     : 0.890320
    Statistics
        Read error                           : 0
        Jitter error (maybe fixed)           : 0
        Retry sector count                   : 0
        Damaged sector count                 : 0
Track 01
    Filename : /Volumes/Music Torrents/Music Torrents/Czech Phil.-Kletzki - Beethoven Symphonies (2011) FLAC/Czech Phil.-Kletzki Disc 1/01 Czech Philharmonic Orchestra, Paul Kletzki - Symphony No. 1В¦ I. Adagio molto - Allegro con brio.flac
    Pre-gap length : 00:02:00
    Track gain               : 0.95 dB
    Peak                     : 0.733704
    CRC32 hash (test run)    : D36E57C9
    CRC32 hash               : D36E57C9
    CRC32 hash (skip zero)   : 6075EAE5
    AccurateRip v1 signature : 452744FD
    AccurateRip v2 signature : E04ABAA4
        ->Accurately ripped (v2, confidence 3/3)
    Statistics
        Read error                           : 0
        Jitter error (maybe fixed)           : 0
        Retry sector count                   : 0
        Damaged sector count                 : 0
Track 02
    Filename : /Volumes/Music Torrents/Music Torrents/Czech Phil.-Kletzki - Beethoven Symphonies (2011) FLAC/Czech Phil.-Kletzki Disc 1/02 Czech Philharmonic Orchestra, Paul Kletzki - Symphony No. 1В¦ II. Andante cantabile con moto.flac
    Pre-gap length : 00:02:53
    Track gain               : 1.31 dB
    Peak                     : 0.773682
    CRC32 hash (test run)    : 13D54DC8
    CRC32 hash               : 13D54DC8
    CRC32 hash (skip zero)   : 83B00EF5
    AccurateRip v1 signature : 67EDC2E4
    AccurateRip v2 signature : 4EED1E49
        ->Accurately ripped (v2, confidence 3/3)
    Statistics
        Read error                           : 0
        Jitter error (maybe fixed)           : 0
        Retry sector count                   : 0
        Damaged sector count                 : 0
Track 03
    Filename : /Volumes/Music Torrents/Music Torrents/Czech Phil.-Kletzki - Beethoven Symphonies (2011) FLAC/Czech Phil.-Kletzki Disc 1/03 Czech Philharmonic Orchestra, Paul Kletzki - Symphony No. 1В¦ III. Menuette.flac
    Pre-gap length : 00:03:13
    Track gain               : -0.28 dB
    Peak                     : 0.694336
    CRC32 hash (test run)    : 9C113E30
    CRC32 hash               : 9C113E30
    CRC32 hash (skip zero)   : C3665D23
    AccurateRip v1 signature : 27D6B645
    AccurateRip v2 signature : 64EBB18F
        ->Accurately ripped (v2, confidence 3/3)
    Statistics
        Read error                           : 0
        Jitter error (maybe fixed)           : 0
        Retry sector count                   : 0
        Damaged sector count                 : 0
Track 04
    Filename : /Volumes/Music Torrents/Music Torrents/Czech Phil.-Kletzki - Beethoven Symphonies (2011) FLAC/Czech Phil.-Kletzki Disc 1/04 Czech Philharmonic Orchestra, Paul Kletzki - Symphony No. 1В¦ IV. Adagio - Allegro molto e vivace.flac
    Pre-gap length : 00:01:43
    Track gain               : 0.21 dB
    Peak                     : 0.890167
    CRC32 hash (test run)    : 54F356AA
    CRC32 hash               : 54F356AA
    CRC32 hash (skip zero)   : 1D36F07B
    AccurateRip v1 signature : EA5517CA
    AccurateRip v2 signature : CCACFB5E
        ->Accurately ripped (v2, confidence 3/3)
    Statistics
        Read error                           : 0
        Jitter error (maybe fixed)           : 0
        Retry sector count                   : 0
        Damaged sector count                 : 0
Track 05
    Filename : /Volumes/Music Torrents/Music Torrents/Czech Phil.-Kletzki - Beethoven Symphonies (2011) FLAC/Czech Phil.-Kletzki Disc 1/05 Czech Philharmonic Orchestra, Paul Kletzki - Symphony No. 2В¦ I. Adagio molto - Allegro con brio.flac
    Pre-gap length : 00:08:02
    Track gain               : -0.76 dB
    Peak                     : 0.890320
    CRC32 hash (test run)    : AB824C38
    CRC32 hash               : AB824C38
    CRC32 hash (skip zero)   : 98B933A9
    AccurateRip v1 signature : A86FCB89
    AccurateRip v2 signature : BE4882DA
        ->Accurately ripped (v2, confidence 3/3)
    Statistics
        Read error                           : 0
        Jitter error (maybe fixed)           : 0
        Retry sector count                   : 0
        Damaged sector count                 : 0
Track 06
    Filename : /Volumes/Music Torrents/Music Torrents/Czech Phil.-Kletzki - Beethoven Symphonies (2011) FLAC/Czech Phil.-Kletzki Disc 1/06 Czech Philharmonic Orchestra, Paul Kletzki - Symphony No. 2В¦ II. Larghetto.flac
    Pre-gap length : 00:03:10
    Track gain               : 1.39 dB
    Peak                     : 0.672028
    CRC32 hash (test run)    : 963802A1
    CRC32 hash               : 963802A1
    CRC32 hash (skip zero)   : 31944FCA
    AccurateRip v1 signature : 5217B10B
    AccurateRip v2 signature : 48AACCD6
        ->Accurately ripped (v2, confidence 3/3)
    Statistics
        Read error                           : 0
        Jitter error (maybe fixed)           : 0
        Retry sector count                   : 0
        Damaged sector count                 : 0
Track 07
    Filename : /Volumes/Music Torrents/Music Torrents/Czech Phil.-Kletzki - Beethoven Symphonies (2011) FLAC/Czech Phil.-Kletzki Disc 1/07 Czech Philharmonic Orchestra, Paul Kletzki - Symphony No. 2В¦ III. Scherzo. Allegro.flac
    Pre-gap length : 00:02:00
    Track gain               : 1.74 dB
    Peak                     : 0.671448
    CRC32 hash (test run)    : D3915352
    CRC32 hash               : D3915352
    CRC32 hash (skip zero)   : 9AD5AA73
    AccurateRip v1 signature : C49E76E3
    AccurateRip v2 signature : C5603CDA
        ->Accurately ripped (v2, confidence 3/3)
    Statistics
        Read error                           : 0
        Jitter error (maybe fixed)           : 0
        Retry sector count                   : 0
        Damaged sector count                 : 0
Track 08
    Filename : /Volumes/Music Torrents/Music Torrents/Czech Phil.-Kletzki - Beethoven Symphonies (2011) FLAC/Czech Phil.-Kletzki Disc 1/08 Czech Philharmonic Orchestra, Paul Kletzki - Symphony No. 2В¦ IV. Allegro molto.flac
    Pre-gap length : 00:01:49
    Track gain               : 0.09 dB
    Peak                     : 0.789856
    CRC32 hash (test run)    : B73D6A85
    CRC32 hash               : B73D6A85
    CRC32 hash (skip zero)   : 4777AD9D
    AccurateRip v1 signature : 376B9A21
    AccurateRip v2 signature : AEBCC094
        ->Accurately ripped (v2, confidence 3/3)
    Statistics
        Read error                           : 0
        Jitter error (maybe fixed)           : 0
        Retry sector count                   : 0
        Damaged sector count                 : 0
No errors occurred
End of status report
-----BEGIN XLD SIGNATURE-----
1ulh.97ltJtPKiKEOV0nxCfxSUpyfDOF67OPJKRVA0uwTxRoclflQqu4QAlC1SgAvp90rHB9_caMYtONiTn9WvN7_NEj3iiasOUI3KG
-----END XLD SIGNATURE-----

CD2

X Lossless Decoder version 20140504 (147.0)
XLD extraction logfile from 2014-07-26 13:46:26 -0600
Czech Philharmonic Orchestra, Paul Kletzki / Ludwig van Beethoven Complete Symphonies
Used drive : HL-DT-ST DVDRW  GS31N (revision TA17)
Media type : Pressed CD
Ripper mode             : XLD Secure Ripper
Disable audio cache     : OK for the drive with a cache less than 1375KiB
Make use of C2 pointers : NO
Read offset correction  : 667
Max retry count         : 20
Gap status              : Analyzed, Appended (except HTOA)
TOC of the extracted CD
     Track |   Start  |  Length  | Start sector | End sector
    ---------------------------------------------------------
        1  | 00:00:00 | 14:18:00 |         0    |    64349
        2  | 14:18:00 | 15:19:68 |     64350    |   133342
        3  | 29:37:68 | 06:03:24 |    133343    |   160591
        4  | 35:41:17 | 12:09:44 |    160592    |   215310
        5  | 47:50:61 | 08:45:49 |    215311    |   254734
AccurateRip Summary (DiscID: 000ca3ab-00399e3f-450d4405)
    Track 01 : OK (v2, confidence 3/3)
    Track 02 : OK (v2, confidence 3/3)
    Track 03 : OK (v2, confidence 3/3)
    Track 04 : OK (v2, confidence 3/3)
    Track 05 : OK (v2, confidence 3/3)
        ->All tracks accurately ripped.
All Tracks
    Album gain               : -0.66 dB
    Peak                     : 0.890808
    Statistics
        Read error                           : 0
        Jitter error (maybe fixed)           : 0
        Retry sector count                   : 0
        Damaged sector count                 : 0
Track 01
    Filename : /Volumes/Music Torrents/Music Torrents/Czech Phil.-Kletzki - Beethoven Symphonies (2011) FLAC/Czech Phil.-Kletzki Disc 2/01 Czech Philharmonic Orchestra, Paul Kletzki - Symphony No. 3В¦ I. Allegro con brio.flac
    Pre-gap length : 00:02:00
    Track gain               : -1.08 dB
    Peak                     : 0.890808
    CRC32 hash (test run)    : 8014765A
    CRC32 hash               : 8014765A
    CRC32 hash (skip zero)   : 00BCAF8A
    AccurateRip v1 signature : CB112A39
    AccurateRip v2 signature : 806B80A6
        ->Accurately ripped (v2, confidence 3/3)
    Statistics
        Read error                           : 0
        Jitter error (maybe fixed)           : 0
        Retry sector count                   : 0
        Damaged sector count                 : 0
Track 02
    Filename : /Volumes/Music Torrents/Music Torrents/Czech Phil.-Kletzki - Beethoven Symphonies (2011) FLAC/Czech Phil.-Kletzki Disc 2/02 Czech Philharmonic Orchestra, Paul Kletzki - Symphony No. 3В¦ II. Marcia funebre.flac
    Pre-gap length : 00:02:12
    Track gain               : 0.97 dB
    Peak                     : 0.811066
    CRC32 hash (test run)    : 64A6B85A
    CRC32 hash               : 64A6B85A
    CRC32 hash (skip zero)   : 2D0C8C80
    AccurateRip v1 signature : 82FC1EEE
    AccurateRip v2 signature : D8345D66
        ->Accurately ripped (v2, confidence 3/3)
    Statistics
        Read error                           : 0
        Jitter error (maybe fixed)           : 0
        Retry sector count                   : 0
        Damaged sector count                 : 0
Track 03
    Filename : /Volumes/Music Torrents/Music Torrents/Czech Phil.-Kletzki - Beethoven Symphonies (2011) FLAC/Czech Phil.-Kletzki Disc 2/03 Czech Philharmonic Orchestra, Paul Kletzki - Symphony No. 3В¦ III. Scherzo. Allegro vivace.flac
    Pre-gap length : 00:01:39
    Track gain               : 0.46 dB
    Peak                     : 0.794220
    CRC32 hash (test run)    : 913AE0CE
    CRC32 hash               : 913AE0CE
    CRC32 hash (skip zero)   : FA65D63D
    AccurateRip v1 signature : E3A57E5C
    AccurateRip v2 signature : 985D3076
        ->Accurately ripped (v2, confidence 3/3)
    Statistics
        Read error                           : 0
        Jitter error (maybe fixed)           : 0
        Retry sector count                   : 0
        Damaged sector count                 : 0
Track 04
    Filename : /Volumes/Music Torrents/Music Torrents/Czech Phil.-Kletzki - Beethoven Symphonies (2011) FLAC/Czech Phil.-Kletzki Disc 2/04 Czech Philharmonic Orchestra, Paul Kletzki - Symphony No. 3В¦ IV. Finale. Allegro molto.flac
    Track gain               : -0.33 dB
    Peak                     : 0.865112
    CRC32 hash (test run)    : 6D86383A
    CRC32 hash               : 6D86383A
    CRC32 hash (skip zero)   : 1E335F4C
    AccurateRip v1 signature : D3B7555D
    AccurateRip v2 signature : 3B7A877B
        ->Accurately ripped (v2, confidence 3/3)
    Statistics
        Read error                           : 0
        Jitter error (maybe fixed)           : 0
        Retry sector count                   : 0
        Damaged sector count                 : 0
Track 05
    Filename : /Volumes/Music Torrents/Music Torrents/Czech Phil.-Kletzki - Beethoven Symphonies (2011) FLAC/Czech Phil.-Kletzki Disc 2/05 Czech Philharmonic Orchestra, Paul Kletzki - Egmont Overture.flac
    Pre-gap length : 00:08:09
    Track gain               : -2.46 dB
    Peak                     : 0.793365
    CRC32 hash (test run)    : 9ADE4786
    CRC32 hash               : 9ADE4786
    CRC32 hash (skip zero)   : 87541C6E
    AccurateRip v1 signature : A2CBFC45
    AccurateRip v2 signature : E4E8FE92
        ->Accurately ripped (v2, confidence 3/3)
    Statistics
        Read error                           : 0
        Jitter error (maybe fixed)           : 0
        Retry sector count                   : 0
        Damaged sector count                 : 0
No errors occurred
End of status report
-----BEGIN XLD SIGNATURE-----
Kf0xJbWKTNpMd0TTZimjdt1h7eje_krJTcBwh2_76vO1Knn0tB2VLz4eh3I0mQIbA1JPzRp0Pj3axN.PxJF09n9vJ4m8WFU5olBiNre
-----END XLD SIGNATURE-----

CD3

X Lossless Decoder version 20140504 (147.0)
XLD extraction logfile from 2014-07-26 16:32:54 -0600
Czech Philharmonic Orchestra, Paul Kletzki / Ludwig van Beethoven Complete Symphonies
Used drive : HL-DT-ST DVDRW  GS31N (revision TA17)
Media type : Pressed CD
Ripper mode             : XLD Secure Ripper
Disable audio cache     : OK for the drive with a cache less than 1375KiB
Make use of C2 pointers : NO
Read offset correction  : 667
Max retry count         : 20
Gap status              : Analyzed, Appended (except HTOA)
TOC of the extracted CD
     Track |   Start  |  Length  | Start sector | End sector
    ---------------------------------------------------------
        1  | 00:00:00 | 09:33:35 |         0    |    43009
        2  | 09:33:35 | 10:25:66 |     43010    |    89950
        3  | 19:59:26 | 06:10:35 |     89951    |   117735
        4  | 26:09:61 | 07:10:70 |    117736    |   150055
        5  | 33:20:56 | 07:57:74 |    150056    |   185904
        6  | 41:18:55 | 09:58:54 |    185905    |   230808
        7  | 51:17:34 | 05:38:40 |    230809    |   256198
        8  | 56:55:74 | 08:40:73 |    256199    |   295271
AccurateRip Summary (DiscID: 0014e36a-00898fbf-590f6008)
    Track 01 : OK (v2, confidence 3/3)
    Track 02 : OK (v2, confidence 3/3)
    Track 03 : OK (v2, confidence 3/3)
    Track 04 : OK (v2, confidence 3/3)
    Track 05 : OK (v2, confidence 3/3)
    Track 06 : OK (v2, confidence 3/3)
    Track 07 : OK (v2, confidence 3/3)
    Track 08 : OK (v2, confidence 3/3)
        ->All tracks accurately ripped.
All Tracks
    Album gain               : -0.31 dB
    Peak                     : 0.890472
    Statistics
        Read error                           : 0
        Jitter error (maybe fixed)           : 0
        Retry sector count                   : 0
        Damaged sector count                 : 0
Track 01
    Filename : /Volumes/Music Torrents/Music Torrents/Czech Phil.-Kletzki - Beethoven Symphonies (2011) FLAC/Czech Phil.-Kletzki Disc 3/01 Czech Philharmonic Orchestra, Paul Kletzki - Symphony No. 4В¦ I. Adago - Allegro vivace.flac
    Pre-gap length : 00:02:00
    Track gain               : 0.19 dB
    Peak                     : 0.627502
    CRC32 hash (test run)    : 3B2BAC03
    CRC32 hash               : 3B2BAC03
    CRC32 hash (skip zero)   : B0F7965F
    AccurateRip v1 signature : FC32E498
    AccurateRip v2 signature : D7FB9235
        ->Accurately ripped (v2, confidence 3/3)
    Statistics
        Read error                           : 0
        Jitter error (maybe fixed)           : 0
        Retry sector count                   : 0
        Damaged sector count                 : 0
Track 02
    Filename : /Volumes/Music Torrents/Music Torrents/Czech Phil.-Kletzki - Beethoven Symphonies (2011) FLAC/Czech Phil.-Kletzki Disc 3/02 Czech Philharmonic Orchestra, Paul Kletzki - Symphony No. 4В¦ II. Adagio.flac
    Pre-gap length : 00:03:25
    Track gain               : 4.56 dB
    Peak                     : 0.509064
    CRC32 hash (test run)    : 7BDC1557
    CRC32 hash               : 7BDC1557
    CRC32 hash (skip zero)   : 81D9DB7F
    AccurateRip v1 signature : E9811678
    AccurateRip v2 signature : 0EF57860
        ->Accurately ripped (v2, confidence 3/3)
    Statistics
        Read error                           : 0
        Jitter error (maybe fixed)           : 0
        Retry sector count                   : 0
        Damaged sector count                 : 0
Track 03
    Filename : /Volumes/Music Torrents/Music Torrents/Czech Phil.-Kletzki - Beethoven Symphonies (2011) FLAC/Czech Phil.-Kletzki Disc 3/03 Czech Philharmonic Orchestra, Paul Kletzki - Symphony No. 4В¦ III. Allegro vivace.flac
    Pre-gap length : 00:03:27
    Track gain               : 0.47 dB
    Peak                     : 0.746674
    CRC32 hash (test run)    : DF86C7D1
    CRC32 hash               : DF86C7D1
    CRC32 hash (skip zero)   : C6A7BE5B
    AccurateRip v1 signature : 87AD4B03
    AccurateRip v2 signature : D7B0C596
        ->Accurately ripped (v2, confidence 3/3)
    Statistics
        Read error                           : 0
        Jitter error (maybe fixed)           : 0
        Retry sector count                   : 0
        Damaged sector count                 : 0
Track 04
    Filename : /Volumes/Music Torrents/Music Torrents/Czech Phil.-Kletzki - Beethoven Symphonies (2011) FLAC/Czech Phil.-Kletzki Disc 3/04 Czech Philharmonic Orchestra, Paul Kletzki - Symphony No. 4В¦ IV. Allegro ma non troppo.flac
    Pre-gap length : 00:03:27
    Track gain               : 2.84 dB
    Peak                     : 0.589905
    CRC32 hash (test run)    : 9F6D2CB6
    CRC32 hash               : 9F6D2CB6
    CRC32 hash (skip zero)   : 5EC99471
    AccurateRip v1 signature : 922104FB
    AccurateRip v2 signature : 8C95B88C
        ->Accurately ripped (v2, confidence 3/3)
    Statistics
        Read error                           : 0
        Jitter error (maybe fixed)           : 0
        Retry sector count                   : 0
        Damaged sector count                 : 0
Track 05
    Filename : /Volumes/Music Torrents/Music Torrents/Czech Phil.-Kletzki - Beethoven Symphonies (2011) FLAC/Czech Phil.-Kletzki Disc 3/05 Czech Philharmonic Orchestra, Paul Kletzki - Symphony No. 5В¦ I. Allegro con brio.flac
    Pre-gap length : 00:07:63
    Track gain               : -1.28 dB
    Peak                     : 0.837646
    CRC32 hash (test run)    : 87396B99
    CRC32 hash               : 87396B99
    CRC32 hash (skip zero)   : D41EB130
    AccurateRip v1 signature : 0CB8907F
    AccurateRip v2 signature : A6AB9E91
        ->Accurately ripped (v2, confidence 3/3)
    Statistics
        Read error                           : 0
        Jitter error (maybe fixed)           : 0
        Retry sector count                   : 0
        Damaged sector count                 : 0
Track 06
    Filename : /Volumes/Music Torrents/Music Torrents/Czech Phil.-Kletzki - Beethoven Symphonies (2011) FLAC/Czech Phil.-Kletzki Disc 3/06 Czech Philharmonic Orchestra, Paul Kletzki - Symphony No. 5В¦ II. Andante con moto.flac
    Pre-gap length : 00:03:12
    Track gain               : -0.39 dB
    Peak                     : 0.858093
    CRC32 hash (test run)    : 134806E5
    CRC32 hash               : 134806E5
    CRC32 hash (skip zero)   : F2D3FA8D
    AccurateRip v1 signature : CEC75F64
    AccurateRip v2 signature : 04B12C3F
        ->Accurately ripped (v2, confidence 3/3)
    Statistics
        Read error                           : 0
        Jitter error (maybe fixed)           : 0
        Retry sector count                   : 0
        Damaged sector count                 : 0
Track 07
    Filename : /Volumes/Music Torrents/Music Torrents/Czech Phil.-Kletzki - Beethoven Symphonies (2011) FLAC/Czech Phil.-Kletzki Disc 3/07 Czech Philharmonic Orchestra, Paul Kletzki - Symphony No. 5В¦ III. Allegro (attacca).flac
    Pre-gap length : 00:04:09
    Track gain               : 2.04 dB
    Peak                     : 0.765198
    CRC32 hash (test run)    : D2A81D7D
    CRC32 hash               : D2A81D7D
    CRC32 hash (skip zero)   : 8A710130
    AccurateRip v1 signature : C3941D0F
    AccurateRip v2 signature : 67B7935C
        ->Accurately ripped (v2, confidence 3/3)
    Statistics
        Read error                           : 0
        Jitter error (maybe fixed)           : 0
        Retry sector count                   : 0
        Damaged sector count                 : 0
Track 08
    Filename : /Volumes/Music Torrents/Music Torrents/Czech Phil.-Kletzki - Beethoven Symphonies (2011) FLAC/Czech Phil.-Kletzki Disc 3/08 Czech Philharmonic Orchestra, Paul Kletzki - Symphony No. 5В¦ IV. Allegro.flac
    Track gain               : -2.91 dB
    Peak                     : 0.890472
    CRC32 hash (test run)    : C5131B51
    CRC32 hash               : C5131B51
    CRC32 hash (skip zero)   : 67BCCCA0
    AccurateRip v1 signature : E77E074C
    AccurateRip v2 signature : 8D5E5DBF
        ->Accurately ripped (v2, confidence 3/3)
    Statistics
        Read error                           : 0
        Jitter error (maybe fixed)           : 0
        Retry sector count                   : 0
        Damaged sector count                 : 0
No errors occurred
End of status report
-----BEGIN XLD SIGNATURE-----
Kz4NSiN9ISifGJtGFax1JemQWAXzinWoQjDFpYHhMZvSoYalOljRo2sYWxu_BRDxJ6E9EczwOWxp9OeH_JXkt5_ENzRS_ReJEjghR5G
-----END XLD SIGNATURE-----

CD4

X Lossless Decoder version 20140504 (147.0)
XLD extraction logfile from 2014-07-26 14:46:50 -0600
Czech Philharmonic Orchestra, Paul Kletzki / Ludwig van Beethoven Complete Symphonies
Used drive : HL-DT-ST DVDRW  GS31N (revision TA17)
Media type : Pressed CD
Ripper mode             : XLD Secure Ripper
Disable audio cache     : OK for the drive with a cache less than 1375KiB
Make use of C2 pointers : NO
Read offset correction  : 667
Max retry count         : 20
Gap status              : Analyzed, Appended (except HTOA)
TOC of the extracted CD
     Track |   Start  |  Length  | Start sector | End sector
    ---------------------------------------------------------
        1  | 00:00:00 | 12:06:06 |         0    |    54455
        2  | 12:06:06 | 12:42:49 |     54456    |   111654
        3  | 24:48:55 | 05:51:68 |    111655    |   138047
        4  | 30:40:48 | 03:59:20 |    138048    |   155992
        5  | 34:39:68 | 09:22:34 |    155993    |   198176
        6  | 44:02:27 | 08:13:02 |    198177    |   235153
AccurateRip Summary (DiscID: 000da22b-00465c67-4b0c3f06)
    Track 01 : OK (v2, confidence 3/3)
    Track 02 : OK (v2, confidence 3/3)
    Track 03 : OK (v2, confidence 3/3)
    Track 04 : OK (v2, confidence 3/3)
    Track 05 : OK (v2, confidence 3/3)
    Track 06 : OK (v2, confidence 3/3)
        ->All tracks accurately ripped.
All Tracks
    Album gain               : -0.38 dB
    Peak                     : 0.863556
    Statistics
        Read error                           : 0
        Jitter error (maybe fixed)           : 0
        Retry sector count                   : 0
        Damaged sector count                 : 0
Track 01
    Filename : /Volumes/Music Torrents/Music Torrents/Czech Phil.-Kletzki - Beethoven Symphonies (2011) FLAC/Czech Phil.-Kletzki Disc 4/01 Czech Philharmonic Orchestra, Paul Kletzki - Symphony No. 6В¦ I. Erwachen heiterer GefГјhle bei der Ankunft auf dem Lande.flac
    Pre-gap length : 00:02:00
    Track gain               : -1.57 dB
    Peak                     : 0.863556
    CRC32 hash (test run)    : 0BAE53F8
    CRC32 hash               : 0BAE53F8
    CRC32 hash (skip zero)   : C974645F
    AccurateRip v1 signature : E9996914
    AccurateRip v2 signature : EE5FA854
        ->Accurately ripped (v2, confidence 3/3)
    Statistics
        Read error                           : 0
        Jitter error (maybe fixed)           : 0
        Retry sector count                   : 0
        Damaged sector count                 : 0
Track 02
    Filename : /Volumes/Music Torrents/Music Torrents/Czech Phil.-Kletzki - Beethoven Symphonies (2011) FLAC/Czech Phil.-Kletzki Disc 4/02 Czech Philharmonic Orchestra, Paul Kletzki - Symphony No. 6В¦ II. Szene am Bach.flac
    Pre-gap length : 00:04:22
    Track gain               : 8.00 dB
    Peak                     : 0.354614
    CRC32 hash (test run)    : F8B4900E
    CRC32 hash               : F8B4900E
    CRC32 hash (skip zero)   : 6810C028
    AccurateRip v1 signature : 1C58E540
    AccurateRip v2 signature : EA00837B
        ->Accurately ripped (v2, confidence 3/3)
    Statistics
        Read error                           : 0
        Jitter error (maybe fixed)           : 0
        Retry sector count                   : 0
        Damaged sector count                 : 0
Track 03
    Filename : /Volumes/Music Torrents/Music Torrents/Czech Phil.-Kletzki - Beethoven Symphonies (2011) FLAC/Czech Phil.-Kletzki Disc 4/03 Czech Philharmonic Orchestra, Paul Kletzki - Symphony No. 6В¦ III. Lustige Zusammenseiten der Landleute.flac
    Pre-gap length : 00:03:30
    Track gain               : 1.28 dB
    Peak                     : 0.599579
    CRC32 hash (test run)    : A11678E4
    CRC32 hash               : A11678E4
    CRC32 hash (skip zero)   : 301EF6B8
    AccurateRip v1 signature : 54BB3B22
    AccurateRip v2 signature : 80E7EED7
        ->Accurately ripped (v2, confidence 3/3)
    Statistics
        Read error                           : 0
        Jitter error (maybe fixed)           : 0
        Retry sector count                   : 0
        Damaged sector count                 : 0
Track 04
    Filename : /Volumes/Music Torrents/Music Torrents/Czech Phil.-Kletzki - Beethoven Symphonies (2011) FLAC/Czech Phil.-Kletzki Disc 4/04 Czech Philharmonic Orchestra, Paul Kletzki - Symphony No. 6В¦ IV. Gewitter, Sturm.flac
    Track gain               : -2.21 dB
    Peak                     : 0.860077
    CRC32 hash (test run)    : 6AB3CB4D
    CRC32 hash               : 6AB3CB4D
    CRC32 hash (skip zero)   : 816687D2
    AccurateRip v1 signature : 484754EA
    AccurateRip v2 signature : 3118E991
        ->Accurately ripped (v2, confidence 3/3)
    Statistics
        Read error                           : 0
        Jitter error (maybe fixed)           : 0
        Retry sector count                   : 0
        Damaged sector count                 : 0
Track 05
    Filename : /Volumes/Music Torrents/Music Torrents/Czech Phil.-Kletzki - Beethoven Symphonies (2011) FLAC/Czech Phil.-Kletzki Disc 4/05 Czech Philharmonic Orchestra, Paul Kletzki - Symphony No. 6В¦ V. Hintergesang - Frohe, dankbare GefГјhle nach dem Sturm.flac
    Track gain               : 1.09 dB
    Peak                     : 0.665436
    CRC32 hash (test run)    : AEE6F46A
    CRC32 hash               : AEE6F46A
    CRC32 hash (skip zero)   : E2B8E7C5
    AccurateRip v1 signature : BF2D26D9
    AccurateRip v2 signature : 769786BE
        ->Accurately ripped (v2, confidence 3/3)
    Statistics
        Read error                           : 0
        Jitter error (maybe fixed)           : 0
        Retry sector count                   : 0
        Damaged sector count                 : 0
Track 06
    Filename : /Volumes/Music Torrents/Music Torrents/Czech Phil.-Kletzki - Beethoven Symphonies (2011) FLAC/Czech Phil.-Kletzki Disc 4/06 Czech Philharmonic Orchestra, Paul Kletzki - Coriolan Overture.flac
    Pre-gap length : 00:07:42
    Track gain               : -2.08 dB
    Peak                     : 0.793030
    CRC32 hash (test run)    : 9739A9E2
    CRC32 hash               : 9739A9E2
    CRC32 hash (skip zero)   : 15AF658C
    AccurateRip v1 signature : E59DA2E6
    AccurateRip v2 signature : 5B09419A
        ->Accurately ripped (v2, confidence 3/3)
    Statistics
        Read error                           : 0
        Jitter error (maybe fixed)           : 0
        Retry sector count                   : 0
        Damaged sector count                 : 0
No errors occurred
End of status report
-----BEGIN XLD SIGNATURE-----
9.A36BfDsPk4gSXw8DUAl6zwPXNUkyvOhFS727aDAZo0MrT9nJc7W7tOXjOdeQ4Iab8QO25uXNJWu5H2emCk_EG6H__gbPbi7rfZwmG
-----END XLD SIGNATURE-----

CD5

X Lossless Decoder version 20140504 (147.0)
XLD extraction logfile from 2014-07-26 15:07:59 -0600
Czech Philharmonic Orchestra, Paul Klitzki / Ludwig van Beethoven Complete Symphonies
Used drive : HL-DT-ST DVDRW  GS31N (revision TA17)
Media type : Pressed CD
Ripper mode             : XLD Secure Ripper
Disable audio cache     : OK for the drive with a cache less than 1375KiB
Make use of C2 pointers : NO
Read offset correction  : 667
Max retry count         : 20
Gap status              : Analyzed, Appended (except HTOA)
TOC of the extracted CD
     Track |   Start  |  Length  | Start sector | End sector
    ---------------------------------------------------------
        1  | 00:00:00 | 12:25:46 |         0    |    55920
        2  | 12:25:46 | 08:50:19 |     55921    |    95689
        3  | 21:15:65 | 08:03:47 |     95690    |   131961
        4  | 29:19:37 | 07:22:33 |    131962    |   165144
        5  | 36:41:70 | 09:34:42 |    165145    |   208236
        6  | 46:16:37 | 03:50:53 |    208237    |   225539
        7  | 50:07:15 | 05:07:63 |    225540    |   248627
        8  | 55:15:03 | 07:29:18 |    248628    |   282320
AccurateRip Summary (DiscID: 00159144-008b0449-6d0eb408)
    Track 01 : OK (v2, confidence 3/3)
    Track 02 : OK (v2, confidence 3/3)
    Track 03 : OK (v2, confidence 3/3)
    Track 04 : OK (v2, confidence 3/3)
    Track 05 : OK (v2, confidence 3/3)
    Track 06 : OK (v2, confidence 3/3)
    Track 07 : OK (v2, confidence 3/3)
    Track 08 : OK (v2, confidence 3/3)
        ->All tracks accurately ripped.
All Tracks
    Album gain               : -0.68 dB
    Peak                     : 0.890015
    Statistics
        Read error                           : 0
        Jitter error (maybe fixed)           : 0
        Retry sector count                   : 0
        Damaged sector count                 : 0
Track 01
    Filename : /Volumes/Music Torrents/Music Torrents/Czech Phil.-Kletzki - Beethoven Symphonies (2011) FLAC/Czech Phil.-Kletzki Disc 5/01 Czech Philharmonic Orchestra, Paul Klitzki - Symphony No. 7В¦ I. Poco sostenuto - Vivace.flac
    Pre-gap length : 00:02:00
    Track gain               : -1.53 dB
    Peak                     : 0.877411
    CRC32 hash (test run)    : 2F478481
    CRC32 hash               : 2F478481
    CRC32 hash (skip zero)   : D2DA65E2
    AccurateRip v1 signature : B185AFA2
    AccurateRip v2 signature : 39D75323
        ->Accurately ripped (v2, confidence 3/3)
    Statistics
        Read error                           : 0
        Jitter error (maybe fixed)           : 0
        Retry sector count                   : 0
        Damaged sector count                 : 0
Track 02
    Filename : /Volumes/Music Torrents/Music Torrents/Czech Phil.-Kletzki - Beethoven Symphonies (2011) FLAC/Czech Phil.-Kletzki Disc 5/02 Czech Philharmonic Orchestra, Paul Klitzki - Symphony No. 7В¦ II. Allegretto.flac
    Pre-gap length : 00:03:61
    Track gain               : 4.54 dB
    Peak                     : 0.684814
    CRC32 hash (test run)    : D3B9D80E
    CRC32 hash               : D3B9D80E
    CRC32 hash (skip zero)   : 1924678F
    AccurateRip v1 signature : 763CB073
    AccurateRip v2 signature : 54A3233D
        ->Accurately ripped (v2, confidence 3/3)
    Statistics
        Read error                           : 0
        Jitter error (maybe fixed)           : 0
        Retry sector count                   : 0
        Damaged sector count                 : 0
Track 03
    Filename : /Volumes/Music Torrents/Music Torrents/Czech Phil.-Kletzki - Beethoven Symphonies (2011) FLAC/Czech Phil.-Kletzki Disc 5/03 Czech Philharmonic Orchestra, Paul Klitzki - Symphony No. 7В¦ III. Presto.flac
    Pre-gap length : 00:03:65
    Track gain               : -1.14 dB
    Peak                     : 0.800049
    CRC32 hash (test run)    : C0FE7A14
    CRC32 hash               : C0FE7A14
    CRC32 hash (skip zero)   : 897B4E7F
    AccurateRip v1 signature : EA351AF6
    AccurateRip v2 signature : E195514A
        ->Accurately ripped (v2, confidence 3/3)
    Statistics
        Read error                           : 0
        Jitter error (maybe fixed)           : 0
        Retry sector count                   : 0
        Damaged sector count                 : 0
Track 04
    Filename : /Volumes/Music Torrents/Music Torrents/Czech Phil.-Kletzki - Beethoven Symphonies (2011) FLAC/Czech Phil.-Kletzki Disc 5/04 Czech Philharmonic Orchestra, Paul Klitzki - Symphony No. 7В¦ IV. Allegro con brio.flac
    Pre-gap length : 00:04:13
    Track gain               : -1.75 dB
    Peak                     : 0.856201
    CRC32 hash (test run)    : C508D3F4
    CRC32 hash               : C508D3F4
    CRC32 hash (skip zero)   : E8587364
    AccurateRip v1 signature : 9C612F5D
    AccurateRip v2 signature : 588A664D
        ->Accurately ripped (v2, confidence 3/3)
    Statistics
        Read error                           : 0
        Jitter error (maybe fixed)           : 0
        Retry sector count                   : 0
        Damaged sector count                 : 0
Track 05
    Filename : /Volumes/Music Torrents/Music Torrents/Czech Phil.-Kletzki - Beethoven Symphonies (2011) FLAC/Czech Phil.-Kletzki Disc 5/05 Czech Philharmonic Orchestra, Paul Klitzki - Symphony No. 8В¦ I. Allegro vivace e con brio.flac
    Pre-gap length : 00:07:59
    Track gain               : -1.06 dB
    Peak                     : 0.839905
    CRC32 hash (test run)    : E215AC48
    CRC32 hash               : E215AC48
    CRC32 hash (skip zero)   : 7606CEA3
    AccurateRip v1 signature : F09753D1
    AccurateRip v2 signature : 3B543BA2
        ->Accurately ripped (v2, confidence 3/3)
    Statistics
        Read error                           : 0
        Jitter error (maybe fixed)           : 0
        Retry sector count                   : 0
        Damaged sector count                 : 0
Track 06
    Filename : /Volumes/Music Torrents/Music Torrents/Czech Phil.-Kletzki - Beethoven Symphonies (2011) FLAC/Czech Phil.-Kletzki Disc 5/06 Czech Philharmonic Orchestra, Paul Klitzki - Symphony No. 8В¦ II. Allegretto scherzando.flac
    Pre-gap length : 00:03:39
    Track gain               : 4.41 dB
    Peak                     : 0.544800
    CRC32 hash (test run)    : 8B0B9171
    CRC32 hash               : 8B0B9171
    CRC32 hash (skip zero)   : 09CA1762
    AccurateRip v1 signature : AF8FD586
    AccurateRip v2 signature : CF17A324
        ->Accurately ripped (v2, confidence 3/3)
    Statistics
        Read error                           : 0
        Jitter error (maybe fixed)           : 0
        Retry sector count                   : 0
        Damaged sector count                 : 0
Track 07
    Filename : /Volumes/Music Torrents/Music Torrents/Czech Phil.-Kletzki - Beethoven Symphonies (2011) FLAC/Czech Phil.-Kletzki Disc 5/07 Czech Philharmonic Orchestra, Paul Klitzki - Symphony No. 8В¦ III. Tempo di menuetto.flac
    Pre-gap length : 00:03:32
    Track gain               : 2.53 dB
    Peak                     : 0.567596
    CRC32 hash (test run)    : A1FF482C
    CRC32 hash               : A1FF482C
    CRC32 hash (skip zero)   : 8C2C83B8
    AccurateRip v1 signature : 4894035A
    AccurateRip v2 signature : 48DC65F3
        ->Accurately ripped (v2, confidence 3/3)
    Statistics
        Read error                           : 0
        Jitter error (maybe fixed)           : 0
        Retry sector count                   : 0
        Damaged sector count                 : 0
Track 08
    Filename : /Volumes/Music Torrents/Music Torrents/Czech Phil.-Kletzki - Beethoven Symphonies (2011) FLAC/Czech Phil.-Kletzki Disc 5/08 Czech Philharmonic Orchestra, Paul Klitzki - Symphony No. 8В¦ IV. Allegro vivace.flac
    Pre-gap length : 00:03:41
    Track gain               : -0.57 dB
    Peak                     : 0.890015
    CRC32 hash (test run)    : C8DEC75C
    CRC32 hash               : C8DEC75C
    CRC32 hash (skip zero)   : 4ABD306B
    AccurateRip v1 signature : 6DEEB2F2
    AccurateRip v2 signature : E015486E
        ->Accurately ripped (v2, confidence 3/3)
    Statistics
        Read error                           : 0
        Jitter error (maybe fixed)           : 0
        Retry sector count                   : 0
        Damaged sector count                 : 0
No errors occurred
End of status report
-----BEGIN XLD SIGNATURE-----
zgP_lUDUd4l9R0bQlhrDV540VkA1lFS22hfJDhWzHfnXkndekSOzngWUgKAnaExru9_JZctGPoXUmpEoKffcwOv7xax8SUVVe5Hci4m
-----END XLD SIGNATURE-----

CD6

X Lossless Decoder version 20140504 (147.0)
XLD extraction logfile from 2014-07-26 15:33:09 -0600
Czech Philharmonic Orchestra, Paul Kletzki / Ludwig van Beethoven Complete Symphonies
Used drive : HL-DT-ST DVDRW  GS31N (revision TA17)
Media type : Pressed CD
Ripper mode             : XLD Secure Ripper
Disable audio cache     : OK for the drive with a cache less than 1375KiB
Make use of C2 pointers : NO
Read offset correction  : 667
Max retry count         : 20
Gap status              : Analyzed, Appended (except HTOA)
TOC of the extracted CD
     Track |   Start  |  Length  | Start sector | End sector
    ---------------------------------------------------------
        1  | 00:00:00 | 16:13:48 |         0    |    73022
        2  | 16:13:48 | 11:37:22 |     73023    |   125319
        3  | 27:50:70 | 14:51:31 |    125320    |   192175
        4  | 42:42:26 | 25:01:56 |    192176    |   304806
AccurateRip Summary (DiscID: 000a9c1e-002af31a-380fe004)
    Track 01 : OK (v2, confidence 3/3)
    Track 02 : OK (v2, confidence 3/3)
    Track 03 : OK (v2, confidence 3/3)
    Track 04 : OK (v2, confidence 3/3)
        ->All tracks accurately ripped.
All Tracks
    Album gain               : -2.14 dB
    Peak                     : 0.889954
    Statistics
        Read error                           : 0
        Jitter error (maybe fixed)           : 0
        Retry sector count                   : 0
        Damaged sector count                 : 0
Track 01
    Filename : /Volumes/Music Torrents/Music Torrents/Czech Phil.-Kletzki - Beethoven Symphonies (2011) FLAC/Czech Phil.-Kletzki Disc 6/01 Czech Philharmonic Orchestra, Paul Kletzki - Symphony No. 9В¦ I. Allegro ma non troppo, un poco maestoso.flac
    Pre-gap length : 00:02:00
    Track gain               : -1.12 dB
    Peak                     : 0.860291
    CRC32 hash (test run)    : A3A28A10
    CRC32 hash               : A3A28A10
    CRC32 hash (skip zero)   : 1E6AB640
    AccurateRip v1 signature : 29960D91
    AccurateRip v2 signature : 2CB4B3CE
        ->Accurately ripped (v2, confidence 3/3)
    Statistics
        Read error                           : 0
        Jitter error (maybe fixed)           : 0
        Retry sector count                   : 0
        Damaged sector count                 : 0
Track 02
    Filename : /Volumes/Music Torrents/Music Torrents/Czech Phil.-Kletzki - Beethoven Symphonies (2011) FLAC/Czech Phil.-Kletzki Disc 6/02 Czech Philharmonic Orchestra, Paul Kletzki - Symphony No. 9В¦ II. Molto vivace.flac
    Pre-gap length : 00:04:50
    Track gain               : -0.64 dB
    Peak                     : 0.769897
    CRC32 hash (test run)    : 225C63C2
    CRC32 hash               : 225C63C2
    CRC32 hash (skip zero)   : 37761B4A
    AccurateRip v1 signature : B5F44CFC
    AccurateRip v2 signature : 854CDE5F
        ->Accurately ripped (v2, confidence 3/3)
    Statistics
        Read error                           : 0
        Jitter error (maybe fixed)           : 0
        Retry sector count                   : 0
        Damaged sector count                 : 0
Track 03
    Filename : /Volumes/Music Torrents/Music Torrents/Czech Phil.-Kletzki - Beethoven Symphonies (2011) FLAC/Czech Phil.-Kletzki Disc 6/03 Czech Philharmonic Orchestra, Paul Kletzki - Symphony No. 9В¦ III. Adagio molto e cantabile - Andante moderato.flac
    Pre-gap length : 00:03:49
    Track gain               : 5.25 dB
    Peak                     : 0.669739
    CRC32 hash (test run)    : 86F3D186
    CRC32 hash               : 86F3D186
    CRC32 hash (skip zero)   : 33654F54
    AccurateRip v1 signature : CFB810D1
    AccurateRip v2 signature : B19E3EBE
        ->Accurately ripped (v2, confidence 3/3)
    Statistics
        Read error                           : 0
        Jitter error (maybe fixed)           : 0
        Retry sector count                   : 0
        Damaged sector count                 : 0
Track 04
    Filename : /Volumes/Music Torrents/Music Torrents/Czech Phil.-Kletzki - Beethoven Symphonies (2011) FLAC/Czech Phil.-Kletzki Disc 6/04 Czech Philharmonic Orchestra, Paul Kletzki - Symphony No. 9В¦ IV. Presto - Allegro assai - RezitativoВ¦ "O Freunde, nicht diese TГ¶ne!".flac
    Pre-gap length : 00:04:43
    Track gain               : -3.68 dB
    Peak                     : 0.889954
    CRC32 hash (test run)    : D5FC27C4
    CRC32 hash               : D5FC27C4
    CRC32 hash (skip zero)   : FD2A3827
    AccurateRip v1 signature : C7121445
    AccurateRip v2 signature : 5505883A
        ->Accurately ripped (v2, confidence 3/3)
    Statistics
        Read error                           : 0
        Jitter error (maybe fixed)           : 0
        Retry sector count                   : 0
        Damaged sector count                 : 0
No errors occurred
End of status report
-----BEGIN XLD SIGNATURE-----
c_5a8Y4i5I63d0WSDVzBfkIHjoq42m7m__vpjQ8s3Mt87TtkyJwj6jZwwVBrHIq4N71IUrJqAoO7FxZV_uj2UZL1EvykEbbfF.eX2N0
-----END XLD SIGNATURE-----



CUE

CD1

REM GENRE "Classical"
REM DATE 2011
PERFORMER "Czech Philharmonic Orchestra, Paul Kletzki"
TITLE "Beethoven Complete Symphonies CD1"
FILE "01 Symphony № 1 C-Dur Op. 21 – I. Adagio molto; Allegro con brio.flac" WAVE
  TRACK 01 AUDIO
    PERFORMER "Czech Philharmonic Orchestra, Paul Kletzki"
    TITLE "Symphony № 1 C-Dur Op. 21 – I. Adagio molto; Allegro con brio"
    INDEX 01 00:00:00
FILE "02 Symphony № 1 C-Dur Op. 21 – II. Andante cantabile con moto.flac" WAVE
  TRACK 02 AUDIO
    PERFORMER "Czech Philharmonic Orchestra, Paul Kletzki"
    TITLE "Symphony № 1 C-Dur Op. 21 – II. Andante cantabile con moto"
    INDEX 01 00:00:00
FILE "03 Symphony № 1 C-Dur Op. 21 – III. Menuetto. Allegro molto e vivace.flac" WAVE
  TRACK 03 AUDIO
    PERFORMER "Czech Philharmonic Orchestra, Paul Kletzki"
    TITLE "Symphony № 1 C-Dur Op. 21 – III. Menuetto. Allegro molto e vivace"
    INDEX 01 00:00:00
FILE "04 Symphony № 1 C-Dur Op. 21 – IV. Adagio. Allegro molto e vivace.flac" WAVE
  TRACK 04 AUDIO
    PERFORMER "Czech Philharmonic Orchestra, Paul Kletzki"
    TITLE "Symphony № 1 C-Dur Op. 21 – IV. Adagio. Allegro molto e vivace"
    INDEX 01 00:00:00
FILE "05 Symphony № 2 D-Dur Op. 36 – I. Adagio molto. Allegro con brio.flac" WAVE
  TRACK 05 AUDIO
    PERFORMER "Czech Philharmonic Orchestra, Paul Kletzki"
    TITLE "Symphony № 2 D-Dur Op. 36 – I. Adagio molto. Allegro con brio"
    INDEX 01 00:00:00
FILE "06 Symphony № 2 D-Dur Op. 36 – II. Larghetto.flac" WAVE
  TRACK 06 AUDIO
    PERFORMER "Czech Philharmonic Orchestra, Paul Kletzki"
    TITLE "Symphony № 2 D-Dur Op. 36 – II. Larghetto"
    INDEX 01 00:00:00
FILE "07 Symphony № 2 D-Dur Op. 36 – III. Scherzo. Allegro.flac" WAVE
  TRACK 07 AUDIO
    PERFORMER "Czech Philharmonic Orchestra, Paul Kletzki"
    TITLE "Symphony № 2 D-Dur Op. 36 – III. Scherzo. Allegro"
    INDEX 01 00:00:00
FILE "08 Symphony № 2 D-Dur Op. 36 – IV. Allegro molto.flac" WAVE
  TRACK 08 AUDIO
    PERFORMER "Czech Philharmonic Orchestra, Paul Kletzki"
    TITLE "Symphony № 2 D-Dur Op. 36 – IV. Allegro molto"
    INDEX 01 00:00:00

CD2

REM GENRE "Classical"
REM DATE 2011
PERFORMER "Czech Philharmonic Orchestra, Paul Kletzki"
TITLE "Beethoven Complete Symphonies CD2"
FILE "01 Symphony № 3 Es-Dur Op. 55 «Eroica» – I. Allegro con brio.flac" WAVE
  TRACK 01 AUDIO
    PERFORMER "Czech Philharmonic Orchestra, Paul Kletzki"
    TITLE "Symphony № 3 Es-Dur Op. 55 «Eroica» – I. Allegro con brio"
    INDEX 01 00:00:00
FILE "02 Symphony № 3 Es-Dur Op. 55 «Eroica» – II. Marcia funebre. Adagio assai.flac" WAVE
  TRACK 02 AUDIO
    PERFORMER "Czech Philharmonic Orchestra, Paul Kletzki"
    TITLE "Symphony № 3 Es-Dur Op. 55 «Eroica» – II. Marcia funebre. Adagio assai"
    INDEX 01 00:00:00
FILE "03 Symphony № 3 Es-Dur Op. 55 «Eroica» – III. Scherzo. Allegro vivace.flac" WAVE
  TRACK 03 AUDIO
    PERFORMER "Czech Philharmonic Orchestra, Paul Kletzki"
    TITLE "Symphony № 3 Es-Dur Op. 55 «Eroica» – III. Scherzo. Allegro vivace"
    INDEX 01 00:00:00
FILE "04 Symphony № 3 Es-Dur Op. 55 «Eroica» – IV. Allegro molto.flac" WAVE
  TRACK 04 AUDIO
    PERFORMER "Czech Philharmonic Orchestra, Paul Kletzki"
    TITLE "Symphony № 3 Es-Dur Op. 55 «Eroica» – IV. Allegro molto"
    INDEX 01 00:00:00
FILE "05 Overture «Egmont» № 1 f-moll Op. 84.flac" WAVE
  TRACK 05 AUDIO
    PERFORMER "Czech Philharmonic Orchestra, Paul Kletzki"
    TITLE "Overture «Egmont» № 1 f-moll Op. 84"
    INDEX 01 00:00:00

CD3

REM GENRE "Classical"
REM DATE 2011
PERFORMER "Czech Philharmonic Orchestra, Paul Kletzki"
TITLE "Beethoven Complete Symphonies CD3"
FILE "01 Symphony № 4 B-Dur Op. 60 – I. Adagio. Allegro vivace.flac" WAVE
  TRACK 01 AUDIO
    PERFORMER "Czech Philharmonic Orchestra, Paul Kletzki"
    TITLE "Symphony № 4 B-Dur Op. 60 – I. Adagio. Allegro vivace"
    INDEX 01 00:00:00
FILE "02 Symphony № 4 B-Dur Op. 60 – II. Adagio.flac" WAVE
  TRACK 02 AUDIO
    PERFORMER "Czech Philharmonic Orchestra, Paul Kletzki"
    TITLE "Symphony № 4 B-Dur Op. 60 – II. Adagio"
    INDEX 01 00:00:00
FILE "03 Symphony № 4 B-Dur Op. 60 – III. Menuetto. Allegro vivace.flac" WAVE
  TRACK 03 AUDIO
    PERFORMER "Czech Philharmonic Orchestra, Paul Kletzki"
    TITLE "Symphony № 4 B-Dur Op. 60 – III. Menuetto. Allegro vivace"
    INDEX 01 00:00:00
FILE "04 Symphony № 4 B-Dur Op. 60 – IV. Allegro ma non troppo.flac" WAVE
  TRACK 04 AUDIO
    PERFORMER "Czech Philharmonic Orchestra, Paul Kletzki"
    TITLE "Symphony № 4 B-Dur Op. 60 – IV. Allegro ma non troppo"
    INDEX 01 00:00:00
FILE "05 Symphony № 5 c-moll Op. 67 – I. Allegro con brio.flac" WAVE
  TRACK 05 AUDIO
    PERFORMER "Czech Philharmonic Orchestra, Paul Kletzki"
    TITLE "Symphony № 5 c-moll Op. 67 – I. Allegro con brio"
    INDEX 01 00:00:00
FILE "06 Symphony № 5 c-moll Op. 67 – II. Andante con moto.flac" WAVE
  TRACK 06 AUDIO
    PERFORMER "Czech Philharmonic Orchestra, Paul Kletzki"
    TITLE "Symphony № 5 c-moll Op. 67 – II. Andante con moto"
    INDEX 01 00:00:00
FILE "07 Symphony № 5 c-moll Op. 67 – III. Allegro attaco.flac" WAVE
  TRACK 07 AUDIO
    PERFORMER "Czech Philharmonic Orchestra, Paul Kletzki"
    TITLE "Symphony № 5 c-moll Op. 67 – III. Allegro attaco"
    INDEX 01 00:00:00
FILE "08 Symphony № 5 c-moll Op. 67 – IV. Allegro.flac" WAVE
  TRACK 08 AUDIO
    PERFORMER "Czech Philharmonic Orchestra, Paul Kletzki"
    TITLE "Symphony № 5 c-moll Op. 67 – IV. Allegro"
    INDEX 01 00:00:00

CD4

REM GENRE "Classical"
REM DATE 2011
PERFORMER "Czech Philharmonic Orchestra, Paul Kletzki"
TITLE "Beethoven Complete Symphonies CD4"
FILE "01 Symphony № 6 F-Dur Op. 68 «Pastorale» – I. Allegro ma non troppo.flac" WAVE
  TRACK 01 AUDIO
    PERFORMER "Czech Philharmonic Orchestra, Paul Kletzki"
    TITLE "Symphony № 6 F-Dur Op. 68 «Pastorale» – I. Allegro ma non troppo"
    INDEX 01 00:00:00
FILE "02 Symphony № 6 F-Dur Op. 68 «Pastorale» – II. Andante molto mosso.flac" WAVE
  TRACK 02 AUDIO
    PERFORMER "Czech Philharmonic Orchestra, Paul Kletzki"
    TITLE "Symphony № 6 F-Dur Op. 68 «Pastorale» – II. Andante molto mosso"
    INDEX 01 00:00:00
FILE "03 Symphony № 6 F-Dur Op. 68 «Pastorale» – III. Allegro.flac" WAVE
  TRACK 03 AUDIO
    PERFORMER "Czech Philharmonic Orchestra, Paul Kletzki"
    TITLE "Symphony № 6 F-Dur Op. 68 «Pastorale» – III. Allegro"
    INDEX 01 00:00:00
FILE "04 Symphony № 6 F-Dur Op. 68 «Pastorale» – IV. Allegro.flac" WAVE
  TRACK 04 AUDIO
    PERFORMER "Czech Philharmonic Orchestra, Paul Kletzki"
    TITLE "Symphony № 6 F-Dur Op. 68 «Pastorale» – IV. Allegro"
    INDEX 01 00:00:00
FILE "05 Symphony № 6 F-Dur Op. 68 «Pastorale» – V. Allegretto.flac" WAVE
  TRACK 05 AUDIO
    PERFORMER "Czech Philharmonic Orchestra, Paul Kletzki"
    TITLE "Symphony № 6 F-Dur Op. 68 «Pastorale» – V. Allegretto"
    INDEX 01 00:00:00
FILE "06 Overture «Coriolanus» e-moll Op. 62.flac" WAVE
  TRACK 06 AUDIO
    PERFORMER "Czech Philharmonic Orchestra, Paul Kletzki"
    TITLE "Overture «Coriolanus» e-moll Op. 62"
    INDEX 01 00:00:00

CD5

REM GENRE "Classical"
REM DATE 2011
PERFORMER "Czech Philharmonic Orchestra, Paul Kletzki"
TITLE "Beethoven Complete Symphonies CD5"
FILE "01 Symphony № 7 A-Dur Op. 92 – I. Poco sostenuto. Vivace.flac" WAVE
  TRACK 01 AUDIO
    PERFORMER "Czech Philharmonic Orchestra, Paul Kletzki"
    TITLE "Symphony № 7 A-Dur Op. 92 – I. Poco sostenuto. Vivace"
    INDEX 01 00:00:00
FILE "02 Symphony № 7 A-Dur Op. 92 – II. Allegretto.flac" WAVE
  TRACK 02 AUDIO
    PERFORMER "Czech Philharmonic Orchestra, Paul Kletzki"
    TITLE "Symphony № 7 A-Dur Op. 92 – II. Allegretto"
    INDEX 01 00:00:00
FILE "03 Symphony № 7 A-Dur Op. 92 – III. Presto.flac" WAVE
  TRACK 03 AUDIO
    PERFORMER "Czech Philharmonic Orchestra, Paul Kletzki"
    TITLE "Symphony № 7 A-Dur Op. 92 – III. Presto"
    INDEX 01 00:00:00
FILE "04 Symphony № 7 A-Dur Op. 92 – IV. Allegro con brio.flac" WAVE
  TRACK 04 AUDIO
    PERFORMER "Czech Philharmonic Orchestra, Paul Kletzki"
    TITLE "Symphony № 7 A-Dur Op. 92 – IV. Allegro con brio"
    INDEX 01 00:00:00
FILE "05 Symphony № 8 F-Dur Op. 93 – I. Allegro vivace e con brio.flac" WAVE
  TRACK 05 AUDIO
    PERFORMER "Czech Philharmonic Orchestra, Paul Kletzki"
    TITLE "Symphony № 8 F-Dur Op. 93 – I. Allegro vivace e con brio"
    INDEX 01 00:00:00
FILE "06 Symphony № 8 F-Dur Op. 93 – II. Allegretto scherzando.flac" WAVE
  TRACK 06 AUDIO
    PERFORMER "Czech Philharmonic Orchestra, Paul Kletzki"
    TITLE "Symphony № 8 F-Dur Op. 93 – II. Allegretto scherzando"
    INDEX 01 00:00:00
FILE "07 Symphony № 8 F-Dur Op. 93 – III. Tempo di Menuetto.flac" WAVE
  TRACK 07 AUDIO
    PERFORMER "Czech Philharmonic Orchestra, Paul Kletzki"
    TITLE "Symphony № 8 F-Dur Op. 93 – III. Tempo di Menuetto"
    INDEX 01 00:00:00
FILE "08 Symphony № 8 F-Dur Op. 93 – IV. Allegro vivace.flac" WAVE
  TRACK 08 AUDIO
    PERFORMER "Czech Philharmonic Orchestra, Paul Kletzki"
    TITLE "Symphony № 8 F-Dur Op. 93 – IV. Allegro vivace"
    INDEX 01 00:00:00

CD6

REM GENRE "Classical"
REM DATE 2011
PERFORMER "Czech Philharmonic Orchestra, Paul Kletzki"
TITLE "Beethoven Complete Symphonies CD6"
FILE "01 Symphony № 9 d-moll Op. 125 «Choral» – I. Allegro ma non troppo.flac" WAVE
  TRACK 01 AUDIO
    PERFORMER "Czech Philharmonic Orchestra, Paul Kletzki"
    TITLE "Symphony № 9 d-moll Op. 125 «Choral» – I. Allegro ma non troppo"
    INDEX 01 00:00:00
FILE "02 Symphony № 9 d-moll Op. 125 «Choral» – II. Molto vivace.flac" WAVE
  TRACK 02 AUDIO
    PERFORMER "Czech Philharmonic Orchestra, Paul Kletzki"
    TITLE "Symphony № 9 d-moll Op. 125 «Choral» – II. Molto vivace"
    INDEX 01 00:00:00
FILE "03 Symphony № 9 d-moll Op. 125 «Choral» – III. Adagio molto cantabile.flac" WAVE
  TRACK 03 AUDIO
    PERFORMER "Czech Philharmonic Orchestra, Paul Kletzki"
    TITLE "Symphony № 9 d-moll Op. 125 «Choral» – III. Adagio molto cantabile"
    INDEX 01 00:00:00
FILE "04 Symphony № 9 d-moll Op. 125 «Choral» – IV. Finale.flac" WAVE
  TRACK 04 AUDIO
    PERFORMER "Czech Philharmonic Orchestra, Paul Kletzki"
    TITLE "Symphony № 9 d-moll Op. 125 «Choral» – IV. Finale"
    INDEX 01 00:00:00


                                                                                       
                       
                       
                       
                       
                       
                                磁力下载(论坛代下载服务)::
                                                               
                                       
付费主题

已有0人支付


                                               
  • 1.57 GB
  • 温馨提示

    记得善用社区搜索功能,那里可能会有你想要的资源;论坛站内搜索

    如果你有什么需要的资源可以去资源求档发帖,求助社区的网友,我们会在第一时间给你回复哦;资源求档

    对于本社区网盘链接失效密码错误各种报错请在反馈板块反馈报错发帖,您的支持,是我们发展的最大动力;投诉建议

    回复

    使用道具 举报

    您需要登录后才可以回帖 登录 | 立即注册 微信登录

    本版积分规则

    发布主题
    阅读排行更多+
    关闭

    站长推荐上一条 /1 下一条

    活动提示

    赞助永久VIP会员送3T硬盘一块 限时活动

    地址:立刻参加

    我知道了
    收藏帖子 返回列表 这是一个自定义按钮
    音乐分享,音乐下载。
    微信公众号
    微信号:hires_
    意见反馈:admin@maomicd.com

    加入我们的官方QQ群和微信群

    Powered by Discuz! X3.4 Archiver|手机版|小黑屋|捌零音乐论坛 ( 苏ICP备20015413号 )|( 苏公网安备 32030502000272号) 繁體

    GMT+8, 2021-9-22 22:09