[古典] (Symphony) W.A.Mozart - Symphonies N. 39, 40 and 41 "Jupiter" (NHK Symphony Orchestra - Otmar Suitner) | Моцарт - Симфонии № 39, 40 и 41 "Юпитер&quot

[复制链接]
Wolfgagng Amadeus Mozart
Symphonien Nr.39 - 41______________________NHK Symphony Orchestra - Otmar Suitner
Жанр: Symphony
Страна-производитель диска: JAPAN
Год издания диска: 2002
Издатель (лейбл): NHK
Дата записи: 17 DEC 1982
Аудиокодек: FLAC
Тип рипа: image+.cue
Битрейт аудио: lossless
Продолжительность: 74.24
Источник: скачано с
сайт-источник/ник/другое: web
Наличие сканов в содержимом раздачи: да
Треклист:
1-4) Symphony No.39
5-8) Symphony No.40
9-12) Symphony No.41 "Jupiter"
Исполнители:
NHK Symphony Orchestra - Otmar Suitner
Содержание индексной карты (.CUE)

REM DISCID A811700C
REM COMMENT ExactAudioCopy v0.95b4
PERFORMER "NHK Symphony Orchestra, Otmar Suitner"
TITLE "Mozart Symphonies Nos.39, 40, 41"
FILE "CDImage.flac" WAVE
  TRACK 01 AUDIO
    TITLE "Symphony No.39 - 01. Adagio. Allegro"
    ISRC JPKI00147920
    INDEX 01 00:00:00
  TRACK 02 AUDIO
    TITLE "Symphony No.39 - 02. Andante con moto"
    ISRC JPKI00147930
    INDEX 01 08:36:55
  TRACK 03 AUDIO
    TITLE "Symphony No.39 - 03. Menuett (Allegretto)"
    ISRC JPKI00147940
    INDEX 01 16:42:02
  TRACK 04 AUDIO
    TITLE "Symphony No.39 - 04. Finale (Vivace assai)"
    ISRC JPKI00147950
    INDEX 01 20:49:62
  TRACK 05 AUDIO
    TITLE "Symphony No.40 - 01. Molto Allegro"
    ISRC JPKI00147960
    INDEX 00 25:02:05
    INDEX 01 25:05:05
  TRACK 06 AUDIO
    TITLE "Symphony No.40 - 02. Andante"
    ISRC JPKI00147970
    INDEX 01 30:54:60
  TRACK 07 AUDIO
    TITLE "Symphony No.40 - 03. Menuett (Allegretto)"
    ISRC JPKI00147980
    INDEX 01 38:27:10
  TRACK 08 AUDIO
    TITLE "Symphony No.40 - 04. Allegro assai"
    ISRC JPKI00147990
    INDEX 01 42:55:12
  TRACK 09 AUDIO
    TITLE "Symphony No.41 - 01. Allegro vivace"
    ISRC JPKI00148000
    INDEX 00 47:48:17
    INDEX 01 47:51:17
  TRACK 10 AUDIO
    TITLE "Symphony No.41 - 02. Andante cantabile"
    ISRC JPKI00148010
    INDEX 01 55:51:17
  TRACK 11 AUDIO
    TITLE "Symphony No.41 - 03. Menuett (Allegretto)"
    ISRC JPKI00148020
    INDEX 01 63:37:20
  TRACK 12 AUDIO
    TITLE "Symphony No.41 - 04. Molto Allegro"
    ISRC JPKI00148030
    INDEX 01 68:10:52


Лог проверки качества

AUDIOCHECKER v1.2 - by Dester - opdester@freemail.hu
~~~~~~~~~~~~~~~~~
1 -===- D:\Musiс\Performers\Suitner Conducts Mozart\NHK\CDImage.flac
  Extracted successfully
  Conclusion: This track looks like CDDA with probability 100%

                                                                                       
                       
                       
                       
                       
                       
                                磁力下载(论坛代下载服务)::
                                                               
                                       
付费主题

已有0人支付


                                               
  • 377.2 MB
  • 温馨提示

    记得善用社区搜索功能,那里可能会有你想要的资源;论坛站内搜索

    如果你有什么需要的资源可以去资源求档发帖,求助社区的网友,我们会在第一时间给你回复哦;资源求档

    对于本社区网盘链接失效密码错误各种报错请在反馈板块反馈报错发帖,您的支持,是我们发展的最大动力;投诉建议

    回复

    使用道具 举报

    您需要登录后才可以回帖 登录 | 立即注册 微信登录

    本版积分规则

    关注0

    粉丝16

    帖子70967

    发布主题
    阅读排行更多+
    关闭

    站长推荐上一条 /1 下一条

    活动提示

    赞助永久VIP会员送3T硬盘一块 限时活动

    地址:立刻参加

    我知道了
    收藏帖子 返回列表 这是一个自定义按钮
    音乐分享,音乐下载。
    微信公众号
    微信号:hires_
    意见反馈:admin@maomicd.com

    加入我们的官方QQ群和微信群

    Powered by Discuz! X3.4 Archiver|手机版|小黑屋|捌零音乐论坛 ( 苏ICP备20015413号 )|( 苏公网安备 32030502000272号) 繁體

    GMT+8, 2021-9-16 23:29