[古典] (Classical) Gustav Mahler - Symphonie No.9 (Herbert von Karajan, Berliner Philharmoniker) - 1982/1984, FLAC (tracks+.cue) lossless

[复制链接]
elmisy 发表于 2021-9-10 16:56:53 | 显示全部楼层 |阅读模式 打印 上一主题 下一主题
Gustav Mahler - Symphonie No.9 (Herbert von Karajan, Berliner Philharmoniker)
Жанр: Classical
Страна-производитель диска: DE
Год издания диска: 1984
Издатель (лейбл): Deutsche Grammophon
Номер по каталогу: 000289 439 0242 7
Дата записи: 1982
Формат записи: DDD Stereo
Аудиокодек: FLAC
Тип рипа: tracks+.cue
Битрейт аудио: lossless
Продолжительность: 1:24:42
Источник: вот.сиди (ngghim)
Наличие сканов в содержимом раздачи: да
Исполнители:
Conductor - Herbert von Karajan
Orchestra - Berliner Philharmoniker
Live recording from the 1982 Berlin Festival
Треклист
CD1:
1. Satz 28:19
01. Andante comodo 5:20
02. Etwas frischer 1:17
03. (Horns) 3:49
04. Mit Wut. Allegro risoluto 3:47
05. (Brass) 2:59
06. Bewegter 3:27
07. Wie von Anfang 1:57
08. Ploetzlich bedeutend langsamer (Lento) und leise 5:42
2. Satz 16:41
09. Im Tempo eines gemaechlichen Laendlers.Etwas taeppisch und sehr derb 2:48
10. Poco più mosso subito (Tempo II) 2:45
11. Tempo III 1:43
12. A tempo II 3:00
13. Tempo I 1:37
14. Tempo II 1:34
15. Tempo I. subito 3:15
TT: 45:00
CD2:
3. Satz 12:54
1. Rondo-Burleske. Allegro assai. Sehr trotzig. 1:46
2. L'istesso tempo 1:08
3. Sempre l'istesso tempo 1:20
4. L'istesso tempo 4:18
5. (Clarinets) 1:53
6. Tempo I subito 1:33
7. Più stretto 0:57
4. Satz 26:48
8. Adagio. Sehr langsam und noch zurueckhaltend 4:26
9. Ploetzlich wieder sehr langsam (wie zu Anfang) und etwas zoegernd 2:45
10. Molto adagio subito 2:19
11. a tempo (Molto adagio) 3:57
12. Stets sehr gehalten 1:52
13. Fliessender, doch durchaus nicht eilend 1:56
14. Tempo I. Molto adagio 5:45
15. Adagissimo 3:47
TT: 39:42

Лог создания рипа

CD1:Exact Audio Copy V0.99 prebeta 5 from 4. May 2009
EAC extraction logfile from 23. April 2010, 20:19
Gustav Mahler (Herbert Von Karajan, Berliner Philharmoniker) / Symphonie No  9
Used drive  : SAMSUNG CD-R/RW SW-252S   Adapter: 1  ID: 0
Read mode               : Secure
Utilize accurate stream : Yes
Defeat audio cache      : Yes
Make use of C2 pointers : No
Read offset correction                      : 6
Overread into Lead-In and Lead-Out          : No
Fill up missing offset samples with silence : Yes
Delete leading and trailing silent blocks   : No
Null samples used in CRC calculations       : Yes
Used interface                              : Native Win32 interface for Win NT & 2000
Gap handling                                : Appended to previous track
Used output format              : User Defined Encoder
Selected bitrate                : 768 kBit/s
Quality                         : High
Add ID3 tag                     : No
Command line compressor         : C:\Program Files\Exact Audio Copy\FLAC\FLAC.EXE
Additional command line options : -8 -V -T "ARTIST=%a" -T "TITLE=%t" -T "ALBUM=%g" -T "DATE=%y" -T "TRACKNUMBER=%n" -T "GENRE=%m" -T "COMMENT=Encoded by EAC 0.99pb5 FLAC -8" %s
TOC of the extracted CD
     Track |   Start  |  Length  | Start sector | End sector
    ---------------------------------------------------------
        1  |  0:00.33 |  5:20.02 |        33    |    24034
        2  |  5:20.35 |  1:17.35 |     24035    |    29844
        3  |  6:37.70 |  3:49.25 |     29845    |    47044
        4  | 10:27.20 |  3:46.70 |     47045    |    64064
        5  | 14:14.15 |  2:59.10 |     64065    |    77499
        6  | 17:13.25 |  3:26.48 |     77500    |    92997
        7  | 20:39.73 |  1:57.05 |     92998    |   101777
        8  | 22:37.03 |  5:42.30 |    101778    |   127457
        9  | 28:19.33 |  2:48.02 |    127458    |   140059
       10  | 31:07.35 |  2:44.50 |    140060    |   152409
       11  | 33:52.10 |  1:42.53 |    152410    |   160112
       12  | 35:34.63 |  2:59.52 |    160113    |   173589
       13  | 38:34.40 |  1:37.05 |    173590    |   180869
       14  | 40:11.45 |  1:34.00 |    180870    |   187919
       15  | 41:45.45 |  3:14.63 |    187920    |   202532
Track  1
     Filename C:\muse.fm\Gustav Mahler - Symphonie No. 9 (Herbert von Karajan, Berliner Philharmoniker)\Disc 1\01. 1.1 Andante comodo.wav
     Pre-gap length  0:00:02.33
     Peak level 86.2 %
     Track quality 100.0 %
     Test CRC 5E0EA99B
     Copy CRC 5E0EA99B
     Accurately ripped (confidence 5)  [BAAB91D4]
     Copy OK
Track  2
     Filename C:\muse.fm\Gustav Mahler - Symphonie No. 9 (Herbert von Karajan, Berliner Philharmoniker)\Disc 1\02. 1.2 Etwas frischer.wav
     Peak level 96.5 %
     Track quality 100.0 %
     Test CRC 55CF9842
     Copy CRC 55CF9842
     Accurately ripped (confidence 5)  [90A86FEE]
     Copy OK
Track  3
     Filename C:\muse.fm\Gustav Mahler - Symphonie No. 9 (Herbert von Karajan, Berliner Philharmoniker)\Disc 1\03. 1.3 (cors).wav
     Peak level 71.8 %
     Track quality 100.0 %
     Test CRC 077DE3D3
     Copy CRC 077DE3D3
     Accurately ripped (confidence 5)  [33E4905A]
     Copy OK
Track  4
     Filename C:\muse.fm\Gustav Mahler - Symphonie No. 9 (Herbert von Karajan, Berliner Philharmoniker)\Disc 1\04. 1.4 Mit Wut. Allegro risoluto.wav
     Peak level 91.3 %
     Track quality 100.0 %
     Test CRC C7DF1641
     Copy CRC C7DF1641
     Accurately ripped (confidence 5)  [25C2BC8F]
     Copy OK
Track  5
     Filename C:\muse.fm\Gustav Mahler - Symphonie No. 9 (Herbert von Karajan, Berliner Philharmoniker)\Disc 1\05. 1.5 (cuivres).wav
     Peak level 47.5 %
     Track quality 100.0 %
     Test CRC 56DA2737
     Copy CRC 56DA2737
     Accurately ripped (confidence 5)  [3DA2CB9A]
     Copy OK
Track  6
     Filename C:\muse.fm\Gustav Mahler - Symphonie No. 9 (Herbert von Karajan, Berliner Philharmoniker)\Disc 1\06. 1.6 Bewegter.wav
     Peak level 97.2 %
     Track quality 100.0 %
     Test CRC EE4A8DEA
     Copy CRC EE4A8DEA
     Accurately ripped (confidence 5)  [29E58D59]
     Copy OK
Track  7
     Filename C:\muse.fm\Gustav Mahler - Symphonie No. 9 (Herbert von Karajan, Berliner Philharmoniker)\Disc 1\07. 1.7 Wie von Anfang.wav
     Peak level 64.2 %
     Track quality 100.0 %
     Test CRC 1C7669F8
     Copy CRC 1C7669F8
     Accurately ripped (confidence 5)  [92AE1DCC]
     Copy OK
Track  8
     Filename C:\muse.fm\Gustav Mahler - Symphonie No. 9 (Herbert von Karajan, Berliner Philharmoniker)\Disc 1\08. 1.8 Plotzlich bedeutend langsamer (Lento) und leise.wav
     Peak level 40.1 %
     Track quality 100.0 %
     Test CRC A764790D
     Copy CRC A764790D
     Accurately ripped (confidence 5)  [35AA7B8D]
     Copy OK
Track  9
     Filename C:\muse.fm\Gustav Mahler - Symphonie No. 9 (Herbert von Karajan, Berliner Philharmoniker)\Disc 1\09. 2.1 Im Tempo eines gemachlichen landers.wav
     Peak level 42.9 %
     Track quality 99.9 %
     Test CRC C50E5B55
     Copy CRC C50E5B55
     Accurately ripped (confidence 5)  [C3860E03]
     Copy OK
Track 10
     Filename C:\muse.fm\Gustav Mahler - Symphonie No. 9 (Herbert von Karajan, Berliner Philharmoniker)\Disc 1\10. 2.2 Poco piu mosso subito (Tempo II).wav
     Peak level 61.1 %
     Track quality 100.0 %
     Test CRC 6752E52B
     Copy CRC 6752E52B
     Accurately ripped (confidence 5)  [658516DF]
     Copy OK
Track 11
     Filename C:\muse.fm\Gustav Mahler - Symphonie No. 9 (Herbert von Karajan, Berliner Philharmoniker)\Disc 1\11. 2.3 Tempo III.wav
     Peak level 20.6 %
     Track quality 100.0 %
     Test CRC 6844AB2E
     Copy CRC 6844AB2E
     Accurately ripped (confidence 5)  [B94E75AD]
     Copy OK
Track 12
     Filename C:\muse.fm\Gustav Mahler - Symphonie No. 9 (Herbert von Karajan, Berliner Philharmoniker)\Disc 1\12. 2.4 A tempo II.wav
     Peak level 75.1 %
     Track quality 100.0 %
     Test CRC 40F9C879
     Copy CRC 40F9C879
     Accurately ripped (confidence 5)  [8450816E]
     Copy OK
Track 13
     Filename C:\muse.fm\Gustav Mahler - Symphonie No. 9 (Herbert von Karajan, Berliner Philharmoniker)\Disc 1\13. 2.5 Tempo I.wav
     Peak level 37.4 %
     Track quality 100.0 %
     Test CRC 376FA82A
     Copy CRC 376FA82A
     Accurately ripped (confidence 5)  [213F0459]
     Copy OK
Track 14
     Filename C:\muse.fm\Gustav Mahler - Symphonie No. 9 (Herbert von Karajan, Berliner Philharmoniker)\Disc 1\14. 2.6 Tempo II.wav
     Peak level 76.1 %
     Track quality 100.0 %
     Test CRC B5D0121A
     Copy CRC B5D0121A
     Accurately ripped (confidence 5)  [56059046]
     Copy OK
Track 15
     Filename C:\muse.fm\Gustav Mahler - Symphonie No. 9 (Herbert von Karajan, Berliner Philharmoniker)\Disc 1\15. 2.7 Tempo I subito.wav
     Peak level 26.1 %
     Track quality 100.0 %
     Test CRC A93AE548
     Copy CRC A93AE548
     Accurately ripped (confidence 5)  [CF414559]
     Copy OK
All tracks accurately ripped
No errors occurred
End of status reportCD2:Exact Audio Copy V0.99 prebeta 5 from 4. May 2009
EAC extraction logfile from 23. April 2010, 20:37
Gustav Mahler (Herbert Von Karajan, Berliner Philharmoniker) / Symphonie No. 9 Disc 2
Used drive  : SAMSUNG CD-R/RW SW-252S   Adapter: 1  ID: 0
Read mode               : Secure
Utilize accurate stream : Yes
Defeat audio cache      : Yes
Make use of C2 pointers : No
Read offset correction                      : 6
Overread into Lead-In and Lead-Out          : No
Fill up missing offset samples with silence : Yes
Delete leading and trailing silent blocks   : No
Null samples used in CRC calculations       : Yes
Used interface                              : Native Win32 interface for Win NT & 2000
Gap handling                                : Appended to previous track
Used output format              : User Defined Encoder
Selected bitrate                : 768 kBit/s
Quality                         : High
Add ID3 tag                     : No
Command line compressor         : C:\Program Files\Exact Audio Copy\FLAC\FLAC.EXE
Additional command line options : -8 -V -T "ARTIST=%a" -T "TITLE=%t" -T "ALBUM=%g" -T "DATE=%y" -T "TRACKNUMBER=%n" -T "GENRE=%m" -T "COMMENT=Encoded by EAC 0.99pb5 FLAC -8" %s
TOC of the extracted CD
     Track |   Start  |  Length  | Start sector | End sector
    ---------------------------------------------------------
        1  |  0:00.32 |  1:45.60 |        32    |     7966
        2  |  1:46.17 |  1:08.23 |      7967    |    13089
        3  |  2:54.40 |  1:19.37 |     13090    |    19051
        4  |  4:14.02 |  4:17.40 |     19052    |    38366
        5  |  8:31.42 |  1:53.35 |     38367    |    46876
        6  | 10:25.02 |  1:32.58 |     46877    |    53834
        7  | 11:57.60 |  0:56.47 |     53835    |    58081
        8  | 12:54.32 |  4:26.35 |     58082    |    78066
        9  | 17:20.67 |  2:45.08 |     78067    |    90449
       10  | 20:06.00 |  2:18.62 |     90450    |   100861
       11  | 22:24.62 |  3:57.10 |    100862    |   118646
       12  | 26:21.72 |  1:51.53 |    118647    |   127024
       13  | 28:13.50 |  1:56.22 |    127025    |   135746
       14  | 30:09.72 |  5:45.20 |    135747    |   161641
       15  | 35:55.17 |  3:47.15 |    161642    |   178681
Track  1
     Filename C:\muse.fm\Gustav Mahler - Symphonie No. 9 (Herbert von Karajan, Berliner Philharmoniker)\Disc 2\01. III. - 1. Rondo-burleske.wav
     Pre-gap length  0:00:02.32
     Peak level 63.6 %
     Track quality 100.0 %
     Test CRC B2BE48E0
     Copy CRC B2BE48E0
     Accurately ripped (confidence 6)  [C8740FA7]
     Copy OK
Track  2
     Filename C:\muse.fm\Gustav Mahler - Symphonie No. 9 (Herbert von Karajan, Berliner Philharmoniker)\Disc 2\02. III. - 2. L'istesso tempo.wav
     Peak level 38.0 %
     Track quality 100.0 %
     Test CRC 90825053
     Copy CRC 90825053
     Accurately ripped (confidence 6)  [E44C1C96]
     Copy OK
Track  3
     Filename C:\muse.fm\Gustav Mahler - Symphonie No. 9 (Herbert von Karajan, Berliner Philharmoniker)\Disc 2\03. III. - 3. Sempre l'istesso tempo.wav
     Peak level 80.6 %
     Track quality 100.0 %
     Test CRC CF3B0104
     Copy CRC CF3B0104
     Accurately ripped (confidence 6)  [F0696C28]
     Copy OK
Track  4
     Filename C:\muse.fm\Gustav Mahler - Symphonie No. 9 (Herbert von Karajan, Berliner Philharmoniker)\Disc 2\04. III. - 4. L'istesso tempo.wav
     Peak level 75.4 %
     Track quality 100.0 %
     Test CRC 8F974C69
     Copy CRC 8F974C69
     Accurately ripped (confidence 6)  [6C9F8DA1]
     Copy OK
Track  5
     Filename C:\muse.fm\Gustav Mahler - Symphonie No. 9 (Herbert von Karajan, Berliner Philharmoniker)\Disc 2\05. III. - 5. (clarinets).wav
     Peak level 26.7 %
     Track quality 100.0 %
     Test CRC 979ED369
     Copy CRC 979ED369
     Accurately ripped (confidence 6)  [2FC9003D]
     Copy OK
Track  6
     Filename C:\muse.fm\Gustav Mahler - Symphonie No. 9 (Herbert von Karajan, Berliner Philharmoniker)\Disc 2\06. III. - 6. Tempo I. subito.wav
     Peak level 96.5 %
     Track quality 100.0 %
     Test CRC E2D5136B
     Copy CRC E2D5136B
     Accurately ripped (confidence 6)  [E57B4EAA]
     Copy OK
Track  7
     Filename C:\muse.fm\Gustav Mahler - Symphonie No. 9 (Herbert von Karajan, Berliner Philharmoniker)\Disc 2\07. III. - 7. Piu stretto.wav
     Peak level 97.0 %
     Track quality 100.0 %
     Test CRC FD2EC78C
     Copy CRC FD2EC78C
     Accurately ripped (confidence 6)  [D772992D]
     Copy OK
Track  8
     Filename C:\muse.fm\Gustav Mahler - Symphonie No. 9 (Herbert von Karajan, Berliner Philharmoniker)\Disc 2\08. IV. - 1. Adagio.wav
     Peak level 36.5 %
     Track quality 100.0 %
     Test CRC 8D6F79EF
     Copy CRC 8D6F79EF
     Accurately ripped (confidence 6)  [9FBB6B5F]
     Copy OK
Track  9
     Filename C:\muse.fm\Gustav Mahler - Symphonie No. 9 (Herbert von Karajan, Berliner Philharmoniker)\Disc 2\09. IV. - 2. Plotzlich wieder langsam.wav
     Peak level 9.2 %
     Track quality 100.0 %
     Test CRC 81D3097A
     Copy CRC 81D3097A
     Accurately ripped (confidence 6)  [81BC0028]
     Copy OK
Track 10
     Filename C:\muse.fm\Gustav Mahler - Symphonie No. 9 (Herbert von Karajan, Berliner Philharmoniker)\Disc 2\10. IV. - 3. Molto adagio subito.wav
     Peak level 42.5 %
     Track quality 99.9 %
     Test CRC 5976B1A3
     Copy CRC 5976B1A3
     Accurately ripped (confidence 6)  [C747AE5C]
     Copy OK
Track 11
     Filename C:\muse.fm\Gustav Mahler - Symphonie No. 9 (Herbert von Karajan, Berliner Philharmoniker)\Disc 2\11. IV. - 4. A tempo (Molto adagio).wav
     Peak level 69.7 %
     Track quality 100.0 %
     Test CRC 6FD2D9C2
     Copy CRC 6FD2D9C2
     Accurately ripped (confidence 6)  [30684B6F]
     Copy OK
Track 12
     Filename C:\muse.fm\Gustav Mahler - Symphonie No. 9 (Herbert von Karajan, Berliner Philharmoniker)\Disc 2\12. IV. - 5. Stets sehr gehalten.wav
     Peak level 15.2 %
     Track quality 100.0 %
     Test CRC 9BD04449
     Copy CRC 9BD04449
     Accurately ripped (confidence 6)  [CBE93F3C]
     Copy OK
Track 13
     Filename C:\muse.fm\Gustav Mahler - Symphonie No. 9 (Herbert von Karajan, Berliner Philharmoniker)\Disc 2\13. IV. - 6. Fliessender, doch durchas nicht eilend.wav
     Peak level 99.1 %
     Track quality 100.0 %
     Test CRC ED163976
     Copy CRC ED163976
     Accurately ripped (confidence 6)  [8EFE7141]
     Copy OK
Track 14
     Filename C:\muse.fm\Gustav Mahler - Symphonie No. 9 (Herbert von Karajan, Berliner Philharmoniker)\Disc 2\14. IV. - 7. Tempo I. Molto adagio.wav
     Peak level 92.4 %
     Track quality 100.0 %
     Test CRC 63E1BD74
     Copy CRC 63E1BD74
     Accurately ripped (confidence 6)  [F0E4C4A9]
     Copy OK
Track 15
     Filename C:\muse.fm\Gustav Mahler - Symphonie No. 9 (Herbert von Karajan, Berliner Philharmoniker)\Disc 2\15. IV. - 8. Adagissimo.wav
     Peak level 2.2 %
     Track quality 100.0 %
     Test CRC 3AE19401
     Copy CRC 3AE19401
     Accurately ripped (confidence 6)  [17EE79A3]
     Copy OK
All tracks accurately ripped
No errors occurred
End of status report

Содержание индексной карты (.CUE)

CD1:REM GENRE Classical
REM DATE 1984
REM DISCID BF0A8C0F
REM COMMENT "ExactAudioCopy v0.99pb5"
PERFORMER "Gustav Mahler (Herbert Von Karajan, Berliner Philharmoniker)"
TITLE "Symphonie No  9"
FILE "01. 1.1 Andante comodo.wav" WAVE
  TRACK 01 AUDIO
    TITLE "1.1 Andante comodo"
    PERFORMER "Gustav Mahler (Herbert Von Karajan, Berliner Philharmoniker)"
    PREGAP 00:00:33
    INDEX 01 00:00:00
FILE "02. 1.2 Etwas frischer.wav" WAVE
  TRACK 02 AUDIO
    TITLE "1.2 Etwas frischer"
    PERFORMER "Gustav Mahler (Herbert Von Karajan, Berliner Philharmoniker)"
    INDEX 01 00:00:00
FILE "03. 1.3 (cors).wav" WAVE
  TRACK 03 AUDIO
    TITLE "1.3 (cors)"
    PERFORMER "Gustav Mahler (Herbert Von Karajan, Berliner Philharmoniker)"
    INDEX 01 00:00:00
FILE "04. 1.4 Mit Wut. Allegro risoluto.wav" WAVE
  TRACK 04 AUDIO
    TITLE "1.4 Mit Wut. Allegro risoluto"
    PERFORMER "Gustav Mahler (Herbert Von Karajan, Berliner Philharmoniker)"
    INDEX 01 00:00:00
FILE "05. 1.5 (cuivres).wav" WAVE
  TRACK 05 AUDIO
    TITLE "1.5 (cuivres)"
    PERFORMER "Gustav Mahler (Herbert Von Karajan, Berliner Philharmoniker)"
    INDEX 01 00:00:00
FILE "06. 1.6 Bewegter.wav" WAVE
  TRACK 06 AUDIO
    TITLE "1.6 Bewegter"
    PERFORMER "Gustav Mahler (Herbert Von Karajan, Berliner Philharmoniker)"
    INDEX 01 00:00:00
FILE "07. 1.7 Wie von Anfang.wav" WAVE
  TRACK 07 AUDIO
    TITLE "1.7 Wie von Anfang"
    PERFORMER "Gustav Mahler (Herbert Von Karajan, Berliner Philharmoniker)"
    INDEX 01 00:00:00
FILE "08. 1.8 Plotzlich bedeutend langsamer (Lento) und leise.wav" WAVE
  TRACK 08 AUDIO
    TITLE "1.8 Plotzlich bedeutend langsamer (Lento) und leise"
    PERFORMER "Gustav Mahler (Herbert Von Karajan, Berliner Philharmoniker)"
    INDEX 01 00:00:00
FILE "09. 2.1 Im Tempo eines gemachlichen landers.wav" WAVE
  TRACK 09 AUDIO
    TITLE "2.1 Im Tempo eines gemachlichen landers"
    PERFORMER "Gustav Mahler (Herbert Von Karajan, Berliner Philharmoniker)"
    INDEX 01 00:00:00
FILE "10. 2.2 Poco piu mosso subito (Tempo II).wav" WAVE
  TRACK 10 AUDIO
    TITLE "2.2 Poco piu mosso subito (Tempo II)"
    PERFORMER "Gustav Mahler (Herbert Von Karajan, Berliner Philharmoniker)"
    INDEX 01 00:00:00
FILE "11. 2.3 Tempo III.wav" WAVE
  TRACK 11 AUDIO
    TITLE "2.3 Tempo III"
    PERFORMER "Gustav Mahler (Herbert Von Karajan, Berliner Philharmoniker)"
    INDEX 01 00:00:00
FILE "12. 2.4 A tempo II.wav" WAVE
  TRACK 12 AUDIO
    TITLE "2.4 A tempo II"
    PERFORMER "Gustav Mahler (Herbert Von Karajan, Berliner Philharmoniker)"
    INDEX 01 00:00:00
FILE "13. 2.5 Tempo I.wav" WAVE
  TRACK 13 AUDIO
    TITLE "2.5 Tempo I"
    PERFORMER "Gustav Mahler (Herbert Von Karajan, Berliner Philharmoniker)"
    INDEX 01 00:00:00
FILE "14. 2.6 Tempo II.wav" WAVE
  TRACK 14 AUDIO
    TITLE "2.6 Tempo II"
    PERFORMER "Gustav Mahler (Herbert Von Karajan, Berliner Philharmoniker)"
    INDEX 01 00:00:00
FILE "15. 2.7 Tempo I subito.wav" WAVE
  TRACK 15 AUDIO
    TITLE "2.7 Tempo I subito"
    PERFORMER "Gustav Mahler (Herbert Von Karajan, Berliner Philharmoniker)"
    INDEX 01 00:00:00CD2:REM GENRE Classical
REM DATE 1984
REM DISCID C3094E0F
REM COMMENT "ExactAudioCopy v0.99pb5"
PERFORMER "Gustav Mahler (Herbert Von Karajan, Berliner Philharmoniker)"
TITLE "Symphonie No. 9 Disc 2"
FILE "01. III. - 1. Rondo-burleske.wav" WAVE
  TRACK 01 AUDIO
    TITLE "III. - 1. Rondo-burleske"
    PERFORMER "Gustav Mahler (Herbert Von Karajan, Berliner Philharmoniker)"
    PREGAP 00:00:32
    INDEX 01 00:00:00
FILE "02. III. - 2. L'istesso tempo.wav" WAVE
  TRACK 02 AUDIO
    TITLE "III. - 2. L'istesso tempo"
    PERFORMER "Gustav Mahler (Herbert Von Karajan, Berliner Philharmoniker)"
    INDEX 01 00:00:00
FILE "03. III. - 3. Sempre l'istesso tempo.wav" WAVE
  TRACK 03 AUDIO
    TITLE "III. - 3. Sempre l'istesso tempo"
    PERFORMER "Gustav Mahler (Herbert Von Karajan, Berliner Philharmoniker)"
    INDEX 01 00:00:00
FILE "04. III. - 4. L'istesso tempo.wav" WAVE
  TRACK 04 AUDIO
    TITLE "III. - 4. L'istesso tempo"
    PERFORMER "Gustav Mahler (Herbert Von Karajan, Berliner Philharmoniker)"
    INDEX 01 00:00:00
FILE "05. III. - 5. (clarinets).wav" WAVE
  TRACK 05 AUDIO
    TITLE "III. - 5. (clarinets)"
    PERFORMER "Gustav Mahler (Herbert Von Karajan, Berliner Philharmoniker)"
    INDEX 01 00:00:00
FILE "06. III. - 6. Tempo I. subito.wav" WAVE
  TRACK 06 AUDIO
    TITLE "III. - 6. Tempo I. subito"
    PERFORMER "Gustav Mahler (Herbert Von Karajan, Berliner Philharmoniker)"
    INDEX 01 00:00:00
FILE "07. III. - 7. Piu stretto.wav" WAVE
  TRACK 07 AUDIO
    TITLE "III. - 7. Piu stretto"
    PERFORMER "Gustav Mahler (Herbert Von Karajan, Berliner Philharmoniker)"
    INDEX 01 00:00:00
FILE "08. IV. - 1. Adagio.wav" WAVE
  TRACK 08 AUDIO
    TITLE "IV. - 1. Adagio"
    PERFORMER "Gustav Mahler (Herbert Von Karajan, Berliner Philharmoniker)"
    INDEX 01 00:00:00
FILE "09. IV. - 2. Plotzlich wieder langsam.wav" WAVE
  TRACK 09 AUDIO
    TITLE "IV. - 2. Plotzlich wieder langsam"
    PERFORMER "Gustav Mahler (Herbert Von Karajan, Berliner Philharmoniker)"
    INDEX 01 00:00:00
FILE "10. IV. - 3. Molto adagio subito.wav" WAVE
  TRACK 10 AUDIO
    TITLE "IV. - 3. Molto adagio subito"
    PERFORMER "Gustav Mahler (Herbert Von Karajan, Berliner Philharmoniker)"
    INDEX 01 00:00:00
FILE "11. IV. - 4. A tempo (Molto adagio).wav" WAVE
  TRACK 11 AUDIO
    TITLE "IV. - 4. A tempo (Molto adagio)"
    PERFORMER "Gustav Mahler (Herbert Von Karajan, Berliner Philharmoniker)"
    INDEX 01 00:00:00
FILE "12. IV. - 5. Stets sehr gehalten.wav" WAVE
  TRACK 12 AUDIO
    TITLE "IV. - 5. Stets sehr gehalten"
    PERFORMER "Gustav Mahler (Herbert Von Karajan, Berliner Philharmoniker)"
    INDEX 01 00:00:00
FILE "13. IV. - 6. Fliessender, doch durchas nicht eilend.wav" WAVE
  TRACK 13 AUDIO
    TITLE "IV. - 6. Fliessender, doch durchas nicht eilend"
    PERFORMER "Gustav Mahler (Herbert Von Karajan, Berliner Philharmoniker)"
    INDEX 01 00:00:00
FILE "14. IV. - 7. Tempo I. Molto adagio.wav" WAVE
  TRACK 14 AUDIO
    TITLE "IV. - 7. Tempo I. Molto adagio"
    PERFORMER "Gustav Mahler (Herbert Von Karajan, Berliner Philharmoniker)"
    INDEX 01 00:00:00
FILE "15. IV. - 8. Adagissimo.wav" WAVE
  TRACK 15 AUDIO
    TITLE "IV. - 8. Adagissimo"
    PERFORMER "Gustav Mahler (Herbert Von Karajan, Berliner Philharmoniker)"
    INDEX 01 00:00:00

Jean-Yves Duperron
** 1984 Gramophone Record of the Year and Orchestral Awards **
This live performance from 1982 is one of those special and rare moments when all the cogs and tumblers of the universe have clicked into place. For a conductor having recorded very little of Mahler's repertoire, this performance is amazing on all accounts. The focus and intensity never lose their grip, and the profound emotions within the music are omnipresent and brought to the fore like no other interpretation before or since. The orchestra shines at every moment, from the cataclysmic climaxes in the first movement to the last barely audible sighs of resignation at the end of the last movement, every note is bang on. It's as if one raised eyebrow or one lift of a finger from the conductor was all that was needed for all the musicians to know exactly what was expected of them to bring out the wonders in that magnificent work.
This recording will remain a torch in the darkness for a long time to come!
                                                                                       
                       
                       
                       
                       
                       
                                磁力下载(论坛代下载服务)::
                                                               
                                       
付费主题

已有0人支付


                                               
  • 348.5 MB
  • 温馨提示

    记得善用社区搜索功能,那里可能会有你想要的资源;论坛站内搜索

    如果你有什么需要的资源可以去资源求档发帖,求助社区的网友,我们会在第一时间给你回复哦;资源求档

    对于本社区网盘链接失效密码错误各种报错请在反馈板块反馈报错发帖,您的支持,是我们发展的最大动力;投诉建议

    回复

    使用道具 举报

    您需要登录后才可以回帖 登录 | 立即注册 微信登录

    本版积分规则

    关注0

    粉丝3

    帖子30621

    发布主题
    阅读排行更多+
    关闭

    站长推荐上一条 /1 下一条

    活动提示

    赞助永久VIP会员送3T硬盘一块 限时活动

    地址:立刻参加

    我知道了
    收藏帖子 返回列表 这是一个自定义按钮
    音乐分享,音乐下载。
    微信公众号
    微信号:hires_
    意见反馈:admin@maomicd.com

    加入我们的官方QQ群和微信群

    Powered by Discuz! X3.4 Archiver|手机版|小黑屋|捌零音乐论坛 ( 苏ICP备20015413号 )|( 苏公网安备 32030502000272号) 繁體

    GMT+8, 2021-9-21 12:38