[古典] (Classical) Ludwig van Beethoven - The Complete Symphonies (New York Philharmonic, Bruno Walter) [6 CD] - 2011 (1941-1952), FLAC (image+.cue) lossless

[复制链接]
lz189 发表于 2021-9-10 16:56:53 | 显示全部楼层 |阅读模式 打印 上一主题 下一主题
Ludwig van Beethoven - The Complete Symphonies (New York Philharmonic, Bruno Walter)
Жанр: Classical
Год издания диска: 2011
Издатель (лейбл): United Archives
Номер по каталогу: NUA02
Дата записи: 1941-1953
Аудиокодек: FLAC
Тип рипа: image+.cue
Битрейт аудио: lossless
Продолжительность: 6:40:05
Источник: Demonoid
Наличие сканов в содержимом раздачи: да
Треклист:
CD1 - Symphonies Nos. 1 & 3
Symphony No.1 in C major, Op.21
1. I. Adagio molto - Allegro con brio
2. II. Andante cantabile con moto
3. III. Menuetto. Allegro molto e vivace
4. IV. Finale. Adagio - Allegro molto e vivace
29.11.1947 - Carnegie Hall

Symphony No.3 in E-flat major, Op.55 "Eroica"
5. I. Allegro con brio
6. II. Marcia funebre. Adagio assai
7. III. Scherzo. Allegro vivace
8. IV. Finale. Allegro molto
21.03, 16.04 & 04.05 1949 - 30th Street Studio

CD2 - Symphonies Nos. 2 & 4
Symphony No.2 in D major, Op.36
1. I. Adagio molto - Allegro con brio
2. II. Larghetto
3. III. Scherzo. Allegro
4. IV. Finale. Allegro molto
17.05.1952 - 30th Street Studio
Symphony No.4 in B-flat major, Op.60
5. I. Adagio - Allegro vivace
6. II. Adagio
7. III. Allegro vivace
8. IV. Allegro ma non troppo
24.03.1952 - 30th Street Studio

CD3 - Symphonies Nos. 5 & 6
Symphony No.5 in C minor, Op.67
1. I. Allegro con brio
2. II. Andante con moto
3. III. Allegro
4. IV. Allegro
13.02.1950 - 30th Street Studio
Symphony No.6 in F major, Op.68 "Pastoral"
5. I. Allegro ma non troppo
6. II. Andante molto mosso
7. III. Allegro
8. IV. Allegro
9. V. Allegretto
10 & 12.01.1946 - Academy of Music

CD4 - Symphonies Nos. 7 & 8
Symphony No.7 in A major, Op.92
1. I. Poco sostenuto - Vivace
2. II. Allegretto
3. III. Scherzo (Presto) & Trio
4. IV. Allegro con brio
12.03.1951 - 30th Street Studio
Symphony No.8 in F major, Op.93
5. I. Allegro vivace e con brio
6. II. Allegretto scherzando
7. III. Tempo di Minuetto
8. IV. Finale. Allegro vivace
18.04.1942 - Liederkranz Hall

CD5 - Symphony No. 9
Symphony No.9 in D minor, Op.125 "Choral"
1. I. Allegro ma non troppo un poco maestoso
2. II. Molto vivace
3. III. Adagio molto e cantabile
4. IV. Presto
5. IV. Ode 'An die Freude'
16.04.1949 and (last movement) 07.03.1953
Frances Yeend, soprano
Martha Lipton, alto
David Lloyd, tenor
Mack Harrel, bass
Westminster Choir

CD6 - Symphonies Nos. 3 & 5
Symphony No.3 in E-flat major, Op.55 "Eroica"
1. I. Allegro con brio
2. II. Marcia funebre. Adagio assai
3. III. Scherzo. Allegro vivace
4. IV. Finale. Allegro molto
20.01.1941 - Liederkranz Hall
Symphony No.5 in C minor, Op.67
5. I. Allegro con brio
6. II. Andante con moto
7. III. Allegro
8. IV. Allegro
15.12.1941 - Liederkranz Hall
Исполнители:
New York Philharmonic
Philadelphia Orchestra (Op.68)
Conductor: Bruno Walter
Лог создания рипа

CD1

Exact Audio Copy V1.0 beta 3 from 29. August 2011
EAC extraction logfile from 23. April 2012, 9:01
Bruno Walter / Beethoven 1
Used drive  : HL-DT-STDVDRAM GH22NS40   Adapter: 1  ID: 0
Read mode               : Secure
Utilize accurate stream : Yes
Defeat audio cache      : No
Make use of C2 pointers : Yes
Read offset correction                      : 667
Overread into Lead-In and Lead-Out          : No
Fill up missing offset samples with silence : Yes
Delete leading and trailing silent blocks   : No
Null samples used in CRC calculations       : Yes
Used interface                              : Native Win32 interface for Win NT & 2000
Used output format              : User Defined Encoder
Selected bitrate                : 896 kBit/s
Quality                         : High
Add ID3 tag                     : No
Command line compressor         : C:\Program Files\FLAC\flac.exe
Additional command line options : -8 -V -T "ARTIST=%artist%" -T "TITLE=%title%" -T "ALBUM=%albumtitle%" -T "DATE=%year%" -T "TRACKNUMBER=%tracknr%" -T "GENRE=%genre%" -T "PERFORMER=%albuminterpret%" -T "COMPOSER=%composer%" %haslyrics%--tag-from-file=LYRICS="%lyricsfile%"%haslyrics% -T "ALBUMARTIST=%albumartist%" -T "DISCNUMBER=%cdnumber%" -T "TOTALDISCS=%totalcds%" -T "TOTALTRACKS=%numtracks%" -T "COMMENT=%comment%" %source% -o %dest%
TOC of the extracted CD
     Track |   Start  |  Length  | Start sector | End sector
    ---------------------------------------------------------
        1  |  0:00.00 |  6:53.34 |         0    |    31008
        2  |  6:53.34 |  6:33.22 |     31009    |    60505
        3  | 13:26.56 |  3:29.22 |     60506    |    76202
        4  | 16:56.03 |  5:59.11 |     76203    |   103138
        5  | 22:55.14 | 15:02.22 |    103139    |   170810
        6  | 37:57.36 | 16:46.21 |    170811    |   246281
        7  | 54:43.57 |  4:44.25 |    246282    |   267606
        8  | 59:28.07 | 11:54.06 |    267607    |   321162
Range status and errors
Selected range
     Filename C:\Documents and Settings\Administrator\Desktop\EAC\Bruno Walter - Beethoven 1.wav
     Peak level 89.5 %
     Extraction speed 28.7 X
     Range quality 100.0 %
     Test CRC B5D5D3A0
     Copy CRC B5D5D3A0
     Copy OK
No errors occurred
AccurateRip summary
Track  1  not present in database
Track  2  not present in database
Track  3  not present in database
Track  4  not present in database
Track  5  not present in database
Track  6  not present in database
Track  7  not present in database
Track  8  not present in database
None of the tracks are present in the AccurateRip database
End of status report
---- CUETools DB Plugin V2.1.3
[CTDB TOCID: 3gANYtTD90aEtdFyHASzT24QK3s-] found, Submit result: already submitted
[da738c99] (1/1) Accurately ripped
==== Log checksum EDE8D363132D461CF42EE6555AC8A3A705E69492883C123A40A7D7F3CBC6266A ====


CD2

Exact Audio Copy V1.0 beta 3 from 29. August 2011
EAC extraction logfile from 23. April 2012, 9:12
Bruno Walter / Beethoven 2
Used drive  : HL-DT-STDVDRAM GH22NS40   Adapter: 1  ID: 0
Read mode               : Secure
Utilize accurate stream : Yes
Defeat audio cache      : No
Make use of C2 pointers : Yes
Read offset correction                      : 667
Overread into Lead-In and Lead-Out          : No
Fill up missing offset samples with silence : Yes
Delete leading and trailing silent blocks   : No
Null samples used in CRC calculations       : Yes
Used interface                              : Native Win32 interface for Win NT & 2000
Used output format              : User Defined Encoder
Selected bitrate                : 896 kBit/s
Quality                         : High
Add ID3 tag                     : No
Command line compressor         : C:\Program Files\FLAC\flac.exe
Additional command line options : -8 -V -T "ARTIST=%artist%" -T "TITLE=%title%" -T "ALBUM=%albumtitle%" -T "DATE=%year%" -T "TRACKNUMBER=%tracknr%" -T "GENRE=%genre%" -T "PERFORMER=%albuminterpret%" -T "COMPOSER=%composer%" %haslyrics%--tag-from-file=LYRICS="%lyricsfile%"%haslyrics% -T "ALBUMARTIST=%albumartist%" -T "DISCNUMBER=%cdnumber%" -T "TOTALDISCS=%totalcds%" -T "TOTALTRACKS=%numtracks%" -T "COMMENT=%comment%" %source% -o %dest%
TOC of the extracted CD
     Track |   Start  |  Length  | Start sector | End sector
    ---------------------------------------------------------
        1  |  0:00.00 |  9:59.08 |         0    |    44932
        2  |  9:59.08 | 13:10.73 |     44933    |   104255
        3  | 23:10.06 |  3:39.26 |    104256    |   120706
        4  | 26:49.32 |  6:37.10 |    120707    |   150491
        5  | 33:26.42 |  9:26.27 |    150492    |   192968
        6  | 42:52.69 | 10:02.43 |    192969    |   238161
        7  | 52:55.37 |  5:30.19 |    238162    |   262930
        8  | 58:25.56 |  5:43.20 |    262931    |   288675
Range status and errors
Selected range
     Filename C:\Documents and Settings\Administrator\Desktop\EAC\Bruno Walter - Beethoven 2.wav
     Peak level 91.6 %
     Extraction speed 28.6 X
     Range quality 100.0 %
     Test CRC BA162EDD
     Copy CRC BA162EDD
     Copy OK
No errors occurred
AccurateRip summary
Track  1  not present in database
Track  2  not present in database
Track  3  not present in database
Track  4  not present in database
Track  5  not present in database
Track  6  not present in database
Track  7  not present in database
Track  8  not present in database
None of the tracks are present in the AccurateRip database
End of status report
---- CUETools DB Plugin V2.1.3
[CTDB TOCID: 7Q1l_Z.d4gTWn5VeGWtKARDD6tY-] found, Submit result: already submitted
[e9d81eac] (1/1) Accurately ripped
==== Log checksum CA1F21FC1D4CB3B876753B3BE73C5E277B40D9D00F400130047F1ADD7DAD7B89 ====


CD3

Exact Audio Copy V1.0 beta 3 from 29. August 2011
EAC extraction logfile from 23. April 2012, 9:24
Bruno Walter / Beethoven 3
Used drive  : HL-DT-STDVDRAM GH22NS40   Adapter: 1  ID: 0
Read mode               : Secure
Utilize accurate stream : Yes
Defeat audio cache      : No
Make use of C2 pointers : Yes
Read offset correction                      : 667
Overread into Lead-In and Lead-Out          : No
Fill up missing offset samples with silence : Yes
Delete leading and trailing silent blocks   : No
Null samples used in CRC calculations       : Yes
Used interface                              : Native Win32 interface for Win NT & 2000
Used output format              : User Defined Encoder
Selected bitrate                : 896 kBit/s
Quality                         : High
Add ID3 tag                     : No
Command line compressor         : C:\Program Files\FLAC\flac.exe
Additional command line options : -8 -V -T "ARTIST=%artist%" -T "TITLE=%title%" -T "ALBUM=%albumtitle%" -T "DATE=%year%" -T "TRACKNUMBER=%tracknr%" -T "GENRE=%genre%" -T "PERFORMER=%albuminterpret%" -T "COMPOSER=%composer%" %haslyrics%--tag-from-file=LYRICS="%lyricsfile%"%haslyrics% -T "ALBUMARTIST=%albumartist%" -T "DISCNUMBER=%cdnumber%" -T "TOTALDISCS=%totalcds%" -T "TOTALTRACKS=%numtracks%" -T "COMMENT=%comment%" %source% -o %dest%
TOC of the extracted CD
     Track |   Start  |  Length  | Start sector | End sector
    ---------------------------------------------------------
        1  |  0:00.00 |  6:17.18 |         0    |    28292
        2  |  6:17.18 | 11:29.47 |     28293    |    80014
        3  | 17:46.65 |  5:55.39 |     80015    |   106678
        4  | 23:42.29 |  8:40.23 |    106679    |   145701
        5  | 32:22.52 |  9:12.32 |    145702    |   187133
        6  | 41:35.09 | 11:58.38 |    187134    |   241021
        7  | 53:33.47 |  5:09.64 |    241022    |   264260
        8  | 58:43.36 |  3:23.41 |    264261    |   279526
        9  | 62:07.02 |  9:13.20 |    279527    |   321021
Range status and errors
Selected range
     Filename C:\Documents and Settings\Administrator\Desktop\EAC\Bruno Walter - Beethoven 3.wav
     Peak level 86.0 %
     Extraction speed 28.7 X
     Range quality 100.0 %
     Test CRC 6B832852
     Copy CRC 6B832852
     Copy OK
No errors occurred
AccurateRip summary
Track  1  not present in database
Track  2  not present in database
Track  3  not present in database
Track  4  not present in database
Track  5  not present in database
Track  6  not present in database
Track  7  not present in database
Track  8  not present in database
Track  9  not present in database
None of the tracks are present in the AccurateRip database
End of status report
---- CUETools DB Plugin V2.1.3
[CTDB TOCID: d_.RCHghUSVqbkMWc0WI0fAQEJQ-] found, Submit result: already submitted
[75f615de] (1/1) Accurately ripped
==== Log checksum A2B0E08817C5870437186F184F9119DDD94E51E5CF54BAEE30920572AD4BF6C2 ====


CD4

Exact Audio Copy V1.0 beta 3 from 29. August 2011
EAC extraction logfile from 23. April 2012, 9:37
Bruno Walter / Beethoven 4
Used drive  : HL-DT-STDVDRAM GH22NS40   Adapter: 1  ID: 0
Read mode               : Secure
Utilize accurate stream : Yes
Defeat audio cache      : No
Make use of C2 pointers : Yes
Read offset correction                      : 667
Overread into Lead-In and Lead-Out          : No
Fill up missing offset samples with silence : Yes
Delete leading and trailing silent blocks   : No
Null samples used in CRC calculations       : Yes
Used interface                              : Native Win32 interface for Win NT & 2000
Used output format              : User Defined Encoder
Selected bitrate                : 896 kBit/s
Quality                         : High
Add ID3 tag                     : No
Command line compressor         : C:\Program Files\FLAC\flac.exe
Additional command line options : -8 -V -T "ARTIST=%artist%" -T "TITLE=%title%" -T "ALBUM=%albumtitle%" -T "DATE=%year%" -T "TRACKNUMBER=%tracknr%" -T "GENRE=%genre%" -T "PERFORMER=%albuminterpret%" -T "COMPOSER=%composer%" %haslyrics%--tag-from-file=LYRICS="%lyricsfile%"%haslyrics% -T "ALBUMARTIST=%albumartist%" -T "DISCNUMBER=%cdnumber%" -T "TOTALDISCS=%totalcds%" -T "TOTALTRACKS=%numtracks%" -T "COMMENT=%comment%" %source% -o %dest%
TOC of the extracted CD
     Track |   Start  |  Length  | Start sector | End sector
    ---------------------------------------------------------
        1  |  0:00.00 | 11:49.20 |         0    |    53194
        2  | 11:49.20 |  9:16.01 |     53195    |    94895
        3  | 21:05.21 |  7:41.36 |     94896    |   129506
        4  | 28:46.57 |  6:21.22 |    129507    |   158103
        5  | 35:08.04 |  7:24.46 |    158104    |   191449
        6  | 42:32.50 |  4:04.44 |    191450    |   209793
        7  | 46:37.19 |  5:13.13 |    209794    |   233281
        8  | 51:50.32 |  7:41.44 |    233282    |   267900
Range status and errors
Selected range
     Filename C:\Documents and Settings\Administrator\Desktop\EAC\Bruno Walter - Beethoven 4.wav
     Peak level 80.0 %
     Extraction speed 28.4 X
     Range quality 100.0 %
     Test CRC AE61918B
     Copy CRC AE61918B
     Copy OK
No errors occurred
AccurateRip summary
Track  1  not present in database
Track  2  not present in database
Track  3  not present in database
Track  4  not present in database
Track  5  not present in database
Track  6  not present in database
Track  7  not present in database
Track  8  not present in database
None of the tracks are present in the AccurateRip database
End of status report
---- CUETools DB Plugin V2.1.3
[CTDB TOCID: nq3o0tuMcsQKWdXzZBlaHyy.BgM-] found, Submit result: already submitted
[d11c6cba] (1/1) Accurately ripped
==== Log checksum 3774B745CC85D5D00540480B02B4DDF2069A753DB7145CAD5B62C554EE7D026C ====


CD5

Exact Audio Copy V1.0 beta 3 from 29. August 2011
EAC extraction logfile from 23. April 2012, 9:47
Bruno Walter / Beethoven 5
Used drive  : HL-DT-STDVDRAM GH22NS40   Adapter: 1  ID: 0
Read mode               : Secure
Utilize accurate stream : Yes
Defeat audio cache      : No
Make use of C2 pointers : Yes
Read offset correction                      : 667
Overread into Lead-In and Lead-Out          : No
Fill up missing offset samples with silence : Yes
Delete leading and trailing silent blocks   : No
Null samples used in CRC calculations       : Yes
Used interface                              : Native Win32 interface for Win NT & 2000
Used output format              : User Defined Encoder
Selected bitrate                : 896 kBit/s
Quality                         : High
Add ID3 tag                     : No
Command line compressor         : C:\Program Files\FLAC\flac.exe
Additional command line options : -8 -V -T "ARTIST=%artist%" -T "TITLE=%title%" -T "ALBUM=%albumtitle%" -T "DATE=%year%" -T "TRACKNUMBER=%tracknr%" -T "GENRE=%genre%" -T "PERFORMER=%albuminterpret%" -T "COMPOSER=%composer%" %haslyrics%--tag-from-file=LYRICS="%lyricsfile%"%haslyrics% -T "ALBUMARTIST=%albumartist%" -T "DISCNUMBER=%cdnumber%" -T "TOTALDISCS=%totalcds%" -T "TOTALTRACKS=%numtracks%" -T "COMMENT=%comment%" %source% -o %dest%
TOC of the extracted CD
     Track |   Start  |  Length  | Start sector | End sector
    ---------------------------------------------------------
        1  |  0:00.00 | 15:30.37 |         0    |    69786
        2  | 15:30.37 | 10:07.23 |     69787    |   115334
        3  | 25:37.60 | 16:28.20 |    115335    |   189454
        4  | 42:06.05 |  6:41.67 |    189455    |   219596
        5  | 48:47.72 | 17:00.56 |    219597    |   296152
Range status and errors
Selected range
     Filename C:\Documents and Settings\Administrator\Desktop\EAC\Bruno Walter - Beethoven 5.wav
     Peak level 90.5 %
     Extraction speed 28.8 X
     Range quality 100.0 %
     Test CRC 69D0DA82
     Copy CRC 69D0DA82
     Copy OK
No errors occurred
AccurateRip summary
Track  1  not present in database
Track  2  not present in database
Track  3  not present in database
Track  4  not present in database
Track  5  not present in database
None of the tracks are present in the AccurateRip database
End of status report
---- CUETools DB Plugin V2.1.3
[CTDB TOCID: kL5V2.2.3a8WWDzQxTQUSUeD4L4-] found, Submit result: already submitted
[89fb12ab] (1/1) Accurately ripped
==== Log checksum DFBCDCD54C0B8AD192D4C81DFC5A724C8B9F704F39B02D70CE13FF1E31A42CCA ====


CD6

Exact Audio Copy V1.0 beta 3 from 29. August 2011
EAC extraction logfile from 23. April 2012, 9:58
Bruno Walter / Beethoven 6
Used drive  : HL-DT-STDVDRAM GH22NS40   Adapter: 1  ID: 0
Read mode               : Secure
Utilize accurate stream : Yes
Defeat audio cache      : No
Make use of C2 pointers : Yes
Read offset correction                      : 667
Overread into Lead-In and Lead-Out          : No
Fill up missing offset samples with silence : Yes
Delete leading and trailing silent blocks   : No
Null samples used in CRC calculations       : Yes
Used interface                              : Native Win32 interface for Win NT & 2000
Used output format              : User Defined Encoder
Selected bitrate                : 896 kBit/s
Quality                         : High
Add ID3 tag                     : No
Command line compressor         : C:\Program Files\FLAC\flac.exe
Additional command line options : -8 -V -T "ARTIST=%artist%" -T "TITLE=%title%" -T "ALBUM=%albumtitle%" -T "DATE=%year%" -T "TRACKNUMBER=%tracknr%" -T "GENRE=%genre%" -T "PERFORMER=%albuminterpret%" -T "COMPOSER=%composer%" %haslyrics%--tag-from-file=LYRICS="%lyricsfile%"%haslyrics% -T "ALBUMARTIST=%albumartist%" -T "DISCNUMBER=%cdnumber%" -T "TOTALDISCS=%totalcds%" -T "TOTALTRACKS=%numtracks%" -T "COMMENT=%comment%" %source% -o %dest%
TOC of the extracted CD
     Track |   Start  |  Length  | Start sector | End sector
    ---------------------------------------------------------
        1  |  0:00.00 | 15:16.34 |         0    |    68733
        2  | 15:16.34 | 16:27.62 |     68734    |   142820
        3  | 31:44.21 |  4:37.57 |    142821    |   163652
        4  | 36:22.03 | 12:26.12 |    163653    |   219614
        5  | 48:48.15 |  6:09.11 |    219615    |   247300
        6  | 54:57.26 | 10:51.53 |    247301    |   296178
        7  | 65:49.04 |  5:21.64 |    296179    |   320317
        8  | 71:10.68 |  7:56.66 |    320318    |   356083
Range status and errors
Selected range
     Filename C:\Documents and Settings\Administrator\Desktop\EAC\Bruno Walter - Beethoven 6.wav
     Peak level 78.5 %
     Extraction speed 28.8 X
     Range quality 100.0 %
     Test CRC 5DDF36CB
     Copy CRC 5DDF36CB
     Copy OK
No errors occurred
AccurateRip summary
Track  1  not present in database
Track  2  not present in database
Track  3  not present in database
Track  4  not present in database
Track  5  not present in database
Track  6  not present in database
Track  7  not present in database
Track  8  not present in database
None of the tracks are present in the AccurateRip database
End of status report
---- CUETools DB Plugin V2.1.3
[CTDB TOCID: pIrObF.BB9KRdohTSNVmHnCCZUI-] found, Submit result: already submitted
[996b9a2d] (1/1) Accurately ripped
==== Log checksum 29DC35AE4669DEA0A4B4918D3636DC5A72241FF01CD95DD9F8FE02CE87E7E703 ====



Содержание индексной карты (.CUE)

CD1

REM GENRE Classical
REM DISCID 6D10BA08
REM COMMENT "ExactAudioCopy v1.0b3"
PERFORMER "Bruno Walter"
TITLE "Beethoven 1"
FILE "Bruno Walter - Beethoven 1.flac" WAVE
  TRACK 01 AUDIO
    TITLE "Beethoven - Symphony No.1 - I. Adagio molto - Allegro con brio (29.11.1947)"
    PERFORMER "Bruno Walter"
    FLAGS DCP
    INDEX 01 00:00:00
  TRACK 02 AUDIO
    TITLE "Beethoven - Symphony No.1 - II. Andante cantabile con moto"
    PERFORMER "Bruno Walter"
    FLAGS DCP
    INDEX 01 06:53:34
  TRACK 03 AUDIO
    TITLE "Beethoven - Symphony No.1 - III. Menuetto. Allegro molto e vivace"
    PERFORMER "Bruno Walter"
    FLAGS DCP
    INDEX 01 13:26:56
  TRACK 04 AUDIO
    TITLE "Beethoven - Symphony No.1 - IV. Finale. Adagio - Allegro molto e vivace"
    PERFORMER "Bruno Walter"
    FLAGS DCP
    INDEX 01 16:56:03
  TRACK 05 AUDIO
    TITLE "Beethoven - Symphony No.3 - I. Allegro con brio (21.03, 16.04 & 04.05 1949)"
    PERFORMER "Bruno Walter"
    FLAGS DCP
    INDEX 00 22:50:14
    INDEX 01 22:55:14
  TRACK 06 AUDIO
    TITLE "Beethoven - Symphony No.3 - II. Marcia funebre. Adagio assai"
    PERFORMER "Bruno Walter"
    FLAGS DCP
    INDEX 00 37:54:36
    INDEX 01 37:57:36
  TRACK 07 AUDIO
    TITLE "Beethoven - Symphony No.3 - III. Scherzo. Allegro vivace"
    PERFORMER "Bruno Walter"
    FLAGS DCP
    INDEX 00 54:40:57
    INDEX 01 54:43:57
  TRACK 08 AUDIO
    TITLE "Beethoven - Symphony No.3 - IV. Finale. Allegro molto"
    PERFORMER "Bruno Walter"
    FLAGS DCP
    INDEX 00 59:25:07
    INDEX 01 59:28:07


CD2

REM DISCID 5E0F0908
REM COMMENT "ExactAudioCopy v1.0b3"
PERFORMER "Bruno Walter"
TITLE "Beethoven 2"
FILE "Bruno Walter - Beethoven 2.flac" WAVE
  TRACK 01 AUDIO
    TITLE "Beethoven - Symphony No.2 - I. Adagio molto - Allegro con brio (17.05.1952)"
    PERFORMER "Bruno Walter"
    FLAGS DCP
    INDEX 01 00:00:00
  TRACK 02 AUDIO
    TITLE "Beethoven - Symphony No.2 - II. Larghetto"
    PERFORMER "Bruno Walter"
    FLAGS DCP
    INDEX 01 09:59:08
  TRACK 03 AUDIO
    TITLE "Beethoven - Symphony No.2 - III. Scherzo. Allegro"
    PERFORMER "Bruno Walter"
    FLAGS DCP
    INDEX 01 23:10:06
  TRACK 04 AUDIO
    TITLE "Beethoven - Symphony No.2 - IV. Finale. Allegro molto"
    PERFORMER "Bruno Walter"
    FLAGS DCP
    INDEX 01 26:49:32
  TRACK 05 AUDIO
    TITLE "Beethoven - Symphony No.4 - I. Adagio - Allegro vivace (24.03.1952)"
    PERFORMER "Bruno Walter"
    FLAGS DCP
    INDEX 00 33:21:42
    INDEX 01 33:26:42
  TRACK 06 AUDIO
    TITLE "Beethoven - Symphony No.4 - II. Adagio"
    PERFORMER "Bruno Walter"
    FLAGS DCP
    INDEX 01 42:52:69
  TRACK 07 AUDIO
    TITLE "Beethoven - Symphony No.4 - III. Allegro vivace"
    PERFORMER "Bruno Walter"
    FLAGS DCP
    INDEX 01 52:55:37
  TRACK 08 AUDIO
    TITLE "Beethoven - Symphony No.4 - IV. Allegro ma non troppo"
    PERFORMER "Bruno Walter"
    FLAGS DCP
    INDEX 01 58:25:56


CD3

REM GENRE Classical
REM DISCID 8610B809
REM COMMENT "ExactAudioCopy v1.0b3"
PERFORMER "Bruno Walter"
TITLE "Beethoven 3"
FILE "Bruno Walter - Beethoven 3.flac" WAVE
  TRACK 01 AUDIO
    TITLE "Beethoven - Symphony No.5 - I. Allegro con brio (13.02.1950)"
    PERFORMER "Bruno Walter"
    FLAGS DCP
    INDEX 01 00:00:00
  TRACK 02 AUDIO
    TITLE "Beethoven - Symphony No.5 - II. Andante con moto"
    PERFORMER "Bruno Walter"
    FLAGS DCP
    INDEX 00 06:14:18
    INDEX 01 06:17:18
  TRACK 03 AUDIO
    TITLE "Beethoven - Symphony No.5 - III. Allegro"
    PERFORMER "Bruno Walter"
    FLAGS DCP
    INDEX 00 17:43:65
    INDEX 01 17:46:65
  TRACK 04 AUDIO
    TITLE "Beethoven - Symphony No.5 - IV. Allegro"
    PERFORMER "Bruno Walter"
    FLAGS DCP
    INDEX 01 23:42:29
  TRACK 05 AUDIO
    TITLE "Beethoven - Symphony No.6 - I. Allegro ma non troppo (10 & 12.01.1946)"
    PERFORMER "Bruno Walter"
    FLAGS DCP
    INDEX 00 32:17:52
    INDEX 01 32:22:52
  TRACK 06 AUDIO
    TITLE "Beethoven - Symphony No.6 - II. Andante molto mosso"
    PERFORMER "Bruno Walter"
    FLAGS DCP
    INDEX 00 41:32:09
    INDEX 01 41:35:09
  TRACK 07 AUDIO
    TITLE "Beethoven - Symphony No.6 - III. Allegro"
    PERFORMER "Bruno Walter"
    FLAGS DCP
    INDEX 00 53:30:47
    INDEX 01 53:33:47
  TRACK 08 AUDIO
    TITLE "Beethoven - Symphony No.6 - IV. Allegro"
    PERFORMER "Bruno Walter"
    FLAGS DCP
    INDEX 01 58:43:36
  TRACK 09 AUDIO
    TITLE "Beethoven - Symphony No.6 - V. Allegretto"
    PERFORMER "Bruno Walter"
    FLAGS DCP
    INDEX 01 62:07:02


CD4

REM GENRE Classical
REM DISCID 630DF408
REM COMMENT "ExactAudioCopy v1.0b3"
PERFORMER "Bruno Walter"
TITLE "Beethoven 4"
FILE "Bruno Walter - Beethoven 4.flac" WAVE
  TRACK 01 AUDIO
    TITLE "Beethoven - Symphony No.7 - I. Poco sostenuto - Vivace (12.03.1951)"
    PERFORMER "Bruno Walter"
    FLAGS DCP
    INDEX 01 00:00:00
  TRACK 02 AUDIO
    TITLE "Beethoven - Symphony No.7 - II. Allegretto"
    PERFORMER "Bruno Walter"
    FLAGS DCP
    INDEX 01 11:49:20
  TRACK 03 AUDIO
    TITLE "Beethoven - Symphony No.7 - III. Scherzo (Presto) & Trio"
    PERFORMER "Bruno Walter"
    FLAGS DCP
    INDEX 01 21:05:21
  TRACK 04 AUDIO
    TITLE "Beethoven - Symphony No.7 - IV. Allegro con brio"
    PERFORMER "Bruno Walter"
    FLAGS DCP
    INDEX 01 28:46:57
  TRACK 05 AUDIO
    TITLE "Beethoven - Symphony No.8 - I. Allegro vivace e con brio (18.04.1942)"
    PERFORMER "Bruno Walter"
    FLAGS DCP
    INDEX 00 35:03:04
    INDEX 01 35:08:04
  TRACK 06 AUDIO
    TITLE "Beethoven - Symphony No.8 - II. Allegretto scherzando"
    PERFORMER "Bruno Walter"
    FLAGS DCP
    INDEX 01 42:32:50
  TRACK 07 AUDIO
    TITLE "Beethoven - Symphony No.8 - III. Tempo di Minuetto"
    PERFORMER "Bruno Walter"
    FLAGS DCP
    INDEX 01 46:37:19
  TRACK 08 AUDIO
    TITLE "Beethoven - Symphony No.8 - IV. Finale. Allegro vivace"
    PERFORMER "Bruno Walter"
    FLAGS DCP
    INDEX 01 51:50:32


CD5

REM GENRE Classical
REM DISCID 490F6C05
REM COMMENT "ExactAudioCopy v1.0b3"
PERFORMER "Bruno Walter"
TITLE "Beethoven 5"
FILE "Bruno Walter - Beethoven 5.flac" WAVE
  TRACK 01 AUDIO
    TITLE "Beethoven - Symphony No.9 - I. Allegro ma non troppo un poco maestoso (16.04...."
    PERFORMER "Bruno Walter"
    FLAGS DCP
    INDEX 01 00:00:00
  TRACK 02 AUDIO
    TITLE "Beethoven - Symphony No.9 - II. Molto vivace"
    PERFORMER "Bruno Walter"
    FLAGS DCP
    INDEX 00 15:27:37
    INDEX 01 15:30:37
  TRACK 03 AUDIO
    TITLE "Beethoven - Symphony No.9 - III. Adagio molto e cantabile"
    PERFORMER "Bruno Walter"
    FLAGS DCP
    INDEX 00 25:34:60
    INDEX 01 25:37:60
  TRACK 04 AUDIO
    TITLE "Beethoven - Symphony No.9 - IV. Presto (07.05.1953)"
    PERFORMER "Bruno Walter"
    FLAGS DCP
    INDEX 00 42:03:05
    INDEX 01 42:06:05
  TRACK 05 AUDIO
    TITLE "Beethoven - Symphony No.9 - IV. Ode 'An die Freude'"
    PERFORMER "Bruno Walter"
    FLAGS DCP
    INDEX 01 48:47:72


CD6

REM GENRE Classical
REM DISCID 79128B08
REM COMMENT "ExactAudioCopy v1.0b3"
PERFORMER "Bruno Walter"
TITLE "Beethoven 6"
FILE "Bruno Walter - Beethoven 6.flac" WAVE
  TRACK 01 AUDIO
    TITLE "Beethoven - Symphony No.3 - I. Allegro con brio (20.01.1941)"
    PERFORMER "Bruno Walter"
    FLAGS DCP
    INDEX 01 00:00:00
  TRACK 02 AUDIO
    TITLE "Beethoven - Symphony No.3 - II. Marcia funebre. Adagio assai"
    PERFORMER "Bruno Walter"
    FLAGS DCP
    INDEX 01 15:16:34
  TRACK 03 AUDIO
    TITLE "Beethoven - Symphony No.3 - III. Scherzo. Allegro vivace"
    PERFORMER "Bruno Walter"
    FLAGS DCP
    INDEX 01 31:44:21
  TRACK 04 AUDIO
    TITLE "Beethoven - Symphony No.3 - IV. Finale. Allegro molto"
    PERFORMER "Bruno Walter"
    FLAGS DCP
    INDEX 01 36:22:03
  TRACK 05 AUDIO
    TITLE "Beethoven - Symphony No.5 - I. Allegro con brio (15.12.1941)"
    PERFORMER "Bruno Walter"
    FLAGS DCP
    INDEX 00 48:42:15
    INDEX 01 48:48:15
  TRACK 06 AUDIO
    TITLE "Beethoven - Symphony No.5 - II. Andante con moto"
    PERFORMER "Bruno Walter"
    FLAGS DCP
    INDEX 01 54:57:26
  TRACK 07 AUDIO
    TITLE "Beethoven - Symphony No.5 - III. Allegro"
    PERFORMER "Bruno Walter"
    FLAGS DCP
    INDEX 01 65:49:04
  TRACK 08 AUDIO
    TITLE "Beethoven - Symphony No.5 - IV. Allegro"
    PERFORMER "Bruno Walter"
    FLAGS DCP
    INDEX 01 71:10:68


                                                                                       
                       
                       
                       
                       
                       
                                磁力下载(论坛代下载服务)::
                                                               
                                       
付费主题

已有0人支付


                                               
  • 1.11 GB
  • 温馨提示

    记得善用社区搜索功能,那里可能会有你想要的资源;论坛站内搜索

    如果你有什么需要的资源可以去资源求档发帖,求助社区的网友,我们会在第一时间给你回复哦;资源求档

    对于本社区网盘链接失效密码错误各种报错请在反馈板块反馈报错发帖,您的支持,是我们发展的最大动力;投诉建议

    回复

    使用道具 举报

    您需要登录后才可以回帖 登录 | 立即注册 微信登录

    本版积分规则

    关注0

    粉丝0

    帖子32315

    发布主题
    阅读排行更多+
    关闭

    站长推荐上一条 /1 下一条

    活动提示

    赞助永久VIP会员送3T硬盘一块 限时活动

    地址:立刻参加

    我知道了
    收藏帖子 返回列表 这是一个自定义按钮
    音乐分享,音乐下载。
    微信公众号
    微信号:hires_
    意见反馈:admin@maomicd.com

    加入我们的官方QQ群和微信群

    Powered by Discuz! X3.4 Archiver|手机版|小黑屋|捌零音乐论坛 ( 苏ICP备20015413号 )|( 苏公网安备 32030502000272号) 繁體

    GMT+8, 2021-9-26 09:56