[古典] (Classical, symphony) Дмитрий Шостакович - Симфония №9, Концерт для фортепиано с оркестром №1, Сюита "Приключения Корзинкиной", Два хора - Российский гос. симфони

[复制链接]
tikus75 发表于 2021-9-10 16:56:53 | 显示全部楼层 |阅读模式 打印 上一主题 下一主题
Дмитрий Шостакович - Симфония №9, Концерт для фортепиано с оркестром №1, Сюита "Приключения Корзинкиной", Два хора - Российский государственный симфонический оркестр, Валерий Полянский
Жанр: Classical, symphony, 20th century
Страна-производитель диска: UK
Год издания диска: 2006
Издатель (лейбл): Chandos Records
Номер по каталогу: CHAN 10378
Дата записи: 2003
Аудиокодек: FLAC
Тип рипа: image+.cue
Битрейт аудио: lossless
Продолжительность: 66:28
Источник: собственный рип
Наличие сканов в содержимом раздачи: да
Треклист:
Дмитрий Дмитриевич Шостакович (1906-1975)
[1]-[5] Симфония №9 ми бемоль мажор, соч. 70
Валерий Попов фагот
[6]-[7] Александр Давиденко: Два хора. Оркестровая редакция Д. Шостаковича, соч. 124
[8]-[11] Концерт для фортепиано с оркестром до минор, соч. 35
Татьяна Полянская фортепиано
Владимир Гончаров труба
[12]-[16] Сюита из музыки к фильму "Приключения Корзинкиной", соч. 59
Татьяна Полянская фортепиано
Елена Адамович фортепиано
Исполнители:
Государственная академическая симфоническая капелла России
Российский государственный симфонический оркестр
Валерий Полянский
Лог создания рипа

Exact Audio Copy V0.99 prebeta 5 from 4. May 2009
EAC extraction logfile from 10. November 2011, 18:47
Russian State Symphony Orchestra, Valeri Polyansky / Shostakovich - Symphony No.9
Used drive  : Optiarc DVD+-RW AD-5170S   Adapter: 1  ID: 2
Read mode               : Secure
Utilize accurate stream : Yes
Defeat audio cache      : Yes
Make use of C2 pointers : No
Read offset correction                      : 48
Overread into Lead-In and Lead-Out          : No
Fill up missing offset samples with silence : Yes
Delete leading and trailing silent blocks   : No
Null samples used in CRC calculations       : No
Used interface                              : Native Win32 interface for Win NT & 2000
Used output format              : User Defined Encoder
Selected bitrate                : 768 kBit/s
Quality                         : High
Add ID3 tag                     : No
Command line compressor         : C:\Program Files\Exact Audio Copy\FLAC\FLAC.EXE
Additional command line options : -6 -V -T "ARTIST=%a" -T "TITLE=%t" -T "ALBUM=%g" -T "DATE=%y" -T "TRACKNUMBER=%n" -T "GENRE=%m" -T "COMMENT=%e" %s -o %d
TOC of the extracted CD
     Track |   Start  |  Length  | Start sector | End sector
    ---------------------------------------------------------
        1  |  0:00.00 |  5:17.55 |         0    |    23829
        2  |  5:17.55 |  7:56.67 |     23830    |    59596
        3  | 13:14.47 |  2:54.10 |     59597    |    72656
        4  | 16:08.57 |  3:55.68 |     72657    |    90349
        5  | 20:04.50 |  6:33.06 |     90350    |   119830
        6  | 26:37.56 |  4:22.14 |    119831    |   139494
        7  | 30:59.70 |  4:12.68 |    139495    |   158462
        8  | 35:12.63 |  5:53.49 |    158463    |   184986
        9  | 41:06.37 |  7:27.62 |    184987    |   218573
       10  | 48:34.24 |  1:25.30 |    218574    |   224978
       11  | 49:59.54 |  7:17.08 |    224979    |   257761
       12  | 57:16.62 |  0:32.51 |    257762    |   260212
       13  | 57:49.38 |  2:01.35 |    260213    |   269322
       14  | 59:50.73 |  2:42.68 |    269323    |   281540
       15  | 62:33.66 |  2:12.73 |    281541    |   291513
       16  | 64:46.64 |  1:39.11 |    291514    |   298949
Range status and errors
Selected range
     Filename D:\temp\pics\Shostakovich - Symphony No.9\Shostakovich - Symphony No.9.wav
     Peak level 99.3 %
     Range quality 100.0 %
     Copy CRC A649EF06
     Copy OK
No errors occurred
End of status report

                                                                                       
                       
                       
                       
                       
                       
                                磁力下载(论坛代下载服务)::
                                                               
                                       
付费主题

已有0人支付


                                               
  • 250.3 MB
  • 温馨提示

    记得善用社区搜索功能,那里可能会有你想要的资源;论坛站内搜索

    如果你有什么需要的资源可以去资源求档发帖,求助社区的网友,我们会在第一时间给你回复哦;资源求档

    对于本社区网盘链接失效密码错误各种报错请在反馈板块反馈报错发帖,您的支持,是我们发展的最大动力;投诉建议

    回复

    使用道具 举报

    您需要登录后才可以回帖 登录 | 立即注册 微信登录

    本版积分规则

    关注0

    粉丝1

    帖子31533

    发布主题
    阅读排行更多+
    关闭

    站长推荐上一条 /1 下一条

    活动提示

    赞助永久VIP会员送3T硬盘一块 限时活动

    地址:立刻参加

    我知道了
    收藏帖子 返回列表 这是一个自定义按钮
    音乐分享,音乐下载。
    微信公众号
    微信号:hires_
    意见反馈:admin@maomicd.com

    加入我们的官方QQ群和微信群

    Powered by Discuz! X3.4 Archiver|手机版|小黑屋|捌零音乐论坛 ( 苏ICP备20015413号 )|( 苏公网安备 32030502000272号) 繁體

    GMT+8, 2021-9-25 05:55