[古典] (Classical / Popular classical) Д. Шостакович - Джазовые и балетные сюиты. Музыка к кинофильмам / D. Shostakovich - Jazz & Ballet Suites, film music, FLAC (image+.cue), los

[复制链接]
kayda 发表于 2021-9-10 16:56:53 | 显示全部楼层 |阅读模式 打印 上一主题 下一主题
Д. Шостакович - Джазовые и балетные сюиты. Музыка к кинофильмам (Украинский Национальный оркестр, дир. Т. Кучар)
Жанр: Classical / Popular classic
Производитель диска: Украина
Аудио кодек: FLAC
Тип рипа: image+.cue
Битрейт аудио: lossless
Продолжительность: 50:45; 55:48; 72:11
Исполнители:
Украинский Национальный оркестр, дирижер Теодор Кучар
Трэклист
CD1
Shostakovich: Suite for Variety Orchestra
(Suite #2 For Jazz Orchestra)
1. March (03:04)
2. Dance #1 (02:56)
3. Dance #2 (03:39)
4. Little Polka (02:33)
5.Lyric Waltz (02:38)
6.Waltz #1 (03:21)
7.Waltz #2 (03:34)
8.Finale (02:13)
9.Overture On Russian & Kirghiz Folk Themes, Op. 115
(Suite #1 For Jazz Orchestra)
Shostakovich: Jazz Suite #1
10.Waltz (02:19)
11.Polka (01:38)
12.Foxtrot (03:47)
13.Novorossijsk Chimes, Op. 111B (02:32)
14.Festive Overture, Op.96 (05:46)
CD2
Shostakovich - The Bolt Op.27a
1.I. Overture (06:34)
2.II. Polka (02:36)
3.III. Variation (01:49)
4.IV. Tango (05:07)
5.V. Intermezzo (03:50)
6.VI. Finale (03:23)
Shostakovich - The Limpid Stream Op.39a
7.I. Waltz (02:23)
8.II. Russian Lubok (02:30)
9.III. Galop (01:57)
10.IV. Adagio (07:19)
11.V. Pizzicato (01:12)
Shostakovich - The Golden Age Op.22a
12.I. Overture (03:54)
13.II. Adagio (08:40)
14.III. Polka (02:08)
15.IV. Dance (02:10)
CD3
Shostakovich: Hamlet, Op. 116
1.Prelude (02:18)
2.The Ball At The Palace (03:41)
3.The Ghost (01:20)
4.In The Garden (03:03)
5.Hamlet & Ophelia (03:51)
6.Arrival Of The Actors (02:11)
7.Poisoning Scene (07:26)
8.Duel & Death Of Hamlet (03:57)
Shostakovich: The Gadfly Suite, Op. 97A
9.Overture (02:58)
10.Contradance (02:27)
11.Folk Feast (02:38)
12.Interlude (02:49)
13.Waltz, "Barrel Organ" (01:54)
14.Galop (01:57)
15.Introduction (06:04)
16.Romance (06:23)
17.Intermezzo (05:32)
18.Noctune (03:52)
19.Scene (03:21)
20.Finale (03:07)

Логи

CD1
Exact Audio Copy V0.99 prebeta 1 from 25. May 2007
EAC extraction logfile from 30. September 2009, 1:52
Shostakovich, Dmitry (1906-1975) / Film Music (Theodore Kuchar, National Symphony Orchestra of Ukraine) - Jazz Suites
Used drive : Optiarc DVD RW AD-5200A Adapter: 0 ID: 0
Read mode : Secure
Utilize accurate stream : Yes
Defeat audio cache : Yes
Make use of C2 pointers : No
Read offset correction : 48
Overread into Lead-In and Lead-Out : No
Fill up missing offset samples with silence : Yes
Delete leading and trailing silent blocks : No
Used interface : Installed external ASPI interface
Used output format : User Defined Encoder
Selected bitrate : 128 kBit/s
Quality : High
Add ID3 tag : No
Command line compressor : C:\Program Files\FLAC\flac.exe
Additional command line options : -8 -V -T "ARTIST=%a" -T "TITLE=%t" -T "ALBUM=%g" -T "DATE=%y" -T "TRACKNUMBER=%n" -T "GENRE=%m" -T "COMMENT=EAC FLAC -8" %s
TOC of the extracted CD
Track | Start | Length | Start sector | End sector
---------------------------------------------------------
1 | 0:00.00 | 3:09.16 | 0 | 14190
2 | 3:09.16 | 3:01.29 | 14191 | 27794
3 | 6:10.45 | 3:44.13 | 27795 | 44607
4 | 9:54.58 | 2:38.24 | 44608 | 56481
5 | 12:33.07 | 2:43.41 | 56482 | 68747
6 | 15:16.48 | 3:25.56 | 68748 | 84178
7 | 18:42.29 | 3:38.43 | 84179 | 100571
8 | 22:20.72 | 2:24.01 | 100572 | 111372
9 | 24:44.73 | 9:29.09 | 111373 | 154056
10 | 34:14.07 | 2:24.15 | 154057 | 164871
11 | 36:38.22 | 1:43.34 | 164872 | 172630
12 | 38:21.56 | 3:55.22 | 172631 | 190277
13 | 42:17.03 | 2:40.51 | 190278 | 202328
14 | 44:57.54 | 5:46.11 | 202329 | 228289
Range status and errors
Selected range
Filename F:\Documents and Settings\Моя музыка\Shostakovich Film & Jazz music\Shostakovich, Dmitry (1906-1975) - Film Music (Theodore Kuchar, National Symphony Orchestra of Ukraine) - Jazz Suites
Peak level 99.9 %
Range quality 100.0 %
Test CRC AC067964
Copy CRC AC067964
Copy OK
No errors occurred
End of status report

CD2
Exact Audio Copy V0.99 prebeta 1 from 25. May 2007
EAC extraction logfile from 30. September 2009, 3:27
Shostakovich, Dmitry (1906-1975) / Symphonies (Complete) - CD 15 von 27 - Ballet Suites
Used drive : Optiarc DVD RW AD-5200A Adapter: 0 ID: 0
Read mode : Secure
Utilize accurate stream : Yes
Defeat audio cache : Yes
Make use of C2 pointers : No
Read offset correction : 48
Overread into Lead-In and Lead-Out : No
Fill up missing offset samples with silence : Yes
Delete leading and trailing silent blocks : No
Used interface : Installed external ASPI interface
Used output format : User Defined Encoder
Selected bitrate : 128 kBit/s
Quality : High
Add ID3 tag : No
Command line compressor : C:\Program Files\FLAC\flac.exe
Additional command line options : -8 -V -T "ARTIST=%a" -T "TITLE=%t" -T "ALBUM=%g" -T "DATE=%y" -T "TRACKNUMBER=%n" -T "GENRE=%m" -T "COMMENT=EAC FLAC -8" %s
TOC of the extracted CD
Track | Start | Length | Start sector | End sector
---------------------------------------------------------
1 | 0:00.00 | 5:39.23 | 0 | 25447
2 | 5:39.23 | 2:41.10 | 25448 | 37532
3 | 8:20.33 | 1:51.43 | 37533 | 45900
4 | 10:12.01 | 5:09.47 | 45901 | 69122
5 | 15:21.48 | 3:55.14 | 69123 | 86761
6 | 19:16.62 | 3:30.09 | 86762 | 102520
7 | 22:46.71 | 2:26.39 | 102521 | 113509
8 | 25:13.35 | 2:34.61 | 113510 | 125120
9 | 27:48.21 | 2:01.14 | 125121 | 134209
10 | 29:49.35 | 7:24.21 | 134210 | 167530
11 | 37:13.56 | 1:20.65 | 167531 | 173595
12 | 38:34.46 | 4:00.47 | 173596 | 191642
13 | 42:35.18 | 8:46.08 | 191643 | 231100
14 | 51:21.26 | 2:14.68 | 231101 | 241218
15 | 53:36.19 | 2:10.03 | 241219 | 250971
Range status and errors
Selected range
Filename F:\Documents and Settings\Моя музыка\Shostakovich Film & Jazz music\Shostakovich, Dmitry (1906-1975) - Symphonies (Complete) - CD 15 von 27 - Ballet Suites.wav
Peak level 97.8 %
Range quality 100.0 %
Test CRC F453E4DB
Copy CRC F453E4DB
Copy OK
No errors occurred
End of status report

CD3
Exact Audio Copy V0.99 prebeta 1 from 25. May 2007
EAC extraction logfile from 30. September 2009, 2:36
Dmitri Shostakovich / Film Music (Theodore Kuchar, National Symphony Orchestra of Ukraine)
Used drive : Optiarc DVD RW AD-5200A Adapter: 0 ID: 0
Read mode : Secure
Utilize accurate stream : Yes
Defeat audio cache : Yes
Make use of C2 pointers : No
Read offset correction : 48
Overread into Lead-In and Lead-Out : No
Fill up missing offset samples with silence : Yes
Delete leading and trailing silent blocks : No
Used interface : Installed external ASPI interface
Used output format : User Defined Encoder
Selected bitrate : 128 kBit/s
Quality : High
Add ID3 tag : No
Command line compressor : C:\Program Files\FLAC\flac.exe
Additional command line options : -8 -V -T "ARTIST=%a" -T "TITLE=%t" -T "ALBUM=%g" -T "DATE=%y" -T "TRACKNUMBER=%n" -T "GENRE=%m" -T "COMMENT=EAC FLAC -8" %s
TOC of the extracted CD
Track | Start | Length | Start sector | End sector
---------------------------------------------------------
1 | 0:00.00 | 2:21.65 | 0 | 10639
2 | 2:21.65 | 3:44.44 | 10640 | 27483
3 | 6:06.34 | 1:25.73 | 27484 | 33931
4 | 7:32.32 | 3:09.10 | 33932 | 48116
5 | 10:41.42 | 3:56.35 | 48117 | 65851
6 | 14:38.02 | 2:14.63 | 65852 | 75964
7 | 16:52.65 | 7:30.39 | 75965 | 109753
8 | 24:23.29 | 4:03.67 | 109754 | 128045
9 | 28:27.21 | 2:59.68 | 128046 | 141538
10 | 31:27.14 | 2:30.60 | 141539 | 152848
11 | 33:57.74 | 2:41.18 | 152849 | 164941
12 | 36:39.17 | 2:49.19 | 164942 | 177635
13 | 39:28.36 | 1:57.64 | 177636 | 186474
14 | 41:26.25 | 1:58.58 | 186475 | 195382
15 | 43:25.08 | 6:07.60 | 195383 | 222967
16 | 49:32.68 | 6:29.44 | 222968 | 252186
17 | 56:02.37 | 5:37.42 | 252187 | 277503
18 | 61:40.04 | 3:56.72 | 277504 | 295275
19 | 65:37.01 | 3:25.16 | 295276 | 310666
20 | 69:02.17 | 3:07.48 | 310667 | 324739
Range status and errors
Selected range
Filename F:\Documents and Settings\Моя музыка\Shostakovich Film & Jazz music\Dmitri Shostakovich - Film Music (Theodore Kuchar, National Symphony Orchestra of Ukraine).wav
Peak level 100.0 %
Range quality 100.0 %
Test CRC EED7025D
Copy CRC EED7025D
Copy OK
No errors occurred
End of status report

                                                                                       
                       
                       
                       
                       
                       
                                磁力下载(论坛代下载服务)::
                                                               
                                       
付费主题

已有0人支付


                                               
  • 849.6 MB
  • 温馨提示

    记得善用社区搜索功能,那里可能会有你想要的资源;论坛站内搜索

    如果你有什么需要的资源可以去资源求档发帖,求助社区的网友,我们会在第一时间给你回复哦;资源求档

    对于本社区网盘链接失效密码错误各种报错请在反馈板块反馈报错发帖,您的支持,是我们发展的最大动力;投诉建议

    回复

    使用道具 举报

    您需要登录后才可以回帖 登录 | 立即注册 微信登录

    本版积分规则

    关注0

    粉丝2

    帖子31142

    发布主题
    阅读排行更多+
    关闭

    站长推荐上一条 /1 下一条

    活动提示

    赞助永久VIP会员送3T硬盘一块 限时活动

    地址:立刻参加

    我知道了
    收藏帖子 返回列表 这是一个自定义按钮
    音乐分享,音乐下载。
    微信公众号
    微信号:hires_
    意见反馈:admin@maomicd.com

    加入我们的官方QQ群和微信群

    Powered by Discuz! X3.4 Archiver|手机版|小黑屋|捌零音乐论坛 ( 苏ICP备20015413号 )|( 苏公网安备 32030502000272号) 繁體

    GMT+8, 2021-9-24 06:07