[古典] (Romantic) Bruckner - Symphonies 0-9 - Dennis Russell Davies, Bruckner Orchester Linz - 2017, FLAC (tracks+.cue) lossless

[复制链接]
tikus75 发表于 2021-9-10 16:56:52 | 显示全部楼层 |阅读模式 打印 上一主题 下一主题
Bruckner - Symphonies 0-9 - Dennis Russell Davies, Bruckner Orchester Linz
Жанр: Romantic
Год издания диска: 2017
Издатель (лейбл): Sony Classical
Номер по каталогу: SBMG 8898548337
Дата записи: 2003-2008
Аудиокодек: FLAC
Тип рипа: tracks+.cue
Битрейт аудио: lossless
Продолжительность: 47:14 + 43:50 + 59:05 + 58:13 + 68:06 + 77:13 + 63:28 + 63:44 + [28:29 + 51:57] + 59:36
Источник: скачано с
сайт-источник/ник/другое: israbox, original source unknown
Наличие сканов в содержимом раздачи: нет
Треклист:
CD 1:
Symphony No. "0" in D minor (Die Nullte) (original version 1869)
CD 2:
Symphony No. 1 in C minor (original version 1866)
CD 3:
Symphony No. 2 in C minor (2nd version 1877)
CD 4:
Symphony No. 3 in D minor (3rd version 1889)
CD 5:
Symphony No. 4 in E-flat major (original version 1874)
CD 6:
Symphony No. 5 in B-flat major
CD 7:
Symphony No. 6 in A major
CD 8:
Symphony No. 7 in E major
CD 9-10:
Symphony No. 8 in C minor (original version 1887)
CD 11:
Symphony No. 9 in D minor
Исполнители:
Bruckner Orchester Linz
Dennis Russell Davies, conductor
Лог создания рипа

CD 1

Exact Audio Copy V1.1 from 23. June 2015
EAC extraction logfile from 25. December 2017, 17:59
Dennis Russell Davies, Bruckner Orchester Linz / The Complete Bruckner Symphonies
Used drive  : MATSHITADVD-RAM UJ8C2   Adapter: 1  ID: 0
Read mode               : Secure
Utilize accurate stream : Yes
Defeat audio cache      : Yes
Make use of C2 pointers : No
Read offset correction                      : 103
Overread into Lead-In and Lead-Out          : No
Fill up missing offset samples with silence : Yes
Delete leading and trailing silent blocks   : No
Null samples used in CRC calculations       : Yes
Used interface                              : Native Win32 interface for Win NT & 2000
Gap handling                                : Appended to previous track
Used output format              : User Defined Encoder
Selected bitrate                : 1024 kBit/s
Quality                         : High
Add ID3 tag                     : No
Command line compressor         : C:\Program Files (x86)\Exact Audio Copy\Flac\flac.exe
Additional command line options : -8 -V -T "ARTIST=%artist%" -T "TITLE=%title%" -T "ALBUM=%albumtitle%" -T "DATE=%year%" -T "TRACKNUMBER=%tracknr%" -T "GENRE=%genre%" -T "PERFORMER=%albuminterpret%" -T "COMPOSER=%composer%" %haslyrics%--tag-from-file=LYRICS="%lyricsfile%"%haslyrics% -T "ALBUMARTIST=%albumartist%" -T "DISCNUMBER=%cdnumber%" -T "TOTALDISCS=%totalcds%" -T "TOTALTRACKS=%numtracks%" -T "COMMENT=%comment%" %source% -o %dest%
TOC of the extracted CD
     Track |   Start  |  Length  | Start sector | End sector
    ---------------------------------------------------------
        1  |  0:00.00 | 16:40.05 |         0    |    75004
        2  | 16:40.05 | 12:50.38 |     75005    |   132792
        3  | 29:30.43 |  7:03.18 |    132793    |   164535
        4  | 36:33.61 | 10:40.19 |    164536    |   212554
Track  1
     Filename C:\Users\Karine\Desktop\The Complete Bruckner symphonies - Dennis Russell Davies (2017) [FLAC]\cd01\01 - Symphony in D minor, WAB 100 ''Nullte'' - I. Allegro.wav
     Pre-gap length  0:00:02.00
     Peak level 84.9 %
     Extraction speed 3.0 X
     Track quality 100.0 %
     Test CRC E9143081
     Copy CRC E9143081
     Accurately ripped (confidence 7)  [8F9BFC8C]  (AR v2)
     Copy OK
Track  2
     Filename C:\Users\Karine\Desktop\The Complete Bruckner symphonies - Dennis Russell Davies (2017) [FLAC]\cd01\02 - Symphony in D minor, WAB 100 ''Nullte'' - II. Andante.wav
     Peak level 57.1 %
     Extraction speed 3.8 X
     Track quality 100.0 %
     Test CRC 282199F2
     Copy CRC 282199F2
     Accurately ripped (confidence 7)  [4A5CB370]  (AR v2)
     Copy OK
Track  3
     Filename C:\Users\Karine\Desktop\The Complete Bruckner symphonies - Dennis Russell Davies (2017) [FLAC]\cd01\03 - Symphony in D minor, WAB 100 ''Nullte'' - III. Scherzo. Presto.wav
     Peak level 91.4 %
     Extraction speed 4.1 X
     Track quality 100.0 %
     Test CRC 6DE4B5CF
     Copy CRC 6DE4B5CF
     Accurately ripped (confidence 7)  [AF2CE058]  (AR v2)
     Copy OK
Track  4
     Filename C:\Users\Karine\Desktop\The Complete Bruckner symphonies - Dennis Russell Davies (2017) [FLAC]\cd01\04 - Symphony in D minor, WAB 100 ''Nullte'' - IV. Finale. Moderato.wav
     Peak level 90.1 %
     Extraction speed 4.6 X
     Track quality 100.0 %
     Test CRC 59090B56
     Copy CRC 59090B56
     Accurately ripped (confidence 7)  [893D24BF]  (AR v2)
     Copy OK
All tracks accurately ripped
No errors occurred
End of status report
---- CUETools DB Plugin V2.1.6
[CTDB TOCID: weF69TLxinY_pzvE6bPMbkZ9DKc-] found
Submit result: weF69TLxinY_pzvE6bPMbkZ9DKc- has been confirmed
Track | CTDB Status
  1   | (17/17) Accurately ripped
  2   | (16/17) Accurately ripped
  3   | (16/17) Accurately ripped
  4   | (16/17) Accurately ripped
==== Log checksum E447A711C5E24A501A3D5838221D4A9BB902F2F5C66E1D90A721F684EB138091 ====


CD 2

Exact Audio Copy V1.3 from 2. September 2016
EAC extraction logfile from 25. December 2017, 18:17
Dennis Russell Davies, Bruckner Orchestra Linz / The Complete Bruckner Symphonies
Used drive  : MATSHITABD-MLT UJ272   Adapter: 1  ID: 1
Read mode               : Secure
Utilize accurate stream : Yes
Defeat audio cache      : Yes
Make use of C2 pointers : No
Read offset correction                      : 103
Overread into Lead-In and Lead-Out          : No
Fill up missing offset samples with silence : Yes
Delete leading and trailing silent blocks   : No
Null samples used in CRC calculations       : Yes
Used interface                              : Native Win32 interface for Win NT & 2000
Gap handling                                : Appended to previous track
Used output format              : User Defined Encoder
Selected bitrate                : 1024 kBit/s
Quality                         : High
Add ID3 tag                     : No
Command line compressor         : C:\Program Files (x86)\Exact Audio Copy\Flac\flac.exe
Additional command line options : -8 -V -T "ARTIST=%artist%" -T "TITLE=%title%" -T "ALBUM=%albumtitle%" -T "DATE=%year%" -T "TRACKNUMBER=%tracknr%" -T "GENRE=%genre%" -T "PERFORMER=%albuminterpret%" -T "COMPOSER=%composer%" %haslyrics%--tag-from-file=LYRICS="%lyricsfile%"%haslyrics% -T "ALBUMARTIST=%albumartist%" -T "DISCNUMBER=%cdnumber%" -T "TOTALDISCS=%totalcds%" -T "TOTALTRACKS=%numtracks%" -T "COMMENT=%comment%" %source% -o %dest%
TOC of the extracted CD
     Track |   Start  |  Length  | Start sector | End sector
    ---------------------------------------------------------
        1  |  0:00.00 | 11:46.71 |         0    |    53020
        2  | 11:46.71 | 11:19.67 |     53021    |   104012
        3  | 23:06.63 |  7:39.57 |    104013    |   138494
        4  | 30:46.45 | 13:03.62 |    138495    |   197281
Track  1
     Filename E:\WHAT.CD\000TEMP\The Complete Bruckner Symphonies - Dennis Russell Davies (2017) [FLAC]\cd02\01 - Symphony No. 1 in C minor - I.Allegro molto moderato.wav
     Pre-gap length  0:00:02.00
     Peak level 98.5 %
     Extraction speed 2.9 X
     Track quality 100.0 %
     Test CRC 82881856
     Copy CRC 82881856
     Cannot be verified as accurate (confidence 5)  [D4EBCE73], AccurateRip returned [22AB7CAC]  (AR v2)
     Copy OK
Track  2
     Filename E:\WHAT.CD\000TEMP\The Complete Bruckner Symphonies - Dennis Russell Davies (2017) [FLAC]\cd02\02 - Symphony No. 1 in C minor - II.Adagio.wav
     Peak level 96.5 %
     Extraction speed 3.2 X
     Track quality 99.9 %
     Test CRC 490CD6E4
     Copy CRC 490CD6E4
     Cannot be verified as accurate (confidence 5)  [24944D5C], AccurateRip returned [13CA2526]  (AR v2)
     Copy OK
Track  3
     Filename E:\WHAT.CD\000TEMP\The Complete Bruckner Symphonies - Dennis Russell Davies (2017) [FLAC]\cd02\03 - Symphony No. 1 in C minor - III.Scherzo. Lebhaft.wav
     Peak level 99.2 %
     Extraction speed 4.0 X
     Track quality 100.0 %
     Test CRC 9A375C8F
     Copy CRC 9A375C8F
     Cannot be verified as accurate (confidence 5)  [FA8A42E6], AccurateRip returned [26D492A1]  (AR v2)
     Copy OK
Track  4
     Filename E:\WHAT.CD\000TEMP\The Complete Bruckner Symphonies - Dennis Russell Davies (2017) [FLAC]\cd02\04 - Symphony No. 1 in C minor - IV.Finale. Bewegt, feurig.wav
     Peak level 99.5 %
     Extraction speed 4.6 X
     Track quality 100.0 %
     Test CRC D0F31193
     Copy CRC D0F31193
     Cannot be verified as accurate (confidence 5)  [908ADB67], AccurateRip returned [29A944C4]  (AR v2)
     Copy OK
No tracks could be verified as accurate
You may have a different pressing from the one(s) in the database
No errors occurred
End of status report
---- CUETools DB Plugin V2.1.6
[CTDB TOCID: ndsR4Wc84lx59.IT3c4Km_M9u9M-] found
Submit result: ndsR4Wc84lx59.IT3c4Km_M9u9M- has been confirmed
Track | CTDB Status
  1   | (20/20) Accurately ripped
  2   | (19/20) Accurately ripped
  3   | (19/20) Accurately ripped
  4   | (19/20) Accurately ripped
==== Log checksum A5AAAF82FC1C1C054B880CEB40395E9D763DE3F2F0056A4C69D0FDEB4D14A258 ====


CD 3

Exact Audio Copy V1.1 from 23. June 2015
EAC extraction logfile from 25. December 2017, 18:33
Dennis Russell Davies, Bruckner Orchester Linz / The Complete Bruckner Symphonies
Used drive  : MATSHITADVD-RAM UJ8C2   Adapter: 1  ID: 0
Read mode               : Secure
Utilize accurate stream : Yes
Defeat audio cache      : Yes
Make use of C2 pointers : No
Read offset correction                      : 103
Overread into Lead-In and Lead-Out          : No
Fill up missing offset samples with silence : Yes
Delete leading and trailing silent blocks   : No
Null samples used in CRC calculations       : Yes
Used interface                              : Native Win32 interface for Win NT & 2000
Gap handling                                : Appended to previous track
Used output format              : User Defined Encoder
Selected bitrate                : 1024 kBit/s
Quality                         : High
Add ID3 tag                     : No
Command line compressor         : C:\Program Files (x86)\Exact Audio Copy\Flac\flac.exe
Additional command line options : -8 -V -T "ARTIST=%artist%" -T "TITLE=%title%" -T "ALBUM=%albumtitle%" -T "DATE=%year%" -T "TRACKNUMBER=%tracknr%" -T "GENRE=%genre%" -T "PERFORMER=%albuminterpret%" -T "COMPOSER=%composer%" %haslyrics%--tag-from-file=LYRICS="%lyricsfile%"%haslyrics% -T "ALBUMARTIST=%albumartist%" -T "DISCNUMBER=%cdnumber%" -T "TOTALDISCS=%totalcds%" -T "TOTALTRACKS=%numtracks%" -T "COMMENT=%comment%" %source% -o %dest%
TOC of the extracted CD
     Track |   Start  |  Length  | Start sector | End sector
    ---------------------------------------------------------
        1  |  0:00.00 | 17:48.56 |         0    |    80155
        2  | 17:48.56 | 16:02.46 |     80156    |   152351
        3  | 33:51.27 |  8:00.25 |    152352    |   188376
        4  | 41:51.52 | 17:13.64 |    188377    |   265915
Track  1
     Filename C:\Users\Karine\Desktop\The Complete Bruckner symphonies - Dennis Russell Davies (2017) [FLAC]\cd03\01 - Symphony No. 2 in C minor - I. Moderato.wav
     Pre-gap length  0:00:02.00
     Peak level 95.5 %
     Extraction speed 3.1 X
     Track quality 100.0 %
     Test CRC 964FF207
     Copy CRC 964FF207
     Cannot be verified as accurate (confidence 5)  [986334E2], AccurateRip returned [F71EBE0D]  (AR v2)
     Copy OK
Track  2
     Filename C:\Users\Karine\Desktop\The Complete Bruckner symphonies - Dennis Russell Davies (2017) [FLAC]\cd03\02 - Symphony No. 2 in C minor - II. Andante.wav
     Peak level 81.5 %
     Extraction speed 4.0 X
     Track quality 100.0 %
     Test CRC F774DEE8
     Copy CRC F774DEE8
     Cannot be verified as accurate (confidence 5)  [F6C9DA93], AccurateRip returned [9560590B]  (AR v2)
     Copy OK
Track  3
     Filename C:\Users\Karine\Desktop\The Complete Bruckner symphonies - Dennis Russell Davies (2017) [FLAC]\cd03\03 - Symphony No. 2 in C minor - III. Scherzo.wav
     Peak level 94.4 %
     Extraction speed 4.3 X
     Track quality 100.0 %
     Test CRC 85974658
     Copy CRC 85974658
     Cannot be verified as accurate (confidence 5)  [BC91156F], AccurateRip returned [2FD5CE5F]  (AR v2)
     Copy OK
Track  4
     Filename C:\Users\Karine\Desktop\The Complete Bruckner symphonies - Dennis Russell Davies (2017) [FLAC]\cd03\04 - Symphony No. 2 in C minor - IV. Finale.wav
     Peak level 95.3 %
     Extraction speed 4.6 X
     Track quality 99.9 %
     Test CRC 26DF14E0
     Copy CRC 26DF14E0
     Cannot be verified as accurate (confidence 5)  [D1FB8F20], AccurateRip returned [D0F5F8E6]  (AR v2)
     Copy OK
No tracks could be verified as accurate
You may have a different pressing from the one(s) in the database
No errors occurred
End of status report
---- CUETools DB Plugin V2.1.6
[CTDB TOCID: hmbSy8Zn7NsWhmY70UODd_LEcs4-] found
Submit result: hmbSy8Zn7NsWhmY70UODd_LEcs4- has been confirmed
Track | CTDB Status
  1   | (17/17) Accurately ripped
  2   | (17/17) Accurately ripped
  3   | (17/17) Accurately ripped
  4   | (17/17) Accurately ripped
==== Log checksum 98926D9F38A285E2EE716217BACA70DD403E75307DD564CE679A0A216F7273E8 ====


CD 4

Exact Audio Copy V1.3 from 2. September 2016
EAC extraction logfile from 25. December 2017, 19:08
Dennis Russell Davies, Bruckner Orchestra Linz / The Complete Bruckner Symphonies
Used drive  : MATSHITABD-MLT UJ272   Adapter: 1  ID: 1
Read mode               : Secure
Utilize accurate stream : Yes
Defeat audio cache      : Yes
Make use of C2 pointers : No
Read offset correction                      : 103
Overread into Lead-In and Lead-Out          : No
Fill up missing offset samples with silence : Yes
Delete leading and trailing silent blocks   : No
Null samples used in CRC calculations       : Yes
Used interface                              : Native Win32 interface for Win NT & 2000
Gap handling                                : Appended to previous track
Used output format              : User Defined Encoder
Selected bitrate                : 1024 kBit/s
Quality                         : High
Add ID3 tag                     : No
Command line compressor         : C:\Program Files (x86)\Exact Audio Copy\Flac\flac.exe
Additional command line options : -8 -V -T "ARTIST=%artist%" -T "TITLE=%title%" -T "ALBUM=%albumtitle%" -T "DATE=%year%" -T "TRACKNUMBER=%tracknr%" -T "GENRE=%genre%" -T "PERFORMER=%albuminterpret%" -T "COMPOSER=%composer%" %haslyrics%--tag-from-file=LYRICS="%lyricsfile%"%haslyrics% -T "ALBUMARTIST=%albumartist%" -T "DISCNUMBER=%cdnumber%" -T "TOTALDISCS=%totalcds%" -T "TOTALTRACKS=%numtracks%" -T "COMMENT=%comment%" %source% -o %dest%
TOC of the extracted CD
     Track |   Start  |  Length  | Start sector | End sector
    ---------------------------------------------------------
        1  |  0:00.00 | 22:37.27 |         0    |   101801
        2  | 22:37.27 | 15:49.16 |    101802    |   172992
        3  | 38:26.43 |  7:15.53 |    172993    |   205670
        4  | 45:42.21 | 12:31.22 |    205671    |   262017
Track  1
     Filename E:\WHAT.CD\000TEMP\The Complete Bruckner Symphonies - Dennis Russell Davies (2017) [FLAC]\cd04\01 - Symphony No. 3 in D minor - I. Mehr Langsam, Misterioso.wav
     Pre-gap length  0:00:02.00
     Peak level 97.8 %
     Extraction speed 2.0 X
     Track quality 100.0 %
     Test CRC F498C2D6
     Copy CRC F498C2D6
     Cannot be verified as accurate (confidence 5)  [434E1E3F], AccurateRip returned [BA4D6ABE]  (AR v2)
     Copy OK
Track  2
     Filename E:\WHAT.CD\000TEMP\The Complete Bruckner Symphonies - Dennis Russell Davies (2017) [FLAC]\cd04\02 - Symphony No. 3 in D minor - II. Adagio, Bewegt, quasi andante.wav
     Peak level 73.5 %
     Extraction speed 2.6 X
     Track quality 99.9 %
     Test CRC BD2B1B33
     Copy CRC BD2B1B33
     Cannot be verified as accurate (confidence 5)  [13819CA3], AccurateRip returned [F9D31AD4]  (AR v2)
     Copy OK
Track  3
     Filename E:\WHAT.CD\000TEMP\The Complete Bruckner Symphonies - Dennis Russell Davies (2017) [FLAC]\cd04\03 - Symphony No. 3 in D minor - III. Ziemlich schnell.wav
     Peak level 97.6 %
     Extraction speed 2.8 X
     Track quality 100.0 %
     Test CRC 5EEB26D4
     Copy CRC 5EEB26D4
     Cannot be verified as accurate (confidence 5)  [CC85EF41], AccurateRip returned [54321D94]  (AR v2)
     Copy OK
Track  4
     Filename E:\WHAT.CD\000TEMP\The Complete Bruckner Symphonies - Dennis Russell Davies (2017) [FLAC]\cd04\04 - Symphony No. 3 in D minor - IV. Allegro.wav
     Peak level 87.1 %
     Extraction speed 3.0 X
     Track quality 99.9 %
     Test CRC 323B83BE
     Copy CRC 323B83BE
     Cannot be verified as accurate (confidence 5)  [B5DC45A3], AccurateRip returned [D4B8B0EB]  (AR v2)
     Copy OK
No tracks could be verified as accurate
You may have a different pressing from the one(s) in the database
No errors occurred
End of status report
---- CUETools DB Plugin V2.1.6
[CTDB TOCID: oSv6bZSzsHSPeoXK94DigABPIOo-] found
Submit result: oSv6bZSzsHSPeoXK94DigABPIOo- has been confirmed
Track | CTDB Status
  1   | (16/16) Accurately ripped
  2   | (16/16) Accurately ripped
  3   | (16/16) Accurately ripped
  4   | (16/16) Accurately ripped
==== Log checksum 9A0CEB1F9081A401986FFF3FF24B007C75A46DB60E4542CCD00B30C4AD8EE789 ====


CD 5

Exact Audio Copy V1.1 from 23. June 2015
EAC extraction logfile from 25. December 2017, 19:16
Dennis Russell Davies, Bruckner Orchester Linz / The Complete Bruckner Symphonies
Used drive  : MATSHITADVD-RAM UJ8C2   Adapter: 1  ID: 0
Read mode               : Secure
Utilize accurate stream : Yes
Defeat audio cache      : Yes
Make use of C2 pointers : No
Read offset correction                      : 103
Overread into Lead-In and Lead-Out          : No
Fill up missing offset samples with silence : Yes
Delete leading and trailing silent blocks   : No
Null samples used in CRC calculations       : Yes
Used interface                              : Native Win32 interface for Win NT & 2000
Gap handling                                : Appended to previous track
Used output format              : User Defined Encoder
Selected bitrate                : 1024 kBit/s
Quality                         : High
Add ID3 tag                     : No
Command line compressor         : C:\Program Files (x86)\Exact Audio Copy\Flac\flac.exe
Additional command line options : -8 -V -T "ARTIST=%artist%" -T "TITLE=%title%" -T "ALBUM=%albumtitle%" -T "DATE=%year%" -T "TRACKNUMBER=%tracknr%" -T "GENRE=%genre%" -T "PERFORMER=%albuminterpret%" -T "COMPOSER=%composer%" %haslyrics%--tag-from-file=LYRICS="%lyricsfile%"%haslyrics% -T "ALBUMARTIST=%albumartist%" -T "DISCNUMBER=%cdnumber%" -T "TOTALDISCS=%totalcds%" -T "TOTALTRACKS=%numtracks%" -T "COMMENT=%comment%" %source% -o %dest%
TOC of the extracted CD
     Track |   Start  |  Length  | Start sector | End sector
    ---------------------------------------------------------
        1  |  0:00.00 | 19:17.46 |         0    |    86820
        2  | 19:17.46 | 16:44.54 |     86821    |   162174
        3  | 36:02.25 | 12:43.10 |    162175    |   219409
        4  | 48:45.35 | 19:21.29 |    219410    |   306513
Track  1
     Filename C:\Users\Karine\Desktop\The Complete Bruckner symphonies - Dennis Russell Davies (2017) [FLAC]\cd05\01 - Symphony No. 4 in E flat major - I. Allegro.wav
     Pre-gap length  0:00:02.00
     Peak level 95.9 %
     Extraction speed 3.1 X
     Track quality 100.0 %
     Test CRC B639B763
     Copy CRC B639B763
     Accurately ripped (confidence 3)  [4A4F4811]  (AR v2)
     Copy OK
Track  2
     Filename C:\Users\Karine\Desktop\The Complete Bruckner symphonies - Dennis Russell Davies (2017) [FLAC]\cd05\02 - Symphony No. 4 in E flat major - II. Andante quasi allegretto.wav
     Peak level 95.6 %
     Extraction speed 4.0 X
     Track quality 100.0 %
     Test CRC 2B5D751A
     Copy CRC 2B5D751A
     Accurately ripped (confidence 3)  [D0690240]  (AR v2)
     Copy OK
Track  3
     Filename C:\Users\Karine\Desktop\The Complete Bruckner symphonies - Dennis Russell Davies (2017) [FLAC]\cd05\03 - Symphony No. 4 in E flat major - III. Sehr Schnell_.wav
     Peak level 95.2 %
     Extraction speed 4.6 X
     Track quality 100.0 %
     Test CRC B9027F65
     Copy CRC B9027F65
     Accurately ripped (confidence 3)  [773BD3B0]  (AR v2)
     Copy OK
Track  4
     Filename C:\Users\Karine\Desktop\The Complete Bruckner symphonies - Dennis Russell Davies (2017) [FLAC]\cd05\04 - Symphony No. 4 in E flat major - IV. Finale, Allegro moderato.wav
     Peak level 96.4 %
     Extraction speed 5.2 X
     Track quality 100.0 %
     Test CRC 135E6C77
     Copy CRC 135E6C77
     Accurately ripped (confidence 2)  [E8CDF8D1]  (AR v2)
     Copy OK
All tracks accurately ripped
No errors occurred
End of status report
---- CUETools DB Plugin V2.1.6
[CTDB TOCID: iLFjNOQ_5esdXmDtKn2Lpv_EUQc-] found
Submit result: iLFjNOQ_5esdXmDtKn2Lpv_EUQc- has been confirmed
Track | CTDB Status
  1   | (19/19) Accurately ripped
  2   | (18/19) Accurately ripped
  3   | (18/19) Accurately ripped
  4   | (18/19) Accurately ripped
==== Log checksum 8540387051B511C93A6BA57A33E81E67AFF858A2E1FE253E3E74E5FFC5CB3040 ====


CD 6

Exact Audio Copy V1.3 from 2. September 2016
EAC extraction logfile from 25. December 2017, 19:52
Dennis Russell Davies, Bruckner Orchestra Linz / The Complete Bruckner Symphonies
Used drive  : MATSHITABD-MLT UJ272   Adapter: 1  ID: 1
Read mode               : Secure
Utilize accurate stream : Yes
Defeat audio cache      : Yes
Make use of C2 pointers : No
Read offset correction                      : 103
Overread into Lead-In and Lead-Out          : No
Fill up missing offset samples with silence : Yes
Delete leading and trailing silent blocks   : No
Null samples used in CRC calculations       : Yes
Used interface                              : Native Win32 interface for Win NT & 2000
Gap handling                                : Appended to previous track
Used output format              : User Defined Encoder
Selected bitrate                : 1024 kBit/s
Quality                         : High
Add ID3 tag                     : No
Command line compressor         : C:\Program Files (x86)\Exact Audio Copy\Flac\flac.exe
Additional command line options : -8 -V -T "ARTIST=%artist%" -T "TITLE=%title%" -T "ALBUM=%albumtitle%" -T "DATE=%year%" -T "TRACKNUMBER=%tracknr%" -T "GENRE=%genre%" -T "PERFORMER=%albuminterpret%" -T "COMPOSER=%composer%" %haslyrics%--tag-from-file=LYRICS="%lyricsfile%"%haslyrics% -T "ALBUMARTIST=%albumartist%" -T "DISCNUMBER=%cdnumber%" -T "TOTALDISCS=%totalcds%" -T "TOTALTRACKS=%numtracks%" -T "COMMENT=%comment%" %source% -o %dest%
TOC of the extracted CD
     Track |   Start  |  Length  | Start sector | End sector
    ---------------------------------------------------------
        1  |  0:00.00 | 21:49.48 |         0    |    98222
        2  | 21:49.48 | 14:55.40 |     98223    |   165387
        3  | 36:45.13 | 15:15.62 |    165388    |   234074
        4  | 52:01.00 | 25:12.62 |    234075    |   347536
Track  1
     Filename E:\WHAT.CD\000TEMP\The Complete Bruckner Symphonies - Dennis Russell Davies (2017) [FLAC]\cd06\01 - Symphony No. 5 in B flat major - I. Introduction. Adagio - Allegro.wav
     Pre-gap length  0:00:02.00
     Peak level 87.5 %
     Extraction speed 3.4 X
     Track quality 100.0 %
     Test CRC 0D84C09C
     Copy CRC 0D84C09C
     Accurately ripped (confidence 5)  [A34EDDC9]  (AR v2)
     Copy OK
Track  2
     Filename E:\WHAT.CD\000TEMP\The Complete Bruckner Symphonies - Dennis Russell Davies (2017) [FLAC]\cd06\02 - Symphony No. 5 in B flat major - II. Adagio. Sehr langsam.wav
     Peak level 76.7 %
     Extraction speed 4.4 X
     Track quality 100.0 %
     Test CRC A91B96E9
     Copy CRC A91B96E9
     Accurately ripped (confidence 5)  [D489973B]  (AR v2)
     Copy OK
Track  3
     Filename E:\WHAT.CD\000TEMP\The Complete Bruckner Symphonies - Dennis Russell Davies (2017) [FLAC]\cd06\03 - Symphony No. 5 in B flat major - III. Scherzo. Molto vivace (schnell) - Trio. Im gleichen Tempo.wav
     Peak level 77.8 %
     Extraction speed 5.0 X
     Track quality 100.0 %
     Test CRC 4562E819
     Copy CRC 4562E819
     Accurately ripped (confidence 5)  [BCBA6774]  (AR v2)
     Copy OK
Track  4
     Filename E:\WHAT.CD\000TEMP\The Complete Bruckner Symphonies - Dennis Russell Davies (2017) [FLAC]\cd06\04 - Symphony No. 5 in B flat major - IV. Finale. Adagio - Allegro moderato.wav
     Peak level 83.2 %
     Extraction speed 5.8 X
     Track quality 100.0 %
     Test CRC 5DC1B0BF
     Copy CRC 5DC1B0BF
     Accurately ripped (confidence 5)  [0839D602]  (AR v2)
     Copy OK
All tracks accurately ripped
No errors occurred
End of status report
---- CUETools DB Plugin V2.1.6
[CTDB TOCID: 5SgGsKXlcmUA6lbFRfowqEwlb.k-] found
Submit result: 5SgGsKXlcmUA6lbFRfowqEwlb.k- has been confirmed
Track | CTDB Status
  1   | (16/16) Accurately ripped
  2   | (16/16) Accurately ripped
  3   | (15/16) Accurately ripped
  4   | (15/16) Accurately ripped
==== Log checksum BD32C9B8C64D9E8F52107896B430FC22294FCF5F742B6F141E8A55B8B716482D ====


CD 7

Exact Audio Copy V1.1 from 23. June 2015
EAC extraction logfile from 25. December 2017, 19:58
Dennis Russell Davies, Bruckner Orchester Linz / The Complete Bruckner Symphonies
Used drive  : MATSHITADVD-RAM UJ8C2   Adapter: 1  ID: 0
Read mode               : Secure
Utilize accurate stream : Yes
Defeat audio cache      : Yes
Make use of C2 pointers : No
Read offset correction                      : 103
Overread into Lead-In and Lead-Out          : No
Fill up missing offset samples with silence : Yes
Delete leading and trailing silent blocks   : No
Null samples used in CRC calculations       : Yes
Used interface                              : Native Win32 interface for Win NT & 2000
Gap handling                                : Appended to previous track
Used output format              : User Defined Encoder
Selected bitrate                : 1024 kBit/s
Quality                         : High
Add ID3 tag                     : No
Command line compressor         : C:\Program Files (x86)\Exact Audio Copy\Flac\flac.exe
Additional command line options : -8 -V -T "ARTIST=%artist%" -T "TITLE=%title%" -T "ALBUM=%albumtitle%" -T "DATE=%year%" -T "TRACKNUMBER=%tracknr%" -T "GENRE=%genre%" -T "PERFORMER=%albuminterpret%" -T "COMPOSER=%composer%" %haslyrics%--tag-from-file=LYRICS="%lyricsfile%"%haslyrics% -T "ALBUMARTIST=%albumartist%" -T "DISCNUMBER=%cdnumber%" -T "TOTALDISCS=%totalcds%" -T "TOTALTRACKS=%numtracks%" -T "COMMENT=%comment%" %source% -o %dest%
TOC of the extracted CD
     Track |   Start  |  Length  | Start sector | End sector
    ---------------------------------------------------------
        1  |  0:00.00 | 18:40.29 |         0    |    84028
        2  | 18:40.29 | 17:41.35 |     84029    |   163638
        3  | 36:21.64 |  9:16.20 |    163639    |   205358
        4  | 45:38.09 | 17:49.45 |    205359    |   285578
Track  1
     Filename C:\Users\Karine\Desktop\The Complete Bruckner symphonies - Dennis Russell Davies (2017) [FLAC]\cd07\01 - Symphony No. 6 in A major - I. Maestoso.wav
     Pre-gap length  0:00:02.00
     Peak level 89.8 %
     Extraction speed 3.1 X
     Track quality 100.0 %
     Test CRC EBFB82AA
     Copy CRC EBFB82AA
     Cannot be verified as accurate (confidence 9)  [F314FAB2], AccurateRip returned [7558B342]  (AR v2)
     Copy OK
Track  2
     Filename C:\Users\Karine\Desktop\The Complete Bruckner symphonies - Dennis Russell Davies (2017) [FLAC]\cd07\02 - Symphony No. 6 in A major - II. Adagio. Sehr feierlich.wav
     Peak level 67.5 %
     Extraction speed 4.1 X
     Track quality 100.0 %
     Test CRC 96D1FD10
     Copy CRC 96D1FD10
     Cannot be verified as accurate (confidence 9)  [AB076182], AccurateRip returned [13A0C301]  (AR v2)
     Copy OK
Track  3
     Filename C:\Users\Karine\Desktop\The Complete Bruckner symphonies - Dennis Russell Davies (2017) [FLAC]\cd07\03 - Symphony No. 6 in A major - III. Scherzo. Nicht schnell - Trio. Langsam.wav
     Peak level 89.4 %
     Extraction speed 4.5 X
     Track quality 100.0 %
     Test CRC 0400B589
     Copy CRC 0400B589
     Cannot be verified as accurate (confidence 9)  [7B7629CC], AccurateRip returned [0678842B]  (AR v2)
     Copy OK
Track  4
     Filename C:\Users\Karine\Desktop\The Complete Bruckner symphonies - Dennis Russell Davies (2017) [FLAC]\cd07\04 - Symphony No. 6 in A major - IV. Finale. Bewegt, doch nicht zu schnell.wav
     Peak level 89.7 %
     Extraction speed 5.1 X
     Track quality 100.0 %
     Test CRC A4C7C5E5
     Copy CRC A4C7C5E5
     Cannot be verified as accurate (confidence 9)  [080B58C5], AccurateRip returned [F3503D73]  (AR v2)
     Copy OK
No tracks could be verified as accurate
You may have a different pressing from the one(s) in the database
No errors occurred
End of status report
---- CUETools DB Plugin V2.1.6
[CTDB TOCID: QFDOpmDzEKCFi1313SAk30Bh7dk-] found
Submit result: QFDOpmDzEKCFi1313SAk30Bh7dk- has been confirmed
Track | CTDB Status
  1   | (21/21) Accurately ripped
  2   | (21/21) Accurately ripped
  3   | (21/21) Accurately ripped
  4   | (21/21) Accurately ripped
==== Log checksum DF0D235D97D8ECA267D019F142E7BCA874E55532FF92A43F0C6F859CACFABFDF ====


CD 8

Exact Audio Copy V1.3 from 2. September 2016
EAC extraction logfile from 25. December 2017, 20:28
Dennis Russell Davies, Bruckner Orchestra Linz / The Complete Bruckner Symphonies
Used drive  : MATSHITABD-MLT UJ272   Adapter: 1  ID: 1
Read mode               : Secure
Utilize accurate stream : Yes
Defeat audio cache      : Yes
Make use of C2 pointers : No
Read offset correction                      : 103
Overread into Lead-In and Lead-Out          : No
Fill up missing offset samples with silence : Yes
Delete leading and trailing silent blocks   : No
Null samples used in CRC calculations       : Yes
Used interface                              : Native Win32 interface for Win NT & 2000
Gap handling                                : Appended to previous track
Used output format              : User Defined Encoder
Selected bitrate                : 1024 kBit/s
Quality                         : High
Add ID3 tag                     : No
Command line compressor         : C:\Program Files (x86)\Exact Audio Copy\Flac\flac.exe
Additional command line options : -8 -V -T "ARTIST=%artist%" -T "TITLE=%title%" -T "ALBUM=%albumtitle%" -T "DATE=%year%" -T "TRACKNUMBER=%tracknr%" -T "GENRE=%genre%" -T "PERFORMER=%albuminterpret%" -T "COMPOSER=%composer%" %haslyrics%--tag-from-file=LYRICS="%lyricsfile%"%haslyrics% -T "ALBUMARTIST=%albumartist%" -T "DISCNUMBER=%cdnumber%" -T "TOTALDISCS=%totalcds%" -T "TOTALTRACKS=%numtracks%" -T "COMMENT=%comment%" %source% -o %dest%
TOC of the extracted CD
     Track |   Start  |  Length  | Start sector | End sector
    ---------------------------------------------------------
        1  |  0:00.00 | 20:43.24 |         0    |    93248
        2  | 20:43.24 | 20:40.45 |     93249    |   186293
        3  | 41:23.69 | 10:16.33 |    186294    |   232526
        4  | 51:40.27 | 12:03.40 |    232527    |   286791
Track  1
     Filename E:\WHAT.CD\000TEMP\The Complete Bruckner Symphonies - Dennis Russell Davies (2017) [FLAC]\cd08\01 - Symphony No. 7 in E major - I. Allegro moderato.wav
     Pre-gap length  0:00:02.00
     Peak level 98.8 %
     Extraction speed 3.1 X
     Track quality 99.9 %
     Test CRC A20028BD
     Copy CRC A20028BD
     Cannot be verified as accurate (confidence 4)  [7F8CB715], AccurateRip returned [FCD23A7C]  (AR v2)
     Copy OK
Track  2
     Filename E:\WHAT.CD\000TEMP\The Complete Bruckner Symphonies - Dennis Russell Davies (2017) [FLAC]\cd08\02 - Symphony No. 7 in E major - II. Adagio.wav
     Peak level 98.9 %
     Extraction speed 4.4 X
     Track quality 100.0 %
     Test CRC BF19CF64
     Copy CRC BF19CF64
     Cannot be verified as accurate (confidence 4)  [FDC2E71A], AccurateRip returned [9BEB7AC4]  (AR v2)
     Copy OK
Track  3
     Filename E:\WHAT.CD\000TEMP\The Complete Bruckner Symphonies - Dennis Russell Davies (2017) [FLAC]\cd08\03 - Symphony No. 7 in E major - III. Scherzo. Sehr schnell.wav
     Peak level 98.8 %
     Extraction speed 5.0 X
     Track quality 100.0 %
     Test CRC F45546F5
     Copy CRC F45546F5
     Cannot be verified as accurate (confidence 4)  [202DB55A], AccurateRip returned [B6174ED8]  (AR v2)
     Copy OK
Track  4
     Filename E:\WHAT.CD\000TEMP\The Complete Bruckner Symphonies - Dennis Russell Davies (2017) [FLAC]\cd08\04 - Symphony No. 7 in E major - IV. Finale. Bewegt.wav
     Peak level 89.2 %
     Extraction speed 5.4 X
     Track quality 100.0 %
     Test CRC 229D0D54
     Copy CRC 229D0D54
     Cannot be verified as accurate (confidence 4)  [4C64E2F6], AccurateRip returned [5BB92EA8]  (AR v2)
     Copy OK
No tracks could be verified as accurate
You may have a different pressing from the one(s) in the database
No errors occurred
End of status report
---- CUETools DB Plugin V2.1.6
[CTDB TOCID: rg24LzwSfTTrhxBJc0z7xCE2Wzg-] found
Submit result: rg24LzwSfTTrhxBJc0z7xCE2Wzg- has been confirmed
Track | CTDB Status
  1   | (13/18) Accurately ripped
  2   | (18/18) Accurately ripped
  3   | (18/18) Accurately ripped
  4   | (18/18) Accurately ripped
==== Log checksum AB9720E41E8E3DE2C28DF2F15C199D7F887B9FEC0FD61DC91EF7AF7CB0126541 ====


CD 9

Exact Audio Copy V1.1 from 23. June 2015
EAC extraction logfile from 25. December 2017, 20:22
Dennis Russell Davies, Bruckner Orchester Linz / The Complete Bruckner Symphonies
Used drive  : MATSHITADVD-RAM UJ8C2   Adapter: 1  ID: 0
Read mode               : Secure
Utilize accurate stream : Yes
Defeat audio cache      : Yes
Make use of C2 pointers : No
Read offset correction                      : 103
Overread into Lead-In and Lead-Out          : No
Fill up missing offset samples with silence : Yes
Delete leading and trailing silent blocks   : No
Null samples used in CRC calculations       : Yes
Used interface                              : Native Win32 interface for Win NT & 2000
Gap handling                                : Appended to previous track
Used output format              : User Defined Encoder
Selected bitrate                : 1024 kBit/s
Quality                         : High
Add ID3 tag                     : No
Command line compressor         : C:\Program Files (x86)\Exact Audio Copy\Flac\flac.exe
Additional command line options : -8 -V -T "ARTIST=%artist%" -T "TITLE=%title%" -T "ALBUM=%albumtitle%" -T "DATE=%year%" -T "TRACKNUMBER=%tracknr%" -T "GENRE=%genre%" -T "PERFORMER=%albuminterpret%" -T "COMPOSER=%composer%" %haslyrics%--tag-from-file=LYRICS="%lyricsfile%"%haslyrics% -T "ALBUMARTIST=%albumartist%" -T "DISCNUMBER=%cdnumber%" -T "TOTALDISCS=%totalcds%" -T "TOTALTRACKS=%numtracks%" -T "COMMENT=%comment%" %source% -o %dest%
TOC of the extracted CD
     Track |   Start  |  Length  | Start sector | End sector
    ---------------------------------------------------------
        1  |  0:00.00 | 15:05.21 |         0    |    67895
        2  | 15:05.21 | 13:23.66 |     67896    |   128186
Track  1
     Filename C:\Users\Karine\Desktop\The Complete Bruckner symphonies - Dennis Russell Davies (2017) [FLAC]\cd09\01 - Symphony No. 8 in C minor - I. Allegro Moderato.wav
     Pre-gap length  0:00:02.00
     Peak level 95.7 %
     Extraction speed 2.9 X
     Track quality 100.0 %
     Test CRC A8E0C1CC
     Copy CRC A8E0C1CC
     Cannot be verified as accurate (confidence 3)  [C590B9B9], AccurateRip returned [5CBF96B5]  (AR v2)
     Copy OK
Track  2
     Filename C:\Users\Karine\Desktop\The Complete Bruckner symphonies - Dennis Russell Davies (2017) [FLAC]\cd09\02 - Symphony No. 8 in C minor - II. Scherzo and Trio, Allegro moderato.wav
     Peak level 95.2 %
     Extraction speed 3.8 X
     Track quality 100.0 %
     Test CRC 515C3DFD
     Copy CRC 515C3DFD
     Cannot be verified as accurate (confidence 3)  [C28DF8F8], AccurateRip returned [E4CD7306]  (AR v2)
     Copy OK
No tracks could be verified as accurate
You may have a different pressing from the one(s) in the database
No errors occurred
End of status report
---- CUETools DB Plugin V2.1.6
[CTDB TOCID: mKiLky3vcM8gwnY5zOoyvFh5RXM-] found
Submit result: mKiLky3vcM8gwnY5zOoyvFh5RXM- has been confirmed
Track | CTDB Status
  1   | (21/21) Accurately ripped
  2   | (21/21) Accurately ripped
==== Log checksum D3709D155A4F00B8E23C0C03494DC55A6B7CCFC2A87F848C7F58F5B60D2C8AB3 ====


CD 10

Exact Audio Copy V1.1 from 23. June 2015
EAC extraction logfile from 25. December 2017, 20:57
Dennis Russell Davies, Bruckner Orchester Linz / The Complete Bruckner Symphonies
Used drive  : MATSHITADVD-RAM UJ8C2   Adapter: 1  ID: 0
Read mode               : Secure
Utilize accurate stream : Yes
Defeat audio cache      : Yes
Make use of C2 pointers : No
Read offset correction                      : 103
Overread into Lead-In and Lead-Out          : No
Fill up missing offset samples with silence : Yes
Delete leading and trailing silent blocks   : No
Null samples used in CRC calculations       : Yes
Used interface                              : Native Win32 interface for Win NT & 2000
Gap handling                                : Appended to previous track
Used output format              : User Defined Encoder
Selected bitrate                : 1024 kBit/s
Quality                         : High
Add ID3 tag                     : No
Command line compressor         : C:\Program Files (x86)\Exact Audio Copy\Flac\flac.exe
Additional command line options : -8 -V -T "ARTIST=%artist%" -T "TITLE=%title%" -T "ALBUM=%albumtitle%" -T "DATE=%year%" -T "TRACKNUMBER=%tracknr%" -T "GENRE=%genre%" -T "PERFORMER=%albuminterpret%" -T "COMPOSER=%composer%" %haslyrics%--tag-from-file=LYRICS="%lyricsfile%"%haslyrics% -T "ALBUMARTIST=%albumartist%" -T "DISCNUMBER=%cdnumber%" -T "TOTALDISCS=%totalcds%" -T "TOTALTRACKS=%numtracks%" -T "COMMENT=%comment%" %source% -o %dest%
TOC of the extracted CD
     Track |   Start  |  Length  | Start sector | End sector
    ---------------------------------------------------------
        1  |  0:00.00 | 26:05.15 |         0    |   117389
        2  | 26:05.15 | 25:52.11 |    117390    |   233800
Track  1
     Filename C:\Users\Karine\Desktop\The Complete Bruckner symphonies - Dennis Russell Davies (2017) [FLAC]\cd10\01 - Symphony No. 8 in C minor - III. Adagio, Feierlich langsam, doch nicht schleppend.wav
     Pre-gap length  0:00:02.00
     Peak level 85.7 %
     Extraction speed 3.3 X
     Track quality 100.0 %
     Test CRC 2D9BC61B
     Copy CRC 2D9BC61B
     Cannot be verified as accurate (confidence 3)  [F1DBB18D], AccurateRip returned [AB4B3E08]  (AR v2)
     Copy OK
Track  2
     Filename C:\Users\Karine\Desktop\The Complete Bruckner symphonies - Dennis Russell Davies (2017) [FLAC]\cd10\02 - Symphony No. 8 in C minor - IV. Finale, Feierlich, nicht schnell.wav
     Peak level 95.6 %
     Extraction speed 4.6 X
     Track quality 100.0 %
     Test CRC AB3B6B1D
     Copy CRC AB3B6B1D
     Cannot be verified as accurate (confidence 3)  [F011D972], AccurateRip returned [7F01D97A]  (AR v2)
     Copy OK
No tracks could be verified as accurate
You may have a different pressing from the one(s) in the database
No errors occurred
End of status report
---- CUETools DB Plugin V2.1.6
[CTDB TOCID: kcJ29YTTXKrvGhUUr6Ttdgdk.1M-] found
Submit result: kcJ29YTTXKrvGhUUr6Ttdgdk.1M- has been confirmed
Track | CTDB Status
  1   | (20/21) Accurately ripped
  2   | (21/21) Accurately ripped
==== Log checksum 345374D263FAB5EA8FDAF761B84C191A87F3C9F7919B2666F040B9968978E302 ====


CD 11

Exact Audio Copy V1.3 from 2. September 2016
EAC extraction logfile from 25. December 2017, 21:01
Dennis Russell Davies, Bruckner Orchester Linz / The Complete Bruckner Symphonies
Used drive  : MATSHITABD-MLT UJ272   Adapter: 1  ID: 1
Read mode               : Secure
Utilize accurate stream : Yes
Defeat audio cache      : Yes
Make use of C2 pointers : No
Read offset correction                      : 103
Overread into Lead-In and Lead-Out          : No
Fill up missing offset samples with silence : Yes
Delete leading and trailing silent blocks   : No
Null samples used in CRC calculations       : Yes
Used interface                              : Native Win32 interface for Win NT & 2000
Gap handling                                : Appended to previous track
Used output format              : User Defined Encoder
Selected bitrate                : 1024 kBit/s
Quality                         : High
Add ID3 tag                     : No
Command line compressor         : C:\Program Files (x86)\Exact Audio Copy\Flac\flac.exe
Additional command line options : -8 -V -T "ARTIST=%artist%" -T "TITLE=%title%" -T "ALBUM=%albumtitle%" -T "DATE=%year%" -T "TRACKNUMBER=%tracknr%" -T "GENRE=%genre%" -T "PERFORMER=%albuminterpret%" -T "COMPOSER=%composer%" %haslyrics%--tag-from-file=LYRICS="%lyricsfile%"%haslyrics% -T "ALBUMARTIST=%albumartist%" -T "DISCNUMBER=%cdnumber%" -T "TOTALDISCS=%totalcds%" -T "TOTALTRACKS=%numtracks%" -T "COMMENT=%comment%" %source% -o %dest%
TOC of the extracted CD
     Track |   Start  |  Length  | Start sector | End sector
    ---------------------------------------------------------
        1  |  0:00.00 | 25:11.15 |         0    |   113339
        2  | 25:11.15 | 11:00.33 |    113340    |   162872
        3  | 36:11.48 | 23:24.37 |    162873    |   268209
Track  1
     Filename E:\WHAT.CD\000TEMP\The Complete Bruckner Symphonies - Dennis Russell Davies (2017) [FLAC]\cd11\01 - Symphony No. 9 - I. Feierlich, misterioso.wav
     Pre-gap length  0:00:02.00
     Peak level 96.9 %
     Extraction speed 3.4 X
     Track quality 100.0 %
     Test CRC AA350BD1
     Copy CRC AA350BD1
     Cannot be verified as accurate (confidence 5)  [A9E712C3], AccurateRip returned [8C96733A]  (AR v2)
     Copy OK
Track  2
     Filename E:\WHAT.CD\000TEMP\The Complete Bruckner Symphonies - Dennis Russell Davies (2017) [FLAC]\cd11\02 - Symphony No. 9 - II. Scherzo, bewegt, lebhaft - Trio, schnell.wav
     Peak level 60.2 %
     Extraction speed 4.3 X
     Track quality 100.0 %
     Test CRC 6A86AB02
     Copy CRC 6A86AB02
     Cannot be verified as accurate (confidence 5)  [722ECD8F], AccurateRip returned [C5FFFC10]  (AR v2)
     Copy OK
Track  3
     Filename E:\WHAT.CD\000TEMP\The Complete Bruckner Symphonies - Dennis Russell Davies (2017) [FLAC]\cd11\03 - Symphony No. 9 - III. Adagio, langsam, feierlich.wav
     Peak level 65.6 %
     Extraction speed 5.1 X
     Track quality 100.0 %
     Test CRC 2E5BCFA9
     Copy CRC 2E5BCFA9
     Cannot be verified as accurate (confidence 4)  [9AC0B09F], AccurateRip returned [64BD2073]  (AR v2)
     Copy OK
No tracks could be verified as accurate
You may have a different pressing from the one(s) in the database
No errors occurred
End of status report
---- CUETools DB Plugin V2.1.6
[CTDB TOCID: u8fsqRmEfgvg6DXpMFcBaO3qXtU-] found
Submit result: u8fsqRmEfgvg6DXpMFcBaO3qXtU- has been confirmed
Track | CTDB Status
  1   | (17/17) Accurately ripped
  2   | (17/17) Accurately ripped
  3   | (16/17) Accurately ripped
==== Log checksum 594EF9C942B3DF54611A71F3B97A88C1EB134EDABA6CE10981406B994A6ECA8D ====



Содержание индексной карты (.CUE)

CD 1

REM GENRE Classical
REM DATE 2017
REM DISCID 270B1204
REM COMMENT "ExactAudioCopy v1.1"
CATALOG 0886977497520
PERFORMER "Dennis Russell Davies, Bruckner Orchester Linz"
TITLE "The Complete Bruckner Symphonies"
FILE "01 - Symphony in D minor, WAB 100 ''Nullte'' - I. Allegro.wav" WAVE
  TRACK 01 AUDIO
    TITLE "Symphony in D minor, WAB 100 'Nullte' - I. Allegro"
    PERFORMER "Dennis Russell Davies, Bruckner Orchester Linz"
    ISRC DEP621000003
    INDEX 01 00:00:00
FILE "02 - Symphony in D minor, WAB 100 ''Nullte'' - II. Andante.wav" WAVE
  TRACK 02 AUDIO
    TITLE "Symphony in D minor, WAB 100 'Nullte' - II. Andante"
    PERFORMER "Dennis Russell Davies, Bruckner Orchester Linz"
    ISRC DEP621000004
    INDEX 01 00:00:00
FILE "03 - Symphony in D minor, WAB 100 ''Nullte'' - III. Scherzo. Presto.wav" WAVE
  TRACK 03 AUDIO
    TITLE "Symphony in D minor, WAB 100 'Nullte' - III. Scherzo. Presto"
    PERFORMER "Dennis Russell Davies, Bruckner Orchester Linz"
    ISRC DEP621000005
    INDEX 01 00:00:00
FILE "04 - Symphony in D minor, WAB 100 ''Nullte'' - IV. Finale. Moderato.wav" WAVE
  TRACK 04 AUDIO
    TITLE "Symphony in D minor, WAB 100 'Nullte' - IV. Finale. Moderato"
    PERFORMER "Dennis Russell Davies, Bruckner Orchester Linz"
    ISRC DEP621000006
    INDEX 01 00:00:00


CD 2

REM GENRE Classical
REM DATE 2017
REM DISCID 3A0A4604
REM COMMENT "ExactAudioCopy v1.3"
PERFORMER "Dennis Russell Davies, Bruckner Orchester Linz"
TITLE "The Complete Bruckner Symphonies"
REM COMPOSER "Anton Bruckner"
FILE "01 - Symphony No. 1 in C minor - I.Allegro molto moderato.wav" WAVE
  TRACK 01 AUDIO
    TITLE "Symphony No. 1 in C minor - I.Allegro molto moderato"
    PERFORMER "Dennis Russell Davies, Bruckner Orchester Linz"
    REM COMPOSER "Anton Bruckner"
    ISRC DEP620600069
    INDEX 01 00:00:00
FILE "02 - Symphony No. 1 in C minor - II.Adagio.wav" WAVE
  TRACK 02 AUDIO
    TITLE "Symphony No. 1 in C minor - II.Adagio"
    PERFORMER "Dennis Russell Davies, Bruckner Orchester Linz"
    REM COMPOSER "Anton Bruckner"
    ISRC DEP620600070
    INDEX 01 00:00:00
FILE "03 - Symphony No. 1 in C minor - III.Scherzo. Lebhaft.wav" WAVE
  TRACK 03 AUDIO
    TITLE "Symphony No. 1 in C minor - III.Scherzo. Lebhaft"
    PERFORMER "Dennis Russell Davies, Bruckner Orchester Linz"
    REM COMPOSER "Anton Bruckner"
    ISRC DEP620600071
    INDEX 01 00:00:00
FILE "04 - Symphony No. 1 in C minor - IV.Finale. Bewegt, feurig.wav" WAVE
  TRACK 04 AUDIO
    TITLE "Symphony No. 1 in C minor - IV.Finale. Bewegt, feurig"
    PERFORMER "Dennis Russell Davies, Bruckner Orchester Linz"
    REM COMPOSER "Anton Bruckner"
    ISRC DEP620600072
    INDEX 01 00:00:00


CD 3

REM GENRE Classical
REM DATE 2017
REM DISCID 1D0DD904
REM COMMENT "ExactAudioCopy v1.1"
PERFORMER "Dennis Russell Davies, Bruckner Orchester Linz"
TITLE "The Complete Bruckner Symphonies"
FILE "01 - Symphony No. 2 in C minor - I. Moderato.wav" WAVE
  TRACK 01 AUDIO
    TITLE "Symphony No. 2 in C minor - I. Moderato"
    PERFORMER "Dennis Russell Davies, Bruckner Orchester Linz"
    ISRC DEP620600074
    INDEX 01 00:00:00
FILE "02 - Symphony No. 2 in C minor - II. Andante.wav" WAVE
  TRACK 02 AUDIO
    TITLE "Symphony No. 2 in C minor - II. Andante"
    PERFORMER "Dennis Russell Davies, Bruckner Orchester Linz"
    ISRC DEP620600075
    INDEX 01 00:00:00
FILE "03 - Symphony No. 2 in C minor - III. Scherzo.wav" WAVE
  TRACK 03 AUDIO
    TITLE "Symphony No. 2 in C minor - III. Scherzo"
    PERFORMER "Dennis Russell Davies, Bruckner Orchester Linz"
    ISRC DEP620600076
    INDEX 01 00:00:00
FILE "04 - Symphony No. 2 in C minor - IV. Finale.wav" WAVE
  TRACK 04 AUDIO
    TITLE "Symphony No. 2 in C minor - IV. Finale"
    PERFORMER "Dennis Russell Davies, Bruckner Orchester Linz"
    ISRC DEP620600077
    INDEX 01 00:00:00


CD 4

REM GENRE Classical
REM DATE 2017
REM DISCID 320DA504
REM COMMENT "ExactAudioCopy v1.3"
PERFORMER "Dennis Russell Davies, Bruckner Orchester Linz"
TITLE "The Complete Bruckner Symphonies"
REM COMPOSER "Anton Bruckner"
FILE "01 - Symphony No. 3 in D minor - I. Mehr Langsam, Misterioso.wav" WAVE
  TRACK 01 AUDIO
    TITLE "Symphony No. 3 in D minor - I. Mehr Langsam, Misterioso"
    PERFORMER "Dennis Russell Davies, Bruckner Orchester Linz"
    REM COMPOSER "Anton Bruckner"
    ISRC DEP620600056
    INDEX 01 00:00:00
FILE "02 - Symphony No. 3 in D minor - II. Adagio, Bewegt, quasi andante.wav" WAVE
  TRACK 02 AUDIO
    TITLE "Symphony No. 3 in D minor - II. Adagio, Bewegt, quasi andante"
    PERFORMER "Dennis Russell Davies, Bruckner Orchester Linz"
    REM COMPOSER "Anton Bruckner"
    ISRC DEP620600057
    INDEX 01 00:00:00
FILE "03 - Symphony No. 3 in D minor - III. Ziemlich schnell.wav" WAVE
  TRACK 03 AUDIO
    TITLE "Symphony No. 3 in D minor - III. Ziemlich schnell"
    PERFORMER "Dennis Russell Davies, Bruckner Orchester Linz"
    REM COMPOSER "Anton Bruckner"
    ISRC DEP620600058
    INDEX 01 00:00:00
FILE "04 - Symphony No. 3 in D minor - IV. Allegro.wav" WAVE
  TRACK 04 AUDIO
    TITLE "Symphony No. 3 in D minor - IV. Allegro"
    PERFORMER "Dennis Russell Davies, Bruckner Orchester Linz"
    REM COMPOSER "Anton Bruckner"
    ISRC DEP620600059
    INDEX 01 00:00:00


CD 5

REM GENRE Classical
REM DATE 2017
REM DISCID 330FF604
REM COMMENT "ExactAudioCopy v1.1"
PERFORMER "Dennis Russell Davies, Bruckner Orchester Linz"
TITLE "The Complete Bruckner Symphonies"
FILE "01 - Symphony No. 4 in E flat major - I. Allegro.wav" WAVE
  TRACK 01 AUDIO
    TITLE "Symphony No. 4 in E flat major - I. Allegro"
    PERFORMER "Dennis Russell Davies, Bruckner Orchester Linz"
    ISRC DEP620400044
    FLAGS DCP
    INDEX 01 00:00:00
FILE "02 - Symphony No. 4 in E flat major - II. Andante quasi allegretto.wav" WAVE
  TRACK 02 AUDIO
    TITLE "Symphony No. 4 in E flat major - II. Andante quasi allegretto"
    PERFORMER "Dennis Russell Davies, Bruckner Orchester Linz"
    ISRC DEP620400045
    FLAGS DCP
    INDEX 01 00:00:00
FILE "03 - Symphony No. 4 in E flat major - III. Sehr Schnell_.wav" WAVE
  TRACK 03 AUDIO
    TITLE "Symphony No. 4 in E flat major - III. Sehr Schnell_"
    PERFORMER "Dennis Russell Davies, Bruckner Orchester Linz"
    ISRC DEP620400046
    FLAGS DCP
    INDEX 01 00:00:00
FILE "04 - Symphony No. 4 in E flat major - IV. Finale, Allegro moderato.wav" WAVE
  TRACK 04 AUDIO
    TITLE "Symphony No. 4 in E flat major - IV. Finale, Allegro moderato"
    PERFORMER "Dennis Russell Davies, Bruckner Orchester Linz"
    ISRC DEP620400047
    FLAGS DCP
    INDEX 01 00:00:00


CD 6

REM GENRE Classical
REM DATE 2017
REM DISCID 1C121904
REM COMMENT "ExactAudioCopy v1.3"
CATALOG 0886977497728
PERFORMER "Dennis Russell Davies, Bruckner Orchester Linz"
TITLE "The Complete Bruckner Symphonies"
REM COMPOSER "Anton Bruckner"
FILE "01 - Symphony No. 5 in B flat major - I. Introduction. Adagio - Allegro.wav" WAVE
  TRACK 01 AUDIO
    TITLE "Symphony No. 5 in B flat major - I. Introduction. Adagio - Allegro"
    PERFORMER "Dennis Russell Davies, Bruckner Orchester Linz"
    REM COMPOSER "Anton Bruckner"
    ISRC DEP621000008
    INDEX 01 00:00:00
FILE "02 - Symphony No. 5 in B flat major - II. Adagio. Sehr langsam.wav" WAVE
  TRACK 02 AUDIO
    TITLE "Symphony No. 5 in B flat major - II. Adagio. Sehr langsam"
    PERFORMER "Dennis Russell Davies, Bruckner Orchester Linz"
    REM COMPOSER "Anton Bruckner"
    ISRC DEP621000009
    INDEX 01 00:00:00
FILE "03 - Symphony No. 5 in B flat major - III. Scherzo. Molto vivace (schnell).wav" WAVE
  TRACK 03 AUDIO
    TITLE "Symphony No. 5 in B flat major - III. Scherzo. Molto vivace (schnell) - Trio...."
    PERFORMER "Dennis Russell Davies, Bruckner Orchester Linz"
    REM COMPOSER "Anton Bruckner"
    ISRC DEP621000010
    INDEX 01 00:00:00
FILE "04 - Symphony No. 5 in B flat major - IV. Finale. Adagio - Allegro moderato.wav" WAVE
  TRACK 04 AUDIO
    TITLE "Symphony No. 5 in B flat major - IV. Finale. Adagio - Allegro moderato"
    PERFORMER "Dennis Russell Davies, Bruckner Orchester Linz"
    REM COMPOSER "Anton Bruckner"
    ISRC DEP621000011
    INDEX 01 00:00:00


CD 7

REM GENRE Classical
REM DATE 2017
REM DISCID 230EDF04
REM COMMENT "ExactAudioCopy v1.1"
PERFORMER "Dennis Russell Davies, Bruckner Orchester Linz"
TITLE "The Complete Bruckner Symphonies"
FILE "01 - Symphony No. 6 in A major - I. Maestoso.wav" WAVE
  TRACK 01 AUDIO
    TITLE "Symphony No. 6 in A major - I. Maestoso"
    PERFORMER "Dennis Russell Davies, Bruckner Orchester Linz"
    ISRC DEP620800008
    INDEX 01 00:00:00
FILE "02 - Symphony No. 6 in A major - II. Adagio. Sehr feierlich.wav" WAVE
  TRACK 02 AUDIO
    TITLE "Symphony No. 6 in A major - II. Adagio. Sehr feierlich"
    PERFORMER "Dennis Russell Davies, Bruckner Orchester Linz"
    ISRC DEP620800009
    INDEX 01 00:00:00
FILE "03 - Symphony No. 6 in A major - III. Scherzo. Nicht schnell - Trio. Langsam.wav" WAVE
  TRACK 03 AUDIO
    TITLE "Symphony No. 6 in A major - III. Scherzo. Nicht schnell - Trio. Langsam"
    PERFORMER "Dennis Russell Davies, Bruckner Orchester Linz"
    ISRC DEP620800010
    INDEX 01 00:00:00
FILE "04 - Symphony No. 6 in A major - IV. Finale. Bewegt, doch nicht zu schnell.wav" WAVE
  TRACK 04 AUDIO
    TITLE "Symphony No. 6 in A major - IV. Finale. Bewegt, doch nicht zu schnell"
    PERFORMER "Dennis Russell Davies, Bruckner Orchester Linz"
    ISRC DEP620800011
    INDEX 01 00:00:00


CD 8

REM GENRE Classical
REM DATE 2017
REM DISCID 270EEF04
REM COMMENT "ExactAudioCopy v1.3"
PERFORMER "Dennis Russell Davies, Bruckner Orchester Linz"
TITLE "The Complete Bruckner Symphonies"
REM COMPOSER "Anton Bruckner"
FILE "01 - Symphony No. 7 in E major - I. Allegro moderato.wav" WAVE
  TRACK 01 AUDIO
    TITLE "Symphony No. 7 in E major - I. Allegro moderato"
    PERFORMER "Dennis Russell Davies, Bruckner Orchester Linz"
    REM COMPOSER "Anton Bruckner"
    ISRC DEP620800013
    INDEX 01 00:00:00
FILE "02 - Symphony No. 7 in E major - II. Adagio.wav" WAVE
  TRACK 02 AUDIO
    TITLE "Symphony No. 7 in E major - II. Adagio"
    PERFORMER "Dennis Russell Davies, Bruckner Orchester Linz"
    REM COMPOSER "Anton Bruckner"
    ISRC DEP620800014
    INDEX 01 00:00:00
FILE "03 - Symphony No. 7 in E major - III. Scherzo. Sehr schnell.wav" WAVE
  TRACK 03 AUDIO
    TITLE "Symphony No. 7 in E major - III. Scherzo. Sehr schnell"
    PERFORMER "Dennis Russell Davies, Bruckner Orchester Linz"
    REM COMPOSER "Anton Bruckner"
    ISRC DEP620800015
    INDEX 01 00:00:00
FILE "04 - Symphony No. 7 in E major - IV. Finale. Bewegt.wav" WAVE
  TRACK 04 AUDIO
    TITLE "Symphony No. 7 in E major - IV. Finale. Bewegt"
    PERFORMER "Dennis Russell Davies, Bruckner Orchester Linz"
    REM COMPOSER "Anton Bruckner"
    ISRC DEP620800016
    INDEX 01 00:00:00


CD 9

REM GENRE Classical
REM DATE 2017
REM DISCID 1206AD02
REM COMMENT "ExactAudioCopy v1.1"
PERFORMER "Dennis Russell Davies, Bruckner Orchester Linz"
TITLE "The Complete Bruckner Symphonies"
FILE "01 - Symphony No. 8 in C minor - I. Allegro Moderato.wav" WAVE
  TRACK 01 AUDIO
    TITLE "Symphony No. 8 in C minor - I. Allegro Moderato"
    PERFORMER "Dennis Russell Davies, Bruckner Orchester Linz"
    ISRC DEP620400073
    FLAGS DCP
    INDEX 01 00:00:00
FILE "02 - Symphony No. 8 in C minor - II. Scherzo and Trio, Allegro moderato.wav" WAVE
  TRACK 02 AUDIO
    TITLE "Symphony No. 8 in C minor - II. Scherzo and Trio, Allegro moderato"
    PERFORMER "Dennis Russell Davies, Bruckner Orchester Linz"
    ISRC DEP620400074
    FLAGS DCP
    INDEX 01 00:00:00


CD 10

REM GENRE Classical
REM DATE 2017
REM DISCID 150C2D02
REM COMMENT "ExactAudioCopy v1.1"
PERFORMER "Dennis Russell Davies, Bruckner Orchester Linz"
TITLE "The Complete Bruckner Symphonies"
FILE "01 - Symphony No. 8 in C minor - III. Adagio, Feierlich langsam, doch nicht schleppend.wav" WAVE
  TRACK 01 AUDIO
    TITLE "Symphony No. 8 in C minor - III. Adagio, Feierlich langsam, doch nicht schlep..."
    PERFORMER "Dennis Russell Davies, Bruckner Orchester Linz"
    ISRC DEP620400075
    FLAGS DCP
    INDEX 01 00:00:00
FILE "02 - Symphony No. 8 in C minor - IV. Finale, Feierlich, nicht schnell.wav" WAVE
  TRACK 02 AUDIO
    TITLE "Symphony No. 8 in C minor - IV. Finale, Feierlich, nicht schnell"
    PERFORMER "Dennis Russell Davies, Bruckner Orchester Linz"
    ISRC DEP620400076
    FLAGS DCP
    INDEX 01 00:00:00


CD 11

REM GENRE Classical
REM DATE 2017
REM DISCID 190DF803
REM COMMENT "ExactAudioCopy v1.3"
PERFORMER "Dennis Russell Davies, Bruckner Orchester Linz"
TITLE "The Complete Bruckner Symphonies"
REM COMPOSER "Anton Bruckner"
FILE "01 - Symphony No. 9 - I. Feierlich, misterioso.wav" WAVE
  TRACK 01 AUDIO
    TITLE "Symphony No. 9 - I. Feierlich, misterioso"
    PERFORMER "Dennis Russell Davies, Bruckner Orchester Linz"
    REM COMPOSER "Anton Bruckner"
    ISRC DEP620800018
    INDEX 01 00:00:00
FILE "02 - Symphony No. 9 - II. Scherzo, bewegt, lebhaft - Trio, schnell.wav" WAVE
  TRACK 02 AUDIO
    TITLE "Symphony No. 9 - II. Scherzo, bewegt, lebhaft - Trio, schnell"
    PERFORMER "Dennis Russell Davies, Bruckner Orchester Linz"
    REM COMPOSER "Anton Bruckner"
    ISRC DEP620800019
    INDEX 01 00:00:00
FILE "03 - Symphony No. 9 - III. Adagio, langsam, feierlich.wav" WAVE
  TRACK 03 AUDIO
    TITLE "Symphony No. 9 - III. Adagio, langsam, feierlich"
    PERFORMER "Dennis Russell Davies, Bruckner Orchester Linz"
    REM COMPOSER "Anton Bruckner"
    ISRC DEP620800020
    INDEX 01 00:00:00


                                                                                       
                       
                       
                       
                       
                       
                                磁力下载(论坛代下载服务)::
                                                               
                                       
付费主题

已有0人支付


                                               
  • 2.49 GB
  • 温馨提示

    记得善用社区搜索功能,那里可能会有你想要的资源;论坛站内搜索

    如果你有什么需要的资源可以去资源求档发帖,求助社区的网友,我们会在第一时间给你回复哦;资源求档

    对于本社区网盘链接失效密码错误各种报错请在反馈板块反馈报错发帖,您的支持,是我们发展的最大动力;投诉建议

    回复

    使用道具 举报

    您需要登录后才可以回帖 登录 | 立即注册 微信登录

    本版积分规则

    关注0

    粉丝1

    帖子31533

    发布主题
    阅读排行更多+
    关闭

    站长推荐上一条 /1 下一条

    活动提示

    赞助永久VIP会员送3T硬盘一块 限时活动

    地址:立刻参加

    我知道了
    收藏帖子 返回列表 这是一个自定义按钮
    音乐分享,音乐下载。
    微信公众号
    微信号:hires_
    意见反馈:admin@maomicd.com

    加入我们的官方QQ群和微信群

    Powered by Discuz! X3.4 Archiver|手机版|小黑屋|捌零音乐论坛 ( 苏ICP备20015413号 )|( 苏公网安备 32030502000272号) 繁體

    GMT+8, 2021-9-25 06:14