[古典] (Classical) Bruckner - Symphony No.5 - Residentie Orchestra The Hague, Neeme Järvi (Jarvi) - 2010, FLAC (image+.cue) lossless

[复制链接]
韬199435 发表于 2021-9-10 16:56:52 | 显示全部楼层 |阅读模式 打印 上一主题 下一主题
Bruckner - Symphony No.5 - Residentie Orchestra The Hague, Neeme Järvi
Жанр: Classical
Страна-производитель диска: UK
Год издания диска: 2010
Издатель (лейбл): Chandos Records
Номер по каталогу: CHSA 5080
Дата записи: 2009
Аудиокодек: FLAC
Тип рипа: image+.cue
Битрейт аудио: lossless
Продолжительность: 62:05
Источник: собственный рип
Наличие сканов в содержимом раздачи: да
Треклист:
Anton Bruckner (1824–1896)
[1]-[4] Symphony No. 5
Исполнители:
Residentie Orchestra The Hague
Neeme Järvi
Лог создания рипа

Exact Audio Copy V1.3 from 2. September 2016
EAC extraction logfile from 25. July 2019, 22:46
Residentie Orchestra The Hague, Neeme Järvi / Bruckner - Symphony No.5
Used drive  : ASUS    SDRW-08U7M-U   Adapter: 1  ID: 0
Read mode               : Secure
Utilize accurate stream : Yes
Defeat audio cache      : Yes
Make use of C2 pointers : No
Read offset correction                      : 6
Overread into Lead-In and Lead-Out          : No
Fill up missing offset samples with silence : Yes
Delete leading and trailing silent blocks   : No
Null samples used in CRC calculations       : Yes
Used interface                              : Native Win32 interface for Win NT & 2000
Used output format              : User Defined Encoder
Selected bitrate                : 128 kBit/s
Quality                         : High
Add ID3 tag                     : No
Command line compressor         : C:\Program Files (x86)\Exact Audio Copy\Flac\flac.exe
Additional command line options : -V -8 -T "Date=%year%" -T "Genre=%genre%" %source%
TOC of the extracted CD
     Track |   Start  |  Length  | Start sector | End sector
    ---------------------------------------------------------
        1  |  0:00.00 | 18:03.18 |         0    |    81242
        2  | 18:03.18 | 11:19.20 |     81243    |   132187
        3  | 29:22.38 | 12:59.35 |    132188    |   190647
        4  | 42:21.73 | 19:43.02 |    190648    |   279374
Range status and errors
Selected range
     Filename C:\temp\Bruckner - Symphony No.5 - Neeme Jarvi - 2010\Bruckner - Symphony No.5.wav
     Peak level 95.8 %
     Extraction speed 5.0 X
     Range quality 100.0 %
     Test CRC 1AE822AA
     Copy CRC 1AE822AA
     Copy OK
No errors occurred
AccurateRip summary
Track  1  accurately ripped (confidence 6)  [1C27CCEE]  (AR v2)
Track  2  accurately ripped (confidence 6)  [ADF3C503]  (AR v2)
Track  3  accurately ripped (confidence 6)  [96FBB43E]  (AR v2)
Track  4  accurately ripped (confidence 6)  [3D3AECF2]  (AR v2)
All tracks accurately ripped
End of status report
==== Log checksum 94E6F9F8E5D86A32446AC2B84FCA703A960A3B79F6C4CC64A046578BEA00EC60 ====

                                                                                       
                       
                       
                       
                       
                       
                                磁力下载(论坛代下载服务)::
                                                               
                                       
付费主题

已有0人支付


                                               
  • 239.9 MB
  • 温馨提示

    记得善用社区搜索功能,那里可能会有你想要的资源;论坛站内搜索

    如果你有什么需要的资源可以去资源求档发帖,求助社区的网友,我们会在第一时间给你回复哦;资源求档

    对于本社区网盘链接失效密码错误各种报错请在反馈板块反馈报错发帖,您的支持,是我们发展的最大动力;投诉建议

    回复

    使用道具 举报

    您需要登录后才可以回帖 登录 | 立即注册 微信登录

    本版积分规则

    关注0

    粉丝0

    帖子31315

    发布主题
    阅读排行更多+
    关闭

    站长推荐上一条 /1 下一条

    活动提示

    赞助永久VIP会员送3T硬盘一块 限时活动

    地址:立刻参加

    我知道了
    收藏帖子 返回列表 这是一个自定义按钮
    音乐分享,音乐下载。
    微信公众号
    微信号:hires_
    意见反馈:admin@maomicd.com

    加入我们的官方QQ群和微信群

    Powered by Discuz! X3.4 Archiver|手机版|小黑屋|捌零音乐论坛 ( 苏ICP备20015413号 )|( 苏公网安备 32030502000272号) 繁體

    GMT+8, 2021-9-22 22:46