[古典] (Classical) Пётр Ильич Чайковский - Симфонии 1-6, Манфред, Ромео и Джульетта, Франческа да Римини (London Philharmonic Orchestra, Мстислав Ростропович / Mstislav Rostropovich) [5 C

[复制链接]
10086 发表于 6 天前 | 显示全部楼层 |阅读模式 打印 上一主题 下一主题
Пётр Ильич Чайковский - Симфонии 1-6, Манфред, Ромео и Джульетта, Франческа да Римини (Мстислав Ростропович)
Жанр: Classical
Страна-производитель диска: EU
Год издания диска: 2008
Издатель (лейбл): EMI Classics
Номер по каталогу: 50999 5 19493 2 7
Дата записи: 1977-1978
Аудиокодек: FLAC
Тип рипа: image+.cue
Битрейт аудио: lossless
Продолжительность: 6:17:47
Источник: web
Наличие сканов в содержимом раздачи: да
Треклист:
CD1 - Symphony No.1, Francesca da Rimini
Symphony No.1 in G minor, Op.13 'Winter Dreams'
1. I. Allegro tranquillo
2. II. Adagio cantabile ma non tanto
3. III. Scherzo
4. IV. Finale
5. Francesca da Rimini: Symphonic Fantasy Op.32

CD2 - Symphonies Nos. 2 & 3
Symphony No.2 in C minor Op. 17 'Little Russian'
1. I. Andante sostenuto; Allegro vivo
2. II. Andantino marziale, quasi moderato
3. III. Scherzo: Allegro molto vivace
4. IV. Finale: Moderato assai; Allegro vivo; Presto
Symphony No.3 in D Op.29 'Polish'
5. I. Introduzione e Allegro; Moderato assai; Allegro brillante
6. II. Alla tedesca: Allegro moderato e semplice
7. III. Andante elegiaco
8. IV. Scherzo: Allegro vivo

CD3 - Symphonies Nos. 3 & 4, Romeo and Juliet
Symphony No.3 in D major Op.29 'Polish'
1. V. Finale: Allegro con fuoco
2. Romeo and Juliet: Fantasy Overture
Symphony No.4 in F minor Op.36
3. I. Andante sostenuto; Moderato con anima
4. II. Andantino in modo di canzona
5. III. Scherzo: Allegro (Pizzicato ostinato)
6. IV. Finale: Allegro con fuoco

CD4 - 'Manfred', Symphony No.6
'Manfred' Symphony Op.58
1. I. Lento lugubre; Moderato con moto
2. II. Vivace con spirito
3. III. Andante con moto
4. IV. Allegro con fuoco
Symphony No.6 in B minor Op.74 'Pathetique'
5. I. Adagio; Allegro non troppo

CD5 - Symphonies Nos. 6 & 5
Symphony No.6 in B minor Op.74 'Pathetique'
1. II. Allegro con grazia
2. III. Allegro molto vivace
3. IV. Finale: Adagio lamentoso; Andante
Symphony No.5 in E minor Op.64
4. I. Andante; Allegro con anima
5. II. Andante cantabile, con alcuna licenza
6. III. Valse: Allegro moderato
7. IV. Finale: Andante maestoso; Allegro vivace
Исполнители:
London Philharmonic Orchestra
Conductor: Mstislav Rostropovich
Лог создания рипа

CD1

Exact Audio Copy V1.0 beta 2 from 29. April 2011
EAC extraction logfile from 23. November 2011, 18:36
Mstislav Rostropovich / Tchaikovsky: Complete Symphonies _Rostropovich @LPO CD1
Used drive  : PIONEER BD-ROM BDCTD03RS   Adapter: 1  ID: 0
Read mode               : Secure
Utilize accurate stream : Yes
Defeat audio cache      : Yes
Make use of C2 pointers : No
Read offset correction                      : 667
Overread into Lead-In and Lead-Out          : No
Fill up missing offset samples with silence : Yes
Delete leading and trailing silent blocks   : No
Null samples used in CRC calculations       : No
Used interface                              : Native Win32 interface for Win NT & 2000
Used output format              : User Defined Encoder
Selected bitrate                : 768 kBit/s
Quality                         : High
Add ID3 tag                     : No
Command line compressor         : D:\Tools\Exact Audio Copy\FLAC\FLAC.EXE
Additional command line options : -6 -V -T "ARTIST=%artist%" -T "TITLE=%title%" -T "ALBUM=%albumtitle%" -T "DATE=%year%" -T "TRACKNUMBER=%tracknr%" -T "GENRE=%genre%" -T "COMMENT=%comment%" -T "BAND=%albuminterpret%" -T "COMPOSER=%composer%" %haslyrics%--ta
TOC of the extracted CD
     Track |   Start  |  Length  | Start sector | End sector
    ---------------------------------------------------------
        1  |  0:00.32 | 12:23.35 |        32    |    55791
        2  | 12:23.67 | 12:11.10 |     55792    |   110626
        3  | 24:35.02 |  7:09.35 |    110627    |   142836
        4  | 31:44.37 | 13:33.33 |    142837    |   203844
        5  | 45:17.70 | 25:29.40 |    203845    |   318559
Range status and errors
Selected range
     Filename E:\User\Music\Copies of My CDs\Single Composer\Tchaikovsky - the Complete Symphonies _Rostropovich @LPO [EMI] 5CDs\CD1.wav
     Peak level 100.0 %
     Extraction speed 2.0 X
     Range quality 100.0 %
     Copy CRC 218FEFC0
     Copy OK
No errors occurred
AccurateRip summary
Track  1  accurately ripped (confidence 4)  [14E3FBE1]  (AR v1)
Track  2  accurately ripped (confidence 3)  [6D789562]  (AR v1)
Track  3  accurately ripped (confidence 4)  [23191201]  (AR v1)
Track  4  accurately ripped (confidence 4)  [9EF9E57C]  (AR v1)
Track  5  accurately ripped (confidence 4)  [BF39BBCD]  (AR v1)
All tracks accurately ripped
End of status report


CD2

Exact Audio Copy V1.0 beta 2 from 29. April 2011
EAC extraction logfile from 23. November 2011, 19:28
Mstislav Rostropovich / Tchaikovsky: Complete Symphonies _Rostropovich @LPO CD2
Used drive  : PIONEER BD-ROM BDCTD03RS   Adapter: 1  ID: 0
Read mode               : Secure
Utilize accurate stream : Yes
Defeat audio cache      : Yes
Make use of C2 pointers : No
Read offset correction                      : 667
Overread into Lead-In and Lead-Out          : No
Fill up missing offset samples with silence : Yes
Delete leading and trailing silent blocks   : No
Null samples used in CRC calculations       : No
Used interface                              : Native Win32 interface for Win NT & 2000
Used output format              : User Defined Encoder
Selected bitrate                : 768 kBit/s
Quality                         : High
Add ID3 tag                     : No
Command line compressor         : D:\Tools\Exact Audio Copy\FLAC\FLAC.EXE
Additional command line options : -6 -V -T "ARTIST=%artist%" -T "TITLE=%title%" -T "ALBUM=%albumtitle%" -T "DATE=%year%" -T "TRACKNUMBER=%tracknr%" -T "GENRE=%genre%" -T "COMMENT=%comment%" -T "BAND=%albuminterpret%" -T "COMPOSER=%composer%" %haslyrics%--ta
TOC of the extracted CD
     Track |   Start  |  Length  | Start sector | End sector
    ---------------------------------------------------------
        1  |  0:00.32 | 11:19.68 |        32    |    51024
        2  | 11:20.25 |  7:41.05 |     51025    |    85604
        3  | 19:01.30 |  5:08.72 |     85605    |   108776
        4  | 24:10.27 | 10:50.05 |    108777    |   157531
        5  | 35:00.32 | 14:22.10 |    157532    |   222191
        6  | 49:22.42 |  7:34.70 |    222192    |   256311
        7  | 56:57.37 | 10:10.23 |    256312    |   302084
        8  | 67:07.60 |  5:24.50 |    302085    |   326434
Range status and errors
Selected range
     Filename E:\User\Music\Copies of My CDs\Single Composer\Tchaikovsky - the Complete Symphonies _Rostropovich @LPO [EMI] 5CDs\CD2.wav
     Peak level 96.2 %
     Extraction speed 2.0 X
     Range quality 100.0 %
     Copy CRC 1092454B
     Copy OK
No errors occurred
AccurateRip summary
Track  1  accurately ripped (confidence 4)  [84C65576]  (AR v1)
Track  2  accurately ripped (confidence 4)  [954EA243]  (AR v1)
Track  3  accurately ripped (confidence 4)  [C9C09869]  (AR v1)
Track  4  accurately ripped (confidence 4)  [C9A96FAD]  (AR v1)
Track  5  accurately ripped (confidence 4)  [B7C11488]  (AR v1)
Track  6  accurately ripped (confidence 4)  [28D48E49]  (AR v1)
Track  7  accurately ripped (confidence 4)  [8420C687]  (AR v1)
Track  8  accurately ripped (confidence 4)  [CFC7B16F]  (AR v1)
All tracks accurately ripped
End of status report


CD3

Exact Audio Copy V1.0 beta 2 from 29. April 2011
EAC extraction logfile from 24. November 2011, 17:48
Mstislav Rostropovich / Tchaikovsky: Complete Symphonies _Rostropovich @LPO CD3
Used drive  : PIONEER BD-ROM BDCTD03RS   Adapter: 1  ID: 0
Read mode               : Secure
Utilize accurate stream : Yes
Defeat audio cache      : Yes
Make use of C2 pointers : No
Read offset correction                      : 667
Overread into Lead-In and Lead-Out          : No
Fill up missing offset samples with silence : Yes
Delete leading and trailing silent blocks   : No
Null samples used in CRC calculations       : No
Used interface                              : Native Win32 interface for Win NT & 2000
Used output format              : User Defined Encoder
Selected bitrate                : 768 kBit/s
Quality                         : High
Add ID3 tag                     : No
Command line compressor         : D:\Tools\Exact Audio Copy\FLAC\FLAC.EXE
Additional command line options : -6 -V -T "ARTIST=%artist%" -T "TITLE=%title%" -T "ALBUM=%albumtitle%" -T "DATE=%year%" -T "TRACKNUMBER=%tracknr%" -T "GENRE=%genre%" -T "COMMENT=%comment%" -T "BAND=%albuminterpret%" -T "COMPOSER=%composer%" %haslyrics%--ta
TOC of the extracted CD
     Track |   Start  |  Length  | Start sector | End sector
    ---------------------------------------------------------
        1  |  0:00.32 |  9:06.10 |        32    |    40991
        2  |  9:06.42 | 22:50.03 |     40992    |   143744
        3  | 31:56.45 | 19:30.05 |    143745    |   231499
        4  | 51:26.50 | 10:32.25 |    231500    |   278924
        5  | 61:59.00 |  5:31.02 |    278925    |   303751
        6  | 67:30.02 |  9:13.23 |    303752    |   345249
Range status and errors
Selected range
     Filename E:\User\Music\Copies of My CDs\Single Composer\Tchaikovsky - the Complete Symphonies _Rostropovich @LPO [EMI] 5CDs\CD3.wav
     Peak level 95.5 %
     Extraction speed 5.2 X
     Range quality 100.0 %
     Copy CRC 9CBEB42E
     Copy OK
No errors occurred
AccurateRip summary
Track  1  accurately ripped (confidence 4)  [8BEFA628]  (AR v1)
Track  2  accurately ripped (confidence 4)  [D1A2C994]  (AR v1)
Track  3  accurately ripped (confidence 4)  [C6FFF518]  (AR v1)
Track  4  accurately ripped (confidence 3)  [BFFC7DBE]  (AR v1)
Track  5  accurately ripped (confidence 4)  [5FD35BD7]  (AR v1)
Track  6  accurately ripped (confidence 4)  [20D180B1]  (AR v1)
All tracks accurately ripped
End of status report


CD4

Exact Audio Copy V1.0 beta 2 from 29. April 2011
EAC extraction logfile from 24. November 2011, 22:01
Mstislav Rostropovich / Tchaikovsky: Complete Symphonies _Rostropovich @LPO CD4
Used drive  : PIONEER BD-ROM BDCTD03RS   Adapter: 1  ID: 0
Read mode               : Secure
Utilize accurate stream : Yes
Defeat audio cache      : Yes
Make use of C2 pointers : No
Read offset correction                      : 667
Overread into Lead-In and Lead-Out          : No
Fill up missing offset samples with silence : Yes
Delete leading and trailing silent blocks   : No
Null samples used in CRC calculations       : No
Used interface                              : Native Win32 interface for Win NT & 2000
Used output format              : User Defined Encoder
Selected bitrate                : 768 kBit/s
Quality                         : High
Add ID3 tag                     : No
Command line compressor         : D:\Tools\Exact Audio Copy\FLAC\FLAC.EXE
Additional command line options : -6 -V -T "ARTIST=%artist%" -T "TITLE=%title%" -T "ALBUM=%albumtitle%" -T "DATE=%year%" -T "TRACKNUMBER=%tracknr%" -T "GENRE=%genre%" -T "COMMENT=%comment%" -T "BAND=%albuminterpret%" -T "COMPOSER=%composer%" %haslyrics%--ta
TOC of the extracted CD
     Track |   Start  |  Length  | Start sector | End sector
    ---------------------------------------------------------
        1  |  0:00.32 | 17:54.25 |        32    |    80606
        2  | 17:54.57 |  8:39.10 |     80607    |   119541
        3  | 26:33.67 | 12:13.53 |    119542    |   174569
        4  | 38:47.45 | 21:29.62 |    174570    |   271306
        5  | 60:17.32 | 18:52.08 |    271307    |   356214
Range status and errors
Selected range
     Filename E:\User\Music\Copies of My CDs\Single Composer\Tchaikovsky - the Complete Symphonies _Rostropovich @LPO [EMI] 5CDs\CD4.wav
     Peak level 100.0 %
     Extraction speed 2.1 X
     Range quality 100.0 %
     Copy CRC DCA3663B
     Copy OK
No errors occurred
AccurateRip summary
Track  1  accurately ripped (confidence 4)  [7DAE1418]  (AR v1)
Track  2  accurately ripped (confidence 4)  [DA812F8E]  (AR v1)
Track  3  accurately ripped (confidence 4)  [09680D7F]  (AR v1)
Track  4  accurately ripped (confidence 4)  [A56E139F]  (AR v1)
Track  5  accurately ripped (confidence 4)  [EB2178AC]  (AR v1)
All tracks accurately ripped
End of status report


CD5

Exact Audio Copy V1.0 beta 2 from 29. April 2011
EAC extraction logfile from 24. November 2011, 22:35
Mstislav Rostropovich / Tchaikovsky: Complete Symphonies _Rostropovich @LPO CD5
Used drive  : PIONEER BD-ROM BDCTD03RS   Adapter: 1  ID: 0
Read mode               : Secure
Utilize accurate stream : Yes
Defeat audio cache      : Yes
Make use of C2 pointers : No
Read offset correction                      : 667
Overread into Lead-In and Lead-Out          : No
Fill up missing offset samples with silence : Yes
Delete leading and trailing silent blocks   : No
Null samples used in CRC calculations       : No
Used interface                              : Native Win32 interface for Win NT & 2000
Used output format              : User Defined Encoder
Selected bitrate                : 768 kBit/s
Quality                         : High
Add ID3 tag                     : No
Command line compressor         : D:\Tools\Exact Audio Copy\FLAC\FLAC.EXE
Additional command line options : -6 -V -T "ARTIST=%artist%" -T "TITLE=%title%" -T "ALBUM=%albumtitle%" -T "DATE=%year%" -T "TRACKNUMBER=%tracknr%" -T "GENRE=%genre%" -T "COMMENT=%comment%" -T "BAND=%albuminterpret%" -T "COMPOSER=%composer%" %haslyrics%--ta
TOC of the extracted CD
     Track |   Start  |  Length  | Start sector | End sector
    ---------------------------------------------------------
        1  |  0:00.32 |  7:49.58 |        32    |    35264
        2  |  7:50.15 |  9:00.67 |     35265    |    75831
        3  | 16:51.07 |  9:42.25 |     75832    |   119506
        4  | 26:33.32 | 16:47.60 |    119507    |   195091
        5  | 43:21.17 | 14:39.50 |    195092    |   261066
        6  | 58:00.67 |  6:20.73 |    261067    |   289639
        7  | 64:21.65 | 14:12.45 |    289640    |   353584
Range status and errors
Selected range
     Filename E:\User\Music\Copies of My CDs\Single Composer\Tchaikovsky - the Complete Symphonies _Rostropovich @LPO [EMI] 5CDs\CD5.wav
     Peak level 100.0 %
     Extraction speed 5.2 X
     Range quality 100.0 %
     Copy CRC 01A4333B
     Copy OK
No errors occurred
AccurateRip summary
Track  1  accurately ripped (confidence 3)  [124071FF]  (AR v1)
Track  2  accurately ripped (confidence 4)  [EBD81660]  (AR v1)
Track  3  accurately ripped (confidence 4)  [DB69B89A]  (AR v1)
Track  4  accurately ripped (confidence 3)  [AE7BE427]  (AR v1)
Track  5  accurately ripped (confidence 3)  [19A6C2C6]  (AR v1)
Track  6  accurately ripped (confidence 4)  [B561A175]  (AR v1)
Track  7  accurately ripped (confidence 3)  [3C8A8511]  (AR v1)
All tracks accurately ripped
End of status report



Содержание индексной карты (.CUE)

CD1

REM GENRE Symphony
REM DATE 2008
REM DISCID 48109705
REM COMMENT "ExactAudioCopy v1.0b2"
CATALOG 0724356571020
PERFORMER "Mstislav Rostropovich"
TITLE "Tchaikovsky: Complete Symphonies _Rostropovich @LPO CD1"
FILE "CD1.flac" WAVE
  TRACK 01 AUDIO
    TITLE "Symphony No.1 in G minor, Op.13 'Winter Dreams' - 1. Allegro tranquillo"
    PERFORMER "Mstislav Rostropovich"
    INDEX 00 00:00:00
    INDEX 01 00:00:32
  TRACK 02 AUDIO
    TITLE "- 2. Adagio cantabile ma non tanto"
    PERFORMER "Mstislav Rostropovich"
    INDEX 00 12:23:65
    INDEX 01 12:23:67
  TRACK 03 AUDIO
    TITLE "- 3. Scherzo"
    PERFORMER "Mstislav Rostropovich"
    INDEX 00 24:35:00
    INDEX 01 24:35:02
  TRACK 04 AUDIO
    TITLE "- 4. Finale"
    PERFORMER "Mstislav Rostropovich"
    INDEX 00 31:44:35
    INDEX 01 31:44:37
  TRACK 05 AUDIO
    TITLE "Francesca da Rimini: Symphonic Fantasy Op.32"
    PERFORMER "Mstislav Rostropovich"
    INDEX 00 45:10:50
    INDEX 01 45:17:70


CD2

REM GENRE Symphony
REM DATE 2008
REM DISCID 61110008
REM COMMENT "ExactAudioCopy v1.0b2"
CATALOG 0724356571129
PERFORMER "Mstislav Rostropovich"
TITLE "Tchaikovsky: Complete Symphonies _Rostropovich @LPO CD2"
FILE "CD2.flac" WAVE
  TRACK 01 AUDIO
    TITLE "Symphony #2 in C minor Op. 17 'Little Russian' - 1. Andante sostenuto; Allegro vivo"
    PERFORMER "Mstislav Rostropovich"
    INDEX 00 00:00:00
    INDEX 01 00:00:32
  TRACK 02 AUDIO
    TITLE "- 2. Andantino marziale, quasi moderato"
    PERFORMER "Mstislav Rostropovich"
    INDEX 00 11:20:23
    INDEX 01 11:20:25
  TRACK 03 AUDIO
    TITLE "- 3. Scherzo: Allegro molto vivace"
    PERFORMER "Mstislav Rostropovich"
    INDEX 00 19:01:27
    INDEX 01 19:01:30
  TRACK 04 AUDIO
    TITLE "- 4. Finale: Moderato assai; Allegro vivo; Presto"
    PERFORMER "Mstislav Rostropovich"
    INDEX 00 24:10:25
    INDEX 01 24:10:27
  TRACK 05 AUDIO
    TITLE "Symphony #3 in D Op.29 'Polish' - 1. Introduzione e Allegro; Moderato assai; Allegro brillante"
    PERFORMER "Mstislav Rostropovich"
    INDEX 00 34:50:17
    INDEX 01 35:00:32
  TRACK 06 AUDIO
    TITLE "- 2. Alla tedesca: Allegro moderato e semplice"
    PERFORMER "Mstislav Rostropovich"
    INDEX 00 49:22:40
    INDEX 01 49:22:42
  TRACK 07 AUDIO
    TITLE "- 3. Andante elegiaco"
    PERFORMER "Mstislav Rostropovich"
    INDEX 00 56:57:35
    INDEX 01 56:57:37
  TRACK 08 AUDIO
    TITLE "- 4. Scherzo: Allegro vivo"
    PERFORMER "Mstislav Rostropovich"
    INDEX 00 67:07:59
    INDEX 01 67:07:60


CD3

REM GENRE Symphony
REM DATE 2008
REM DISCID 5111FB06
REM COMMENT "ExactAudioCopy v1.0b2"
CATALOG 0724356571228
PERFORMER "Mstislav Rostropovich"
TITLE "Tchaikovsky: Complete Symphonies _Rostropovich @LPO CD3"
FILE "CD3.flac" WAVE
  TRACK 01 AUDIO
    TITLE "Symphony #3 in D major Op.29 'Polish' - 4. Finale: Allegro con fuoco"
    PERFORMER "Mstislav Rostropovich"
    INDEX 00 00:00:00
    INDEX 0