[古典] (Classical) Евгений Светланов - Антология русской симфонической музыки (Калинников, Скрябин) - 2009, FLAC (image+.cue) lossless

[复制链接]
全球采集 发表于 2021-9-10 16:56:52 | 显示全部楼层 |阅读模式 打印 上一主题 下一主题
Евгений Светланов - Антология русской симфонической музыки (Калинников, Скрябин)
Жанр: Classical
Страна-производитель диска: Россия
Год издания диска: 2009
Издатель (лейбл): Николаева-Светланова
Номер по каталогу: SVET 15-20/6
Дата записи: 1963-1990
Аудиокодек: FLAC
Тип рипа: image+.cue
Битрейт аудио: lossless
Продолжительность: 75:13 + 77:06 + 54:20 + 75:46 + 75:53 + 70:51
Источник: собственный рип
Наличие сканов в содержимом раздачи: нет
Треклист
Василий Калинников
CD 1
Симфония № 1 соль минор
1. Allegro moderate 14:01
2. Andante commodamente 7:25
3. Scherzo. Allegro non troppo 7:36
4. Finale. Allegro moderato 8:02
Симфония № 2 ля мажор
5. Moderato. Allegro non troppo 9:46
6. Andante cantabile 9:01
7. Allegro scherzando 7:59
8. Andante cantabile. Allegro vivo 11:26
Записи: 1975 (1); 1968 (2) гг.
CD 2
Музыка к трагедии А.К. Толстого "Царь Борис" (1898)
1. Увертюра 11:21
2. Фанфары из первого действия 1:14
3. Антракт ко второму действию 5:59
4. Антракт к третьему действию 4:06
5. Антракт к четвертому действию 7:54
6. Антракт к пятому действию 7:22
Сюита для оркестра (1891-1892)
7. Andante 10:33
8. Alegro scherzando 4:16
9. Adagio 18:44
10. Allegro moderato 5:43
Записи: 1989 (1); 1988 (2) гг.
CD 3
1. "Кедр и пальма". Симфоническая картина 12:23
2. "Былина". Увертюра 12:07
3. Интермеццо № 1 ля мажор 5:04
4. Интермеццо № 2 соль мажор 4:43
5. Серенада для струнного оркестра 9:51
6. "Нимфы". Симфоническая картина 10:12
Запись 1988 г.
Александр Скрябин
CD 4
Симфония № 1 ми мажор, ор. 26
1. Lento 7:56
2. Allegro dramatico 8:17
3. Lento 9:38
4. Vivace 3:21
5 Allegro 6:59
6. Andante 12:48
Лариса Авдеева (меццо-сопрано); Антон Григорьев (тенор); Республиканская русская хоровая капелла (художественный руководитель - Александр Юрлов)
Концерт для фортепиано с оркестром фа-диез минор, ор. 20
7. Allegro 7:23
8. Andante 8:40
9. Allegro moderate 10:49
Фортепиано - Алексей Наседкин
Записи: 1963 (1); 1990 (2) гг.
CD 5
Симфония № 2 до минор, ор. 29
1. Andante. Allegro 18:21
2. Andante 15:27
3. Tempestoso. Maestoso 14:11
6. "Поэма экстаза", ор. 54 22:06
Труба - Лев Володин
Записи: 1963 (1); 1966 (2) гг.
CD 6
Симфония № 3 до минор, op, 43 "Божественная поэма"
1. Luttes. Lento. Allegro 24:04
2. Voluptes. Lento - Jeu divin. Allegro 22:42
3. "Прометей (Поэма огня)", ор. 60 24:07
Фортепиано - Святослав Рихтер; Хор Всесоюзного радио и Центрального телевидения (художественный руководитель - Людмила Ермакова)
Записи: 1968 (1); 1988 (2) гг.
Государственный академический симфонический оркестр СССР; дирижер - Евгений Светланов.

Лог создания рипа

CD 1
Exact Audio Copy V1.0 beta 3 from 29. August 2011
Отчёт EAC об извлечении, выполненном 17. января 2014, 15:54
ГАСО СССР; Е. Светланов / В. Калинников - Симфонии №1; №2
Дисковод: PIONEER BD-RW   BDR-208D   Adapter: 3  ID: 0
Режим чтения                 : Достоверность
Использование точного потока : Да
Отключение кэша аудио        : Да
Использование указателей C2  : Нет
Коррекция смещения при чтении                     : 667
Способность читать области Lead-in и Lead-out     : Нет
Заполнение пропущенных сэмплов тишиной            : Да
Удаление блоков с тишиной в начале и конце        : Нет
При вычислениях CRC использовались нулевые сэмплы : Да
Интерфейс                                         : Встроенный Win32-интерфейс для Win NT/2000
Выходной формат          : Пользовательский кодировщик
Выбранный битрейт        : 768 kBit/s
Качество                 : Высокий
Добавление ID3-тега      : Нет
Утилита сжатия           : C:\Program Files (x86)\Exact Audio Copy\FLAC\FLAC.EXE
Дополнительные параметры : -6 -V -T "ARTIST=%artist%" -T "TITLE=%title%" -T "ALBUM=%albumtitle%" -T "DATE=%year%" -T "TRACKNUMBER=%tracknr%" -T "GENRE=%genre%" -T "COMMENT=%comment%" -T "BAND=%albuminterpret%" -T "ALBUMARTIST=%albuminterpret%" -T "COMPOSER=%composer%" %haslyrics%--tag-from-file=LYRICS="%lyricsfile%"%haslyrics% -T "DISCNUMBER=%cdnumber%" -T "TOTALDISCS=%totalcds%" -T "TOTALTRACKS=%numtracks%" %hascover%--picture="%coverfile%"%hascover% %source% -o %dest%
TOC извлечённого CD
     Трек |   Старт  | Длительность | Начальный сектор | Конечный сектор
    ---------------------------------------------------------------------
       1  |  0:00.00 |   14:01.11   |           0      |      63085
       2  | 14:01.11 |    7:24.74   |       63086      |      96459
       3  | 21:26.10 |    7:36.00   |       96460      |     130659
       4  | 29:02.10 |    8:01.64   |      130660      |     166798
       5  | 37:03.74 |    9:46.11   |      166799      |     210759
       6  | 46:50.10 |    9:01.00   |      210760      |     251334
       7  | 55:51.10 |    7:59.25   |      251335      |     287284
       8  | 63:50.35 |   11:25.70   |      287285      |     338729
Характеристики диапазона извлечения и сообщения об ошибках
Выбранный диапазон
     Имя файла C:\Users\user\Desktop\ГАСО СССР; Е. Светланов - В. Калинников - Симфонии №1; №2.wav
     Пиковый уровень 95.9 %
     Скорость извлечения 8.0 X
     Качество диапазона 100.0 %
     CRC теста CAC64FAA
     CRC копии CAC64FAA
     Копирование... OK
Ошибок не произошло
AccurateRip: сводка
Трек  1  отсутствует в базе данных
Трек  2  отсутствует в базе данных
Трек  3  отсутствует в базе данных
Трек  4  отсутствует в базе данных
Трек  5  отсутствует в базе данных
Трек  6  отсутствует в базе данных
Трек  7  отсутствует в базе данных
Трек  8  отсутствует в базе данных
Ни одного трека нет в базе AccurateRip
Конец отчёта
==== Контрольная сумма отчёта 2A63B30B5AC6BCE12A07B8BCDCB6499D95EFA9FBFF0E57FEF29FC6C01BEF4189 ====
CD 2
Exact Audio Copy V1.0 beta 3 from 29. August 2011
Отчёт EAC об извлечении, выполненном 17. января 2014, 16:18
ГАСО СССР; Е. Светланов / В. Калинников - Царь Борис; Сюита
Дисковод: PIONEER BD-RW   BDR-208D   Adapter: 3  ID: 0
Режим чтения                 : Достоверность
Использование точного потока : Да
Отключение кэша аудио        : Да
Использование указателей C2  : Нет
Коррекция смещения при чтении                     : 667
Способность читать области Lead-in и Lead-out     : Нет
Заполнение пропущенных сэмплов тишиной            : Да
Удаление блоков с тишиной в начале и конце        : Нет
При вычислениях CRC использовались нулевые сэмплы : Да
Интерфейс                                         : Встроенный Win32-интерфейс для Win NT/2000
Выходной формат          : Пользовательский кодировщик
Выбранный битрейт        : 768 kBit/s
Качество                 : Высокий
Добавление ID3-тега      : Нет
Утилита сжатия           : C:\Program Files (x86)\Exact Audio Copy\FLAC\FLAC.EXE
Дополнительные параметры : -6 -V -T "ARTIST=%artist%" -T "TITLE=%title%" -T "ALBUM=%albumtitle%" -T "DATE=%year%" -T "TRACKNUMBER=%tracknr%" -T "GENRE=%genre%" -T "COMMENT=%comment%" -T "BAND=%albuminterpret%" -T "ALBUMARTIST=%albuminterpret%" -T "COMPOSER=%composer%" %haslyrics%--tag-from-file=LYRICS="%lyricsfile%"%haslyrics% -T "DISCNUMBER=%cdnumber%" -T "TOTALDISCS=%totalcds%" -T "TOTALTRACKS=%numtracks%" %hascover%--picture="%coverfile%"%hascover% %source% -o %dest%
TOC извлечённого CD
     Трек |   Старт  | Длительность | Начальный сектор | Конечный сектор
    ---------------------------------------------------------------------
       1  |  0:00.00 |   11:20.61   |           0      |      51060
       2  | 11:20.61 |    1:14.25   |       51061      |      56635
       3  | 12:35.11 |    5:58.74   |       56636      |      83559
       4  | 18:34.10 |    4:06.01   |       83560      |     102010
       5  | 22:40.11 |    7:53.49   |      102011      |     137534
       6  | 30:33.60 |    7:22.15   |      137535      |     170699
       7  | 37:56.00 |   10:32.58   |      170700      |     218157
       8  | 48:28.58 |    4:15.57   |      218158      |     237339
       9  | 52:44.40 |   18:44.20   |      237340      |     321659
      10  | 71:28.60 |    5:42.45   |      321660      |     347354
Характеристики диапазона извлечения и сообщения об ошибках
Выбранный диапазон
     Имя файла C:\Users\user\Desktop\ГАСО СССР; Е. Светланов - В. Калинников - Царь Борис; Сюита.wav
     Пиковый уровень 96.9 %
     Скорость извлечения 8.1 X
     Качество диапазона 99.9 %
     CRC теста DFAFE3BB
     CRC копии DFAFE3BB
     Копирование... OK
Ошибок не произошло
AccurateRip: сводка
Трек  1  отсутствует в базе данных
Трек  2  отсутствует в базе данных
Трек  3  отсутствует в базе данных
Трек  4  отсутствует в базе данных
Трек  5  отсутствует в базе данных
Трек  6  отсутствует в базе данных
Трек  7  отсутствует в базе данных
Трек  8  отсутствует в базе данных
Трек  9  отсутствует в базе данных
Трек 10  отсутствует в базе данных
Ни одного трека нет в базе AccurateRip
Конец отчёта
==== Контрольная сумма отчёта A7C0649BD18A10760D0F29FE01C03970E3BB4A1AAB8F914F5BDB19B8606FAA1B ====
CD 3
Exact Audio Copy V1.0 beta 3 from 29. August 2011
Отчёт EAC об извлечении, выполненном 17. января 2014, 16:36
ГАСО СССР; Е. Светланов / В. Калинников - Кедр и пальма; Былина; Интермеццо; Серенада; Нимфы
Дисковод: PIONEER BD-RW   BDR-208D   Adapter: 3  ID: 0
Режим чтения                 : Достоверность
Использование точного потока : Да
Отключение кэша аудио        : Да
Использование указателей C2  : Нет
Коррекция смещения при чтении                     : 667
Способность читать области Lead-in и Lead-out     : Нет
Заполнение пропущенных сэмплов тишиной            : Да
Удаление блоков с тишиной в начале и конце        : Нет
При вычислениях CRC использовались нулевые сэмплы : Да
Интерфейс                                         : Встроенный Win32-интерфейс для Win NT/2000
Выходной формат          : Пользовательский кодировщик
Выбранный битрейт        : 768 kBit/s
Качество                 : Высокий
Добавление ID3-тега      : Нет
Утилита сжатия           : C:\Program Files (x86)\Exact Audio Copy\FLAC\FLAC.EXE
Дополнительные параметры : -6 -V -T "ARTIST=%artist%" -T "TITLE=%title%" -T "ALBUM=%albumtitle%" -T "DATE=%year%" -T "TRACKNUMBER=%tracknr%" -T "GENRE=%genre%" -T "COMMENT=%comment%" -T "BAND=%albuminterpret%" -T "ALBUMARTIST=%albuminterpret%" -T "COMPOSER=%composer%" %haslyrics%--tag-from-file=LYRICS="%lyricsfile%"%haslyrics% -T "DISCNUMBER=%cdnumber%" -T "TOTALDISCS=%totalcds%" -T "TOTALTRACKS=%numtracks%" %hascover%--picture="%coverfile%"%hascover% %source% -o %dest%
TOC извлечённого CD
     Трек |   Старт  | Длительность | Начальный сектор | Конечный сектор
    ---------------------------------------------------------------------
       1  |  0:00.00 |   12:23.00   |           0      |      55724
       2  | 12:23.00 |   12:07.00   |       55725      |     110249
       3  | 24:30.00 |    5:04.00   |      110250      |     133049
       4  | 29:34.00 |    4:43.00   |      133050      |     154274
       5  | 34:17.00 |    9:51.00   |      154275      |     198599
       6  | 44:08.00 |   10:12.30   |      198600      |     244529
Характеристики диапазона извлечения и сообщения об ошибках
Выбранный диапазон
     Имя файла C:\Users\user\Desktop\ГАСО СССР; Е. Светланов - В. Калинников - Кедр и пальма; Былина; Интермеццо; Серенада; Нимфы.wav
     Пиковый уровень 96.4 %
     Скорость извлечения 7.4 X
     Качество диапазона 100.0 %
     CRC теста CDB87EAB
     CRC копии CDB87EAB
     Копирование... OK
Ошибок не произошло
AccurateRip: сводка
Трек  1  отсутствует в базе данных
Трек  2  отсутствует в базе данных
Трек  3  отсутствует в базе данных
Трек  4  отсутствует в базе данных
Трек  5  отсутствует в базе данных
Трек  6  отсутствует в базе данных
Ни одного трека нет в базе AccurateRip
Конец отчёта
==== Контрольная сумма отчёта 45D5D724827F17B3AA711D42C907B42B8964E7DDC922DBF8FF64BB2C22515D25 ====
CD 4
Exact Audio Copy V1.0 beta 3 from 29. August 2011
Отчёт EAC об извлечении, выполненном 17. января 2014, 19:14
ГАСО СССР; Е. Светланов / А. Скрябин - Симфония №1; Фортепианный концерт
Дисковод: PIONEER BD-RW   BDR-208D   Adapter: 3  ID: 0
Режим чтения                 : Достоверность
Использование точного потока : Да
Отключение кэша аудио        : Да
Использование указателей C2  : Нет
Коррекция смещения при чтении                     : 667
Способность читать области Lead-in и Lead-out     : Нет
Заполнение пропущенных сэмплов тишиной            : Да
Удаление блоков с тишиной в начале и конце        : Нет
При вычислениях CRC использовались нулевые сэмплы : Да
Интерфейс                                         : Встроенный Win32-интерфейс для Win NT/2000
Выходной формат          : Пользовательский кодировщик
Выбранный битрейт        : 768 kBit/s
Качество                 : Высокий
Добавление ID3-тега      : Нет
Утилита сжатия           : C:\Program Files (x86)\Exact Audio Copy\FLAC\FLAC.EXE
Дополнительные параметры : -6 -V -T "ARTIST=%artist%" -T "TITLE=%title%" -T "ALBUM=%albumtitle%" -T "DATE=%year%" -T "TRACKNUMBER=%tracknr%" -T "GENRE=%genre%" -T "COMMENT=%comment%" -T "BAND=%albuminterpret%" -T "ALBUMARTIST=%albuminterpret%" -T "COMPOSER=%composer%" %haslyrics%--tag-from-file=LYRICS="%lyricsfile%"%haslyrics% -T "DISCNUMBER=%cdnumber%" -T "TOTALDISCS=%totalcds%" -T "TOTALTRACKS=%numtracks%" %hascover%--picture="%coverfile%"%hascover% %source% -o %dest%
TOC извлечённого CD
     Трек |   Старт  | Длительность | Начальный сектор | Конечный сектор
    ---------------------------------------------------------------------
       1  |  0:00.00 |    7:55.50   |           0      |      35674
       2  |  7:55.50 |    8:16.50   |       35675      |      72924
       3  | 16:12.25 |    9:38.00   |       72925      |     116274
       4  | 25:50.25 |    3:20.50   |      116275      |     131324
       5  | 29:11.00 |    6:59.25   |      131325      |     162774
       6  | 36:10.25 |   12:47.50   |      162775      |     220349
       7  | 48:58.00 |    7:23.00   |      220350      |     253574
       8  | 56:21.00 |    8:40.00   |      253575      |     292574
       9  | 65:01.00 |   10:48.67   |      292575      |     341241
Характеристики диапазона извлечения и сообщения об ошибках
Выбранный диапазон
     Имя файла C:\Users\user\Desktop\ГАСО СССР; Е. Светланов - А. Скрябин - Симфония №1; Фортепианный концерт.wav
     Пиковый уровень 94.3 %
     Скорость извлечения 8.1 X
     Качество диапазона 100.0 %
     CRC теста FAB9016B
     CRC копии FAB9016B
     Копирование... OK
Ошибок не произошло
AccurateRip: сводка
Трек  1  отсутствует в базе данных
Трек  2  отсутствует в базе данных
Трек  3  отсутствует в базе данных
Трек  4  отсутствует в базе данных
Трек  5  отсутствует в базе данных
Трек  6  отсутствует в базе данных
Трек  7  отсутствует в базе данных
Трек  8  отсутствует в базе данных
Трек  9  отсутствует в базе данных
Ни одного трека нет в базе AccurateRip
Конец отчёта
==== Контрольная сумма отчёта 13136941072C81CD22E84B2440CEBCBC80780AAB855F32410FF53933329FA4E2 ====
CD 5
Exact Audio Copy V1.0 beta 3 from 29. August 2011
Отчёт EAC об извлечении, выполненном 17. января 2014, 19:39
ГАСО СССР; Е. Светланов / А. Скрябин - Симфония №2; Поэма экстаза
Дисковод: PIONEER BD-RW   BDR-208D   Adapter: 3  ID: 0
Режим чтения                 : Достоверность
Использование точного потока : Да
Отключение кэша аудио        : Да
Использование указателей C2  : Нет
Коррекция смещения при чтении                     : 667
Способность читать области Lead-in и Lead-out     : Нет
Заполнение пропущенных сэмплов тишиной            : Да
Удаление блоков с тишиной в начале и конце        : Нет
При вычислениях CRC использовались нулевые сэмплы : Да
Интерфейс                                         : Встроенный Win32-интерфейс для Win NT/2000
Выходной формат          : Пользовательский кодировщик
Выбранный битрейт        : 768 kBit/s
Качество                 : Высокий
Добавление ID3-тега      : Нет
Утилита сжатия           : C:\Program Files (x86)\Exact Audio Copy\FLAC\FLAC.EXE
Дополнительные параметры : -6 -V -T "ARTIST=%artist%" -T "TITLE=%title%" -T "ALBUM=%albumtitle%" -T "DATE=%year%" -T "TRACKNUMBER=%tracknr%" -T "GENRE=%genre%" -T "COMMENT=%comment%" -T "BAND=%albuminterpret%" -T "ALBUMARTIST=%albuminterpret%" -T "COMPOSER=%composer%" %haslyrics%--tag-from-file=LYRICS="%lyricsfile%"%haslyrics% -T "DISCNUMBER=%cdnumber%" -T "TOTALDISCS=%totalcds%" -T "TOTALTRACKS=%numtracks%" %hascover%--picture="%coverfile%"%hascover% %source% -o %dest%
TOC извлечённого CD
     Трек |   Старт  | Длительность | Начальный сектор | Конечный сектор
    ---------------------------------------------------------------------
       1  |  0:00.00 |   18:20.38   |           0      |      82537
       2  | 18:20.38 |   15:27.10   |       82538      |     152072
       3  | 33:47.48 |   14:11.27   |      152073      |     215924
       4  | 47:59.00 |   22:05.67   |      215925      |     315366
Характеристики диапазона извлечения и сообщения об ошибках
Выбранный диапазон
     Имя файла C:\Users\user\Desktop\ГАСО СССР; Е. Светланов - А. Скрябин - Симфония №2; Поэма экстаза.wav
     Пиковый уровень 96.0 %
     Скорость извлечения 7.9 X
     Качество диапазона 100.0 %
     CRC теста 06769958
     CRC копии 06769958
     Копирование... OK
Ошибок не произошло
AccurateRip: сводка
Трек  1  отсутствует в базе данных
Трек  2  отсутствует в базе данных
Трек  3  отсутствует в базе данных
Трек  4  отсутствует в базе данных
Ни одного трека нет в базе AccurateRip
Конец отчёта
==== Контрольная сумма отчёта 5B43D2C01A6EBD311515DD437D58E67E85A28F34B42FF19D1451B38D962AF628 ====
CD 6
Exact Audio Copy V1.0 beta 3 from 29. August 2011
Отчёт EAC об извлечении, выполненном 17. января 2014, 19:59
ГАСО СССР; Е. Светланов / А. Скрябин - Симфония №3; Прометей
Дисковод: PIONEER BD-RW   BDR-208D   Adapter: 3  ID: 0
Режим чтения                 : Достоверность
Использование точного потока : Да
Отключение кэша аудио        : Да
Использование указателей C2  : Нет
Коррекция смещения при чтении                     : 667
Способность читать области Lead-in и Lead-out     : Нет
Заполнение пропущенных сэмплов тишиной            : Да
Удаление блоков с тишиной в начале и конце        : Нет
При вычислениях CRC использовались нулевые сэмплы : Да
Интерфейс                                         : Встроенный Win32-интерфейс для Win NT/2000
Выходной формат          : Пользовательский кодировщик
Выбранный битрейт        : 768 kBit/s
Качество                 : Высокий
Добавление ID3-тега      : Нет
Утилита сжатия           : C:\Program Files (x86)\Exact Audio Copy\FLAC\FLAC.EXE
Дополнительные параметры : -6 -V -T "ARTIST=%artist%" -T "TITLE=%title%" -T "ALBUM=%albumtitle%" -T "DATE=%year%" -T "TRACKNUMBER=%tracknr%" -T "GENRE=%genre%" -T "COMMENT=%comment%" -T "BAND=%albuminterpret%" -T "ALBUMARTIST=%albuminterpret%" -T "COMPOSER=%composer%" %haslyrics%--tag-from-file=LYRICS="%lyricsfile%"%haslyrics% -T "DISCNUMBER=%cdnumber%" -T "TOTALDISCS=%totalcds%" -T "TOTALTRACKS=%numtracks%" %hascover%--picture="%coverfile%"%hascover% %source% -o %dest%
TOC извлечённого CD
     Трек |   Старт  | Длительность | Начальный сектор | Конечный сектор
    ---------------------------------------------------------------------
       1  |  0:00.00 |   24:03.47   |           0      |     108271
       2  | 24:03.47 |   22:42.28   |      108272      |     210449
       3  | 46:46.00 |   24:06.67   |      210450      |     318966
Характеристики диапазона извлечения и сообщения об ошибках
Выбранный диапазон
     Имя файла C:\Users\user\Desktop\ГАСО СССР; Е. Светланов - А. Скрябин - Симфония №3; Прометей.wav
     Пиковый уровень 95.2 %
     Скорость извлечения 7.9 X
     Качество диапазона 100.0 %
     CRC теста EAEA06B6
     CRC копии EAEA06B6
     Копирование... OK
Ошибок не произошло
AccurateRip: сводка
Трек  1  отсутствует в базе данных
Трек  2  отсутствует в базе данных
Трек  3  отсутствует в базе данных
Ни одного трека нет в базе AccurateRip
Конец отчёта
==== Контрольная сумма отчёта 3600FF5E190E9C476E34D78F0C7C130120B4C217BED8FBA438DF5237E162A0D9 ====


Антология русской симфонической музыки Евгения Светланова на Rutracker.org (lossless)
Предлагаю вашему вниманию список записей (lossless) из Антологии русской симфонической музыки, которые можно скачать на Rutracker.org. Эту Антологию Евгений Федорович Светланов создавал на протяжении более тридцати лет. Конечно, на трекере есть не всё из Антологии, но есть многое - и это не может не радовать. Ссылки в списке даются только на одну раздачу, где можно скачать те или иные произведения (за теми исключениями, когда в списке указаны разные годы записей, или когда в разных раздачах встречаются повторы).
Антон Степанович Аренский (1861-1906)
Вариации на тему П.И. Чайковского для струнного оркестра
Вступление к опере «Наль и Дамаянти»
Вступление к опере «Рафаэль»
Интермеццо для струнного оркестра
Марш для оркестра «Памяти Суворова»
Симфония №1
Симфония №2
Сюита из балета «Египетские ночи»
Сюита для оркестра №1
Сюита для оркестра №2 «Силуэты»
Сюита для оркестра №3
Увертюра к опере «Сон на Волге»
Фантазия для оркестра «Маргарита Готье»
Фантазия на тему Рябинина для фортепиано с оркестром
Милий Алексеевич Балакирев (1837-1910)
Восточная фантазия для оркестра «Исламей»
Музыка к трагедии У. Шекспира «Король Лир»
Симфоническая поэма «В Чехии»
Симфоническая поэма «Русь»
Симфоническая поэма «Тамара»
Симфония №1
Симфония №2
Сюита для оркестра h-moll
Сюита для оркестра из четырех пьес Шопена
Увертюра на тему испанского марша
Увертюра на темы трех русских песен для оркестра
Александр Порфирьевич Бородин (1833-1887)
Маленькая сюита для оркестра
Музыкальная картина для оркестра «В средней Азии»
Симфония №1
Симфония №2 «Богатырская»
Симфония №3
Увертюра к опере «Князь Игорь»
Александр Константинович Глазунов (1865-1936)
Балетная сюита для оркестра
Концертный вальс №1
Концертный вальс №2
Лирическая поэма для оркестра
Мазурка для оркестра
Симфоническая поэма «Стенька Разин»
Симфоническая фантазия «Море»
Симфония №1
Симфония №2
Симфония №3
Симфония №4
Симфония №5
Симфония №6
Симфония №7
Симфония №8
Сюита для оркестра «Шопениана»
Тема с вариациями для струнного оркестра
Триумфальный марш для оркестра
Увертюра на греческие темы №1 для оркестра
Увертюра на греческие темы №2 для оркестра
Фантазия для оркестра «От мрака к свету»
Финская фантазия для оркестра
Характеристическая сюита для оркестра
Михаил Иванович Глинка (1804-1857)
Andante cantabile и рондо для оркестра
«Арагонская хота» для оркестра
Вальс-фантазия для оркестра
«Воспоминание о летней ночи в Мадриде» для оркестра
«Молитва» (на слова М. Лермонтова) для солиста, хора и оркестра
Музыка к трагедии Н. Кукольника «Князь Холмский»
Ноктюрн для оркестра «Память дружбы»
Оркестровые фрагменты из оперы «Жизнь за царя» («Иван Сусанин»)
Оркестровые фрагменты из оперы «Руслан и Людмила»
«Патриотическая песнь» для оркестра
Первоначальная полька для оркестра
Симфония на две русские темы
Увертюра для оркестра D-dur
Увертюра для оркестра g-moll
Фантазия для оркестра «Камаринская»
Александр Сергеевич Даргомыжский (1813-1869)
Болеро для оркестра
Опера «Русалка»
Фантазия для оркестра «Казачок»
«Чухонская фантазия» для оркестра
Шутка-фантазия для оркестра «Баба-Яга»
Василий Сергеевич Калинников (1866-1900)
Интермеццо для оркестра №1
Интермеццо для оркестра №2
Музыка к трагедии А.К. Толстого «Царь Борис» для оркестра
Серенада для струнного оркестра
Симфоническая картина «Кедр и пальма»
Симфоническая картина «Нимфы»
Симфония №1
Симфония №2
Сюита для оркестра
Увертюра для оркестра «Былина»
Анатолий Константинович Лядов (1855-1914)
Баллада для оркестра «Про старину»
Восемь русских народных песен для оркестра
Картинка к русской народной сказке «Баба Яга» для оркестра
Народное сказание для оркестра «Кикимора»
Пьеса для оркестра «Музыкальная табакерка»
Симфоническая картина «Из Апокалипсиса»
Сказочная картинка для оркестра «Волшебное озеро»
Сергей Михайлович Ляпунов (1859-1924)
Восточная симфоническая поэма «Гашиш»
Симфоническая поэма «Желязова Воля»
Симфония №1
Симфония №2
Торжественная увертюра на русские темы для оркестра
Николай Карлович Метнер (1880-1951)
Соната для скрипки и фортепиано №1
Соната для скрипки и фортепиано №2
Соната для скрипки и фортепиано №3
Фортепианный квинтет
Фортепианный концерт №1
Фортепианный концерт №2
Модест Петрович Мусоргский (1839-1881)
«Иисус Навин» (на текст из Библии) для хора и оркестра
Интермеццо для оркестра
Оркестровые фрагменты из оперы «Борис Годунов»
Оркестровые фрагменты из оперы «Сорочинская ярмарка»
Оркестровые фрагменты из оперы «Ховащина»
«Поражение Сеннахериба» (на слова Байрона) для хора и оркестра
Скерцо для оркестра
Торжественный марш для оркестра «Взятие Карса»
Фантазия для оркестра «Ночь на Лысой горе»
Цикл для оркестра «Картинки с выставки»
Цикл для солиста и оркестра «Без солнца» (на слова А. Голенищева-Кутузова)
Цикл для солиста и оркестра «Песни и пляски смерти» (на слова А. Голенищева-Кутузова)
Николай Яковлевич Мясковский (1881-1950)
Дивертисмент для оркестра
«Лирическое концертино» для оркестра
«Патетическая увертюра» для оркестра
«Приветственная увертюра» для оркестра
Серенада для оркестра
Симфониетта №1
Симфониетта №2
Симфониетта №3
Симфония №1
Симфония №2
Симфония №3
Симфония №4
Симфония №5
Симфония №6
Симфония №7
Симфония №8
Симфония №9
Симфония №10
Симфония №11
Симфония №12
Симфония №13
Симфония №14
Симфония №15
Симфония №16
Симфония №17
Симфония №18
Симфония №19
Симфония №20
Симфония №21
Симфония №22
Симфония №23
Симфония №24
Симфония №25
Симфония №26
Симфония №27
Симфоническая поэма «Аластор»
Симфоническая притча «Молчание»
«Славянская рапсодия» для оркестра
Сюита для оркестра «Звенья»
Эдуард Францевич Направник (1839-1916)
«Интермеццо ночи» из оперы «Дубровский» для оркестра
Пьеса для оркестра «Меланхолия»
Сергей Сергеевич Прокофьев (1891-1953)
«Здравица» для хора и оркестра (слова народные)
Кантата «Александр Невский» (на слова В. Луговского)
Симфония №1
Фортепианный концерт №5
Сергей Васильевич Рахманинов (1873-1943)
Вокализ для оркестра (запись 1973 г.)
Вокализ для оркестра (запись 1995 г.)
Кантата «Весна» (на слова Н. Некрасова)
Каприччио на цыганские темы для оркестра (запись 1973 г.)
Каприччио на цыганские темы для оркестра (запись 1995 г.)
Оркестровые фрагменты из оперы «Алеко»
Поэма для солистов, хора и оркестра «Колокола» (на слова Э. По)
Симфоническая поэма «Князь Ростислав» (запись 1973 г.)
Симфоническая поэма «Князь Ростислав» (запись 1995 г.)
Симфоническая поэма «Остров мертвых» (запись 1973 г.)
Симфоническая поэма «Остров мертвых» (запись 1995 г.)
Симфонические танцы (запись 1986 г.)
Симфонические танцы (запись 1995 г.)
Симфония №1 (запись 1966 г.)
Симфония №1 (запись 1995 г.)
Симфония №2 (запись 1968 г.)
Симфония №2 (запись 1995 г.)
Симфония №3 (запись 1968 г.)
Симфония №3 (запись 1995 г.)
Скерцо для оркестра (запись 1973 г.)
Скерцо для оркестра (запись 1995 г.)
Фантазия для оркестра «Утес» (запись 1973 г.)
Фантазия для оркестра «Утес» (запись 1995 г.)
Шесть хоров для женских голосов и фортепиано (на слова русских поэтов)
Николай Андреевич Римский-Корсаков (1844-1908)
Опера-балет «Млада»
Опера «Сказание о невидимом граде Китеже и деве Февронии»
Опера «Царская невеста»
Оркестровые фрагменты из оперы «Боярыня Вера Шелога»
Оркестровые фрагменты из оперы «Золотой петушок»
Оркестровые фрагменты из оперы «Майская ночь»
Оркестровые фрагменты из оперы «Млада»
Оркестровые фрагменты из оперы «Пан воевода»
Оркестровые фрагменты из оперы «Псковитянка»
Оркестровые фрагменты из оперы «Садко»
Оркестровые фрагменты из оперы «Сказание о невидимом граде Китеже»
Оркестровые фрагменты из оперы «Сказка о царе Салтане»
Оркестровые фрагменты из оперы «Снегурочка»
Оркестровые фрагменты из оперы «Царская невеста»
Прелюдия-кантата «Из Гомера»
Пьеса для оркестра «Дубинушка»
Симфониетта на русские темы
Симфония №1
Симфония №2 «Антар»
Симфония №3
Сюита для оркестра «Каприччио на испанские темы»
Сюита для оркестра «Шахерезада»
Увертюра для оркестра «Светлый праздник»
Увертюра на русские темы для оркестра
Александр Николаевич Скрябин (1872-1915)
«Поэма экстаза» для оркестра (запись 1966 г.)
«Поэма экстаза» для оркестра (запись 1996 г.)
Прелюдия для оркестра «Мечты»
«Прометей. Поэма огня» для фортепиано с оркестром (запись 1988 г.)
«Прометей. Поэма огня» для фортепиано с оркестром (запись 1996 г.)
Симфония №1 (запись 1963 г.)
Симфония №1 (запись 1996 г.)
Симфония №2 (запись 1963 г.)
Симфония №2 (запись 1996 г.)
Симфония №3 «Божественная поэма» (запись 1968 г.)
Симфония №3 «Божественная поэма» (запись 1996 г.)
Фортепианный концерт
Игорь Федорович Стравинский (1882-1971)
Балет «Весна священная»
Балет «Игра в карты»
Балет «Петрушка»
Балет «Поцелуй феи»
Симфония псалмов
Сергей Иванович Танеев (1856-1915)
Концертная сюита для скрипки с оркестром
Симфонический антракт «Храм Аполлона в Дельфах» из оперы «Орестея»
Симфония №4
Пётр Ильич Чайковский (1840-1893)
Andante Cantabile для оркестра
Балет «Лебединое озеро»
Балет «Спящая красавица»
Балет «Щелкунчик»
«Итальянское каприччио» для оркестра (запись 1970 г.)
«Итальянское каприччио» для оркестра (запись 1992 г.)
Концертная увертюра для оркестра
Оркестровые фрагменты из оперы «Воевода»
Оркестровые фрагменты из оперы «Евгений Онегин»
Оркестровые фрагменты из оперы «Иоланта»
Оркестровые фрагменты из оперы «Мазепа»
Оркестровые фрагменты из оперы «Опричник»
Оркестровые фрагменты из оперы «Орлеанская дева»
Оркестровые фрагменты из оперы «Пиковая дама»
Оркестровые фрагменты из оперы «Чародейка»
Оркестровые фрагменты из оперы «Черевички»
Серенада для струнного оркестра (запись 1970 г.)
Серенада для струнного оркестра (запись 1992 г.)
Симфоническая баллада «Воевода» (запись 1987 г.)
Симфоническая баллада «Воевода» (запись 1996 г.)
Симфоническая картина «Буря» (запись 1970 г.)
Симфоническая картина «Буря» (запись 1996 г.)
Симфоническая поэма «Франческа да Римини»
Симфоническая фантазия «Фатум» (запись 1970 г.)
Симфоническая фантазия «Фатум» (запись 1996 г.)
Симфония №1 «Зимние грезы»
Симфония №2 «Малороссийская» (запись 1967 г.)
Симфония №2 «Малороссийская» (запись 1990 г.)
Симфония №3 (запись 1967 г.)
Симфония №3 (запись 1990 г.)
Симфония №4 (запись 1967 г.)
Симфония №4 (запись 1990 г.)
Симфония №5 (запись 1967 г.)
Симфония №5 (запись 1990 г.)
Симфония №6 "Патетическая" (запись 1967 г.)
Симфония №6 "Патетическая" (запись 1990 г.)
Симфония «Манфред» (запись 1967 г.)
Симфония «Манфред» (запись 1992 г.)
«Славянский марш» для оркестра
Сюита для оркестра №2
Сюита для оркестра №3
Сюита для оркестра №4 «Моцартиана»
Сюита из балета «Лебединое озеро»
Сюита из балета «Щелкунчик»
Торжественная увертюра для оркестра «1812 год»
Торжественная увертюра на датский гимн для оркестра
Торжественный коронационный марш для оркестра
Увертюра-фантазия «Гамлет» (запись 1970 г.)
Увертюра-фантазия «Гамлет» (1996 г.)
Увертюра-фантазия для оркестра «Ромео и Джульетта» (запись 1970 г.)
Увертюра-фантазия для оркестра «Ромео и Джульетта» (запись 1993 г.)
Фортепианный концерт №1
Фортепианный концерт №3
Цикл для оркестра «Времена года»
Дмитрий Дмитриевич Шостакович (1906-1975)
Концерт для скрипки с оркестром №1
Концерт для скрипки с оркестром №2
Симфония №1
Симфония №7 (запись 1968 г.)
Симфония №7 (запись 1978 г.)
Симфония №8
Вальсы и полонезы русских композиторов
Группа, посвященная Е.Ф. Светланову
                                                                                       
                       
                       
                       
                       
                       
                                磁力下载(论坛代下载服务)::
                                                               
                                       
付费主题

已有0人支付


                                               
  • 1.85 GB
  • 温馨提示

    记得善用社区搜索功能,那里可能会有你想要的资源;论坛站内搜索

    如果你有什么需要的资源可以去资源求档发帖,求助社区的网友,我们会在第一时间给你回复哦;资源求档

    对于本社区网盘链接失效密码错误各种报错请在反馈板块反馈报错发帖,您的支持,是我们发展的最大动力;投诉建议

    回复

    使用道具 举报

    您需要登录后才可以回帖 登录 | 立即注册 微信登录

    本版积分规则

    关注0

    粉丝19

    帖子87653

    发布主题
    阅读排行更多+
    关闭

    站长推荐上一条 /1 下一条

    活动提示

    赞助永久VIP会员送3T硬盘一块 限时活动

    地址:立刻参加

    我知道了
    收藏帖子 返回列表 这是一个自定义按钮
    音乐分享,音乐下载。
    微信公众号
    微信号:hires_
    意见反馈:admin@maomicd.com

    加入我们的官方QQ群和微信群

    Powered by Discuz! X3.4 Archiver|手机版|小黑屋|捌零音乐论坛 ( 苏ICP备20015413号 )|( 苏公网安备 32030502000272号) 繁體

    GMT+8, 2021-9-24 04:53