[古典] (Classical, Symphony) [CD] Bruckner - Symphony No. 7 in E major, WAB 107 (Orchestre des Champs-Elysees, Philippe Herreweghe) - 2004, FLAC (image+.cue) lossless

[复制链接]
韬199435 发表于 2021-9-10 16:56:52 | 显示全部楼层 |阅读模式 打印 上一主题 下一主题
Bruckner - Symphony No. 7 (Orchestre des Champs-Elysees, Philippe Herreweghe)
Жанр: Classical symphony
Носитель: CD
Страна-производитель диска: Made in Germany
Год издания диска: 2004
Издатель (лейбл): Harmonia Mundi France
Номер по каталогу: HMC 901857
Дата записи: 2004
Аудиокодек: FLAC
Тип рипа: image+.cue
Битрейт аудио: lossless
Продолжительность: 59:52
Источник: релизер
сайт-источник/ник/другое: tubarec, подарок; Caterina Sforza - доп. сканы
Наличие сканов в содержимом раздачи: да, полный авторский буклет pdf, 35 стр.
Треклист:
1 Allegro Moderato
2 Adagio. Sehr Feierlich Und Sehr Langsam
3 Scherzo. Sehr Schnell
4 Finale. Bewegt, doch nicht schnell
Исполнители:
Anton Bruckner (1824-1896)
Symphony No. 7 in E major, WAB 107
Orchestre des Champs-Élysées
Philippe Herreweghe, dir.
Release Date: November 9, 2004
Лог создания рипа

Exact Audio Copy V1.6 from 23. October 2020
EAC extraction logfile from 9. August 2021, 1:17
Philippe Herreweghe, Orchestre des Champs-Elysees / Bruckner: Symphony No. 7
Used drive  : ATAPI   iHAS122   F   Adapter: 1  ID: 0
Read mode               : Secure
Utilize accurate stream : Yes
Defeat audio cache      : Yes
Make use of C2 pointers : No
Read offset correction                      : 6
Overread into Lead-In and Lead-Out          : No
Fill up missing offset samples with silence : Yes
Delete leading and trailing silent blocks   : No
Null samples used in CRC calculations       : Yes
Used interface                              : Native Win32 interface for Win NT & 2000
Used output format              : User Defined Encoder
Selected bitrate                : 768 kBit/s
Quality                         : High
Add ID3 tag                     : No
Command line compressor         : C:\Program Files (x86)\Exact Audio Copy\FLAC\FLAC.EXE
Additional command line options : -6 -V -T "ARTIST=%artist%" -T "TITLE=%title%" -T "ALBUM=%albumtitle%" -T "DATE=%year%" -T "TRACKNUMBER=%tracknr%" -T "GENRE=%genre%" -T "COMMENT=%comment%" -T "BAND=%albuminterpret%" -T "ALBUMARTIST=%albuminterpret%" -T "COMPOSER=%composer%" %haslyrics%--tag-from-file=LYRICS="%lyricsfile%"%haslyrics% -T "DISCNUMBER=%cdnumber%" -T "TOTALDISCS=%totalcds%" -T "TOTALTRACKS=%numtracks%" %hascover%--picture="%coverfile%"%hascover% %source% -o %dest%
TOC of the extracted CD
     Track |   Start  |  Length  | Start sector | End sector
    ---------------------------------------------------------
        1  |  0:00.00 | 18:21.00 |         0    |    82574
        2  | 18:21.00 | 20:23.05 |     82575    |   174304
        3  | 38:44.05 |  9:17.09 |    174305    |   216088
        4  | 48:01.14 | 11:51.47 |    216089    |   269460
Range status and errors
Selected range
     Filename K:\Tubarec rips\Bruckner - Philippe Herreweghe, Orchestre des Champs-Elysees - Symphony No. 7\Philippe Herreweghe, Orchestre des Champs-Elysees - Bruckner- Symphony No. 7.wav
     Peak level 100.0 %
     Extraction speed 8.0 X
     Range quality 100.0 %
     Test CRC CF12F73E
     Copy CRC CF12F73E
     Copy OK
No errors occurred
AccurateRip summary
Track  1  accurately ripped (confidence 18)  [4AF4EE18]  (AR v2)
Track  2  accurately ripped (confidence 18)  [626F9C65]  (AR v2)
Track  3  accurately ripped (confidence 18)  [E6680CB0]  (AR v2)
Track  4  accurately ripped (confidence 18)  [5FFA39E0]  (AR v2)
All tracks accurately ripped
End of status report
---- CUETools DB Plugin V2.1.6
[CTDB TOCID: 78VrwypUhGgYAuUDJ.40Xl65EWs-] found
Submit result: 78VrwypUhGgYAuUDJ.40Xl65EWs- has been confirmed
Track | CTDB Status
  1   | (68/71) Accurately ripped
  2   | (70/71) Accurately ripped
  3   | (70/71) Accurately ripped
  4   | (66/71) Accurately ripped
==== Log checksum 0F824E1F9506854B00170C75905F7E140D2D675F98D18D03A934924E43FF3C12 ====
------------------------------------------------------------
Exact Audio Copy V1.6 from 23. October 2020
EAC extraction logfile from 9. August 2021, 1:18
Philippe Herreweghe, Orchestre des Champs-Elysees / Bruckner: Symphony No. 7
Used drive  : ATAPI   iHAS122   F   Adapter: 1  ID: 0
Read mode               : Secure
Utilize accurate stream : Yes
Defeat audio cache      : Yes
Make use of C2 pointers : No
Read offset correction                      : 6
Overread into Lead-In and Lead-Out          : No
Fill up missing offset samples with silence : Yes
Delete leading and trailing silent blocks   : No
Null samples used in CRC calculations       : Yes
Used interface                              : Native Win32 interface for Win NT & 2000
Used output format              : User Defined Encoder
Selected bitrate                : 768 kBit/s
Quality                         : High
Add ID3 tag                     : No
Command line compressor         : C:\Program Files (x86)\Exact Audio Copy\FLAC\FLAC.EXE
Additional command line options : -6 -V -T "ARTIST=%artist%" -T "TITLE=%title%" -T "ALBUM=%albumtitle%" -T "DATE=%year%" -T "TRACKNUMBER=%tracknr%" -T "GENRE=%genre%" -T "COMMENT=%comment%" -T "BAND=%albuminterpret%" -T "ALBUMARTIST=%albuminterpret%" -T "COMPOSER=%composer%" %haslyrics%--tag-from-file=LYRICS="%lyricsfile%"%haslyrics% -T "DISCNUMBER=%cdnumber%" -T "TOTALDISCS=%totalcds%" -T "TOTALTRACKS=%numtracks%" %hascover%--picture="%coverfile%"%hascover% %source% -o %dest%
TOC of the extracted CD
     Track |   Start  |  Length  | Start sector | End sector
    ---------------------------------------------------------
        1  |  0:00.00 | 18:21.00 |         0    |    82574
        2  | 18:21.00 | 20:23.05 |     82575    |   174304
        3  | 38:44.05 |  9:17.09 |    174305    |   216088
        4  | 48:01.14 | 11:51.47 |    216089    |   269460
Range status and errors
Selected range
     Filename K:\Tubarec rips\Bruckner - Philippe Herreweghe, Orchestre des Champs-Elysees - Symphony No. 7\Philippe Herreweghe, Orchestre des Champs-Elysees - Bruckner- Symphony No. 7.wav
     Peak level 100.0 %
     Extraction speed 8.0 X
     Range quality 100.0 %
     Test CRC CF12F73E
     Copy CRC CF12F73E
     Copy OK
No errors occurred
AccurateRip summary
Track  1  accurately ripped (confidence 18)  [4AF4EE18]  (AR v2)
Track  2  accurately ripped (confidence 18)  [626F9C65]  (AR v2)
Track  3  accurately ripped (confidence 18)  [E6680CB0]  (AR v2)
Track  4  accurately ripped (confidence 18)  [5FFA39E0]  (AR v2)
All tracks accurately ripped
End of status report
---- CUETools DB Plugin V2.1.6
[CTDB TOCID: 78VrwypUhGgYAuUDJ.40Xl65EWs-] found
Submit result: 78VrwypUhGgYAuUDJ.40Xl65EWs- has been confirmed
Track | CTDB Status
  1   | (68/71) Accurately ripped
  2   | (70/71) Accurately ripped
  3   | (70/71) Accurately ripped
  4   | (66/71) Accurately ripped
==== Log checksum 2ABA7356E658554CA62657492420B259B87FDAA95A7C2BCE00E4C3F528A8D3CC ====


Содержание индексной карты (.CUE)

REM GENRE Symphony
REM DATE 2004
REM DISCID 290E0804
REM COMMENT "ExactAudioCopy v1.6"
PERFORMER Orchestre des Champs-Élysées, Philippe Herreweghe (dir.)"
TITLE "Bruckner: Symphony No. 7"
REM COMPOSER "Anton Bruckner (1824-1896)"
FILE "Orchestre des Champs-Élysées, Philippe Herreweghe - Bruckner - Symphony No. 7.flac" WAVE
  TRACK 01 AUDIO
    TITLE "Symphony No. 7 in E major, WAB 107 - I. Allegro moderato"
    PERFORMER "Orchestre des Champs-Élysées, Philippe Herreweghe"
    REM COMPOSER "A. Bruckner"
    ISRC FRZ140410010
    INDEX 01 00:00:00
  TRACK 02 AUDIO
    TITLE "Symphony No. 7 in E major - II. Adagio. Sehr feierlich und sehr langsam"
    PERFORMER "Orchestre des Champs-Élysées, Philippe Herreweghe"
    REM COMPOSER "A. Bruckner"
    ISRC FRZ140410020
    REM INDEX 00 18:14:07
    INDEX 01 18:21:00
  TRACK 03 AUDIO
    TITLE "Symphony No. 7 in E major - III. Scherzo. Sehr schnell"
    PERFORMER "Orchestre des Champs-Élysées, Philippe Herreweghe"
    REM COMPOSER "A. Bruckner"
    ISRC FRZ140410030
    REM INDEX 00 38:41:09
    INDEX 01 38:44:05
  TRACK 04 AUDIO
    TITLE "Symphony No. 7 in E major - IV. Finale. Bewegt doch nicht schnell"
    PERFORMER "Orchestre des Champs-Élysées, Philippe Herreweghe"
    REM COMPOSER "A. Bruckner"
    ISRC FRZ140410040
    REM INDEX 00 47:59:10
    INDEX 01 48:01:14

                                                                                       
                       
                       
                       
                       
                       
                                磁力下载(论坛代下载服务)::
                                                               
                                       
付费主题

已有0人支付


                                               
  • 277.4 MB
  • 温馨提示

    记得善用社区搜索功能,那里可能会有你想要的资源;论坛站内搜索

    如果你有什么需要的资源可以去资源求档发帖,求助社区的网友,我们会在第一时间给你回复哦;资源求档

    对于本社区网盘链接失效密码错误各种报错请在反馈板块反馈报错发帖,您的支持,是我们发展的最大动力;投诉建议

    回复

    使用道具 举报

    您需要登录后才可以回帖 登录 | 立即注册 微信登录

    本版积分规则

    关注0

    粉丝0

    帖子31315

    发布主题
    阅读排行更多+
    关闭

    站长推荐上一条 /1 下一条

    活动提示

    赞助永久VIP会员送3T硬盘一块 限时活动

    地址:立刻参加

    我知道了
    收藏帖子 返回列表 这是一个自定义按钮
    音乐分享,音乐下载。
    微信公众号
    微信号:hires_
    意见反馈:admin@maomicd.com

    加入我们的官方QQ群和微信群

    Powered by Discuz! X3.4 Archiver|手机版|小黑屋|捌零音乐论坛 ( 苏ICP备20015413号 )|( 苏公网安备 32030502000272号) 繁體

    GMT+8, 2021-9-22 22:41