[古典] (Classical, orchestral)[CD] Johannes Brahms - Symphonies Nos. 1,2,3,4. Tragic Overture, Op. 81, Academic Festival Overture, Op. 80 (3 CD) (Staatskapelle Dresden, Christian Thielema

[复制链接]
Johannes Brahms - Symphonies Nos. 1,2,3,4. Tragic Overture, Op. 81, Academic Festival Overture, Op. 80
Жанр: Classical, orchestral
Страна-производитель диска: EU
Год издания диска: 2014
Издатель (лейбл): Unitel Classica, under exclusive license to Deutsche Grammophon GmbH
Номер по каталогу: 479 2787
Дата записи: 2011-2013
Аудиокодек: FLAC
Тип рипа: image+.cue
Битрейт аудио: lossless
Продолжительность: 03:14:24
Источник: собственный рип
Наличие сканов в содержимом раздачи: да
Исполнители:
Staatskapelle Dresden
Christian Thielemann - conductor
Доп. информация:
Live recordings: Dresden, Semperoper, 6/2011 op.81; 10/2012 op. 68, 90; 1/2013 op.73; 4/2013 op.80,98
Johannes Brahms - Piano Concertos Nos. 1 & 2, Violin Concerto in B major op.77 (Bonus DVD)
CD1
Продолжительность: 00:59:31
Треклист:
Symphony No.1 in C minor Op.68
  • I. Un Poco Sostenuto - Allegro (14:29)
  • II. Andante Sostenuto (9:03)
  • III. Un Poco Allegretto E Grazioso (5:16)
  • IV. Adagio - Allegro Non Troppo, Ma Con Brio (18:16)
  • Tragic Overture, Op. 81 (12:28)
    [/ol]
    Лог создания рипа

    Exact Audio Copy V1.0 beta 3 from 29. August 2011
    Отчёт EAC об извлечении, выполненном 28. июля 2016, 18:01
    Staatskapelle Dresden, Christian Thielemann / Brahms, Symphonie N°1
    Дисковод: TSSTcorpCDDVDW SH-224DB   Adapter: 0  ID: 0
    Режим чтения                 : Достоверность
    Использование точного потока : Да
    Отключение кэша аудио        : Да
    Использование указателей C2  : Нет
    Коррекция смещения при чтении                     : 6
    Способность читать области Lead-in и Lead-out     : Нет
    Заполнение пропущенных сэмплов тишиной            : Да
    Удаление блоков с тишиной в начале и конце        : Нет
    При вычислениях CRC использовались нулевые сэмплы : Да
    Интерфейс                                         : Встроенный Win32-интерфейс для Win NT/2000
    Выходной формат          : Пользовательский кодировщик
    Выбранный битрейт        : 128 kBit/s
    Качество                 : Высокий
    Добавление ID3-тега      : Нет
    Утилита сжатия           : C:\Program Files (x86)\Exact Audio Copy\Flac\flac.exe
    Дополнительные параметры : -V -8 -T "Date=%year%" -T "Genre=%genre%" %source%
    TOC извлечённого CD
         Трек |   Старт  | Длительность | Начальный сектор | Конечный сектор
        ---------------------------------------------------------------------
           1  |  0:00.00 |   14:28.45   |           0      |      65144
           2  | 14:28.45 |    9:02.72   |       65145      |     105866
           3  | 23:31.42 |    5:15.62   |      105867      |     129553
           4  | 28:47.29 |   18:15.46   |      129554      |     211724
           5  | 47:03.00 |   12:28.01   |      211725      |     267825
    Характеристики диапазона извлечения и сообщения об ошибках
    Выбранный диапазон
         Имя файла F:\Музыка\КЛАССИКА\Johannes Brahms\Staatskapelle Dresden, Christian Thielemann - Brahms, Symphonie N°1.wav
         Пиковый уровень 94.6 %
         Скорость извлечения 3.0 X
         Качество диапазона 99.9 %
         CRC теста 97544475
         CRC копии 97544475
         Копирование... OK
    Ошибок не произошло
    AccurateRip: сводка
    Трек  1  : извлечено точно (доверие 8)  [9D638F89]  (AR v2)
    Трек  2  : извлечено точно (доверие 9)  [F1D7D1AD]  (AR v2)
    Трек  3  : извлечено точно (доверие 9)  [7C630911]  (AR v2)
    Трек  4  : извлечено точно (доверие 9)  [AF586A8C]  (AR v2)
    Трек  5  : извлечено точно (доверие 7)  [043392CD]  (AR v2)
    Все треки извлечены точно
    Конец отчёта
    ---- CUETools DB Plugin V2.1.3
    [CTDB TOCID: 1Tps2xcB4Pkf9J5sXnz6fMizoQQ-] found, Submit result: 1Tps2xcB4Pkf9J5sXnz6fMizoQQ- has been confirmed
    [6652bfc4] (15/16) Accurately ripped
    [8fca6e53] (01/16) No match
    ==== Контрольная сумма отчёта D02140778AAFA1220AEAF9F2B4D10609B6B88E55BC0B92CEA26FE9F82F32A512 ====


    Содержание индексной карты (.CUE)

    REM GENRE Symphony
    REM DATE 2014
    REM DISCID 3E0DF305
    REM COMMENT "ExactAudioCopy v1.0b3"
    PERFORMER "Staatskapelle Dresden, Christian Thielemann"
    TITLE "Brahms, Symphonie N°1"
    FILE "Staatskapelle Dresden, Christian Thielemann - Brahms, Symphonie N°1.flac" WAVE
      TRACK 01 AUDIO
        TITLE "Symphonie N°1 en ut mineur op.68 - I. Un poco sostenuto - Allegro"
        PERFORMER "Staatskapelle Dresden, Christian Thielemann"
        INDEX 01 00:00:00
      TRACK 02 AUDIO
        TITLE "Symphonie N°1 en ut mineur op.68 - II. Andante sostenuto"
        PERFORMER "Staatskapelle Dresden, Christian Thielemann"
        INDEX 01 14:28:45
      TRACK 03 AUDIO
        TITLE "Symphonie N°1 en ut mineur op.68 - III. Un poco allegretto e grazioso"
        PERFORMER "Staatskapelle Dresden, Christian Thielemann"
        INDEX 01 23:31:42
      TRACK 04 AUDIO
        TITLE "Symphonie N°1 en ut mineur op.68 - IV. Adagio - Piu andante - Allegro non tro..."
        PERFORMER "Staatskapelle Dresden, Christian Thielemann"
        INDEX 01 28:47:29
      TRACK 05 AUDIO
        TITLE "Tragische Ouverture op.81"
        PERFORMER "Staatskapelle Dresden, Christian Thielemann"
        INDEX 00 46:53:03
        INDEX 01 47:03:00



    CD2
    Продолжительность: 00:56:14
    Треклист:
    Symphony No.2 in D minor Op.73
  • I. Allegro Non Troppo (20:51)
  • II. Adagio Non Troppo (10:14)
  • III. Allegretto Grazioso (Quasi Andantino) - Presto ma non assai (5:46)
  • IV. Allegro Con Spirito (9:07)
  • Academic Festival Overture, Op. 80 (10:16)
    [/ol]
    Лог создания рипа

    Exact Audio Copy V1.0 beta 3 from 29. August 2011
    Отчёт EAC об извлечении, выполненном 28. июля 2016, 18:58
    Staatskapelle Dresden, Christian Thielemann / Brahms, Symphonie N°2
    Дисковод: TSSTcorpCDDVDW SH-224DB   Adapter: 0  ID: 0
    Режим чтения                 : Достоверность
    Использование точного потока : Да
    Отключение кэша аудио        : Да
    Использование указателей C2  : Нет
    Коррекция смещения при чтении                     : 6
    Способность читать области Lead-in и Lead-out     : Нет
    Заполнение пропущенных сэмплов тишиной            : Да
    Удаление блоков с тишиной в начале и конце        : Нет
    При вычислениях CRC использовались нулевые сэмплы : Да
    Интерфейс                                         : Встроенный Win32-интерфейс для Win NT/2000
    Выходной формат          : Пользовательский кодировщик
    Выбранный битрейт        : 128 kBit/s
    Качество                 : Высокий
    Добавление ID3-тега      : Нет
    Утилита сжатия           : C:\Program Files (x86)\Exact Audio Copy\Flac\flac.exe
    Дополнительные параметры : -V -8 -T "Date=%year%" -T "Genre=%genre%" %source%
    TOC извлечённого CD
         Трек |   Старт  | Длительность | Начальный сектор | Конечный сектор
        ---------------------------------------------------------------------
           1  |  0:00.00 |   20:50.70   |           0      |      93819
           2  | 20:50.70 |   10:13.68   |       93820      |     139862
           3  | 31:04.63 |    5:45.66   |      139863      |     165803
           4  | 36:50.54 |    9:07.21   |      165804      |     206849
           5  | 45:58.00 |   10:16.36   |      206850      |     253085
    Характеристики диапазона извлечения и сообщения об ошибках
    Выбранный диапазон
         Имя файла F:\Музыка\КЛАССИКА\Johannes Brahms\Staatskapelle Dresden, Christian Thielemann - Brahms, Symphonie N°2.wav
         Пиковый уровень 100.0 %
         Скорость извлечения 3.0 X
         Качество диапазона 100.0 %
         CRC теста 5DFF71A9
         CRC копии 5DFF71A9
         Копирование... OK
    Ошибок не произошло
    AccurateRip: сводка
    Трек  1  : извлечено точно (доверие 7)  [4F5E420B]  (AR v2)
    Трек  2  : извлечено точно (доверие 8)  [5DB60867]  (AR v2)
    Трек  3  : извлечено точно (доверие 8)  [D8B0511D]  (AR v2)
    Трек  4  : извлечено точно (доверие 7)  [8F581522]  (AR v2)
    Трек  5  : извлечено точно (доверие 7)  [137A2354]  (AR v2)
    Все треки извлечены точно
    Конец отчёта
    ---- CUETools DB Plugin V2.1.3
    [CTDB TOCID: qWRIhbhnQjZj5lugZYkqv90bOPo-] found, Submit result: qWRIhbhnQjZj5lugZYkqv90bOPo- has been confirmed
    [06760b51] (15/23) Accurately ripped
    [0bffa60d] (08/23) Accurately ripped
    ==== Контрольная сумма отчёта 07D10680B424085189B13D0825A159D7BC8381157836015F1377A6978A452A07 ====


    Содержание индексной карты (.CUE)

    REM GENRE Symphony
    REM DATE 2014
    REM DISCID 370D2E05
    REM COMMENT "ExactAudioCopy v1.0b3"
    PERFORMER "Staatskapelle Dresden, Christian Thielemann"
    TITLE "Brahms, Symphonie N°2"
    FILE "Staatskapelle Dresden, Christian Thielemann - Brahms, Symphonie N°2.flac" WAVE
      TRACK 01 AUDIO
        TITLE "Symphonie N°2 in В major op. 73 - I. Allegro Non Troppo"
        PERFORMER "Staatskapelle Dresden, Christian Thielemann"
        INDEX 01 00:00:00
      TRACK 02 AUDIO
        TITLE "Symphonie N°2 in В major op. 73 - II. Adagio Non Troppo"
        PERFORMER "Staatskapelle Dresden, Christian Thielemann"
        INDEX 01 20:50:70
      TRACK 03 AUDIO
        TITLE "Symphonie N°2 in В major op. 73 -III. Allegretto Grazioso (Quasi Andantino) -..."
        PERFORMER "Staatskapelle Dresden, Christian Thielemann"
        INDEX 01 31:04:63
      TRACK 04 AUDIO
        TITLE "Symphonie N°2 in В major op. 73 -IV. Allegro Con Spirito"
        PERFORMER "Staatskapelle Dresden, Christian Thielemann"
        INDEX 01 36:50:54
      TRACK 05 AUDIO
        TITLE "Academic Festival Overture, Op. 80"
        PERFORMER "Staatskapelle Dresden, Christian Thielemann"
        INDEX 00 45:48:66
        INDEX 01 45:58:00



    CD3
    Продолжительность: 01:18:39
    Треклист:
    Symphony No.3 In F Major, Op.90
  • I. Allegro Con Brio (13:38)
  • II. Andante (8:58)
  • III. Poco Allegretto (6:58)
  • IV. Allegro (9:19)
    [/ol]
    Symphony No.4 In E Minor, Op.98
    I. Allegro Non Troppo (12:43)
  • II. Andante Moderato (11:05)
  • III. Allegro Giocoso (6:22)
  • IV. Allegro Energico E Passionato (9.34)
    [/ol]
    Лог создания рипа

    Exact Audio Copy V1.0 beta 3 from 29. August 2011
    Отчёт EAC об извлечении, выполненном 28. июля 2016, 19:33
    Staatskapelle Dresden, Christian Thielemann / Brahms, Symphonie N°3, 4
    Дисковод: TSSTcorpCDDVDW SH-224DB   Adapter: 0  ID: 0
    Режим чтения                 : Достоверность
    Использование точного потока : Да
    Отключение кэша аудио        : Да
    Использование указателей C2  : Нет
    Коррекция смещения при чтении                     : 6
    Способность читать области Lead-in и Lead-out     : Нет
    Заполнение пропущенных сэмплов тишиной            : Да
    Удаление блоков с тишиной в начале и конце        : Нет
    При вычислениях CRC использовались нулевые сэмплы : Да
    Интерфейс                                         : Встроенный Win32-интерфейс для Win NT/2000
    Выходной формат          : Пользовательский кодировщик
    Выбранный битрейт        : 128 kBit/s
    Качество                 : Высокий
    Добавление ID3-тега      : Нет
    Утилита сжатия           : C:\Program Files (x86)\Exact Audio Copy\Flac\flac.exe
    Дополнительные параметры : -V -8 -T "Date=%year%" -T "Genre=%genre%" %source%
    TOC извлечённого CD
         Трек |   Старт  | Длительность | Начальный сектор | Конечный сектор
        ---------------------------------------------------------------------
           1  |  0:00.00 |   13:37.60   |           0      |      61334
           2  | 13:37.60 |    8:58.19   |       61335      |     101703
           3  | 22:36.04 |    6:58.32   |      101704      |     133085
           4  | 29:34.36 |    9:19.28   |      133086      |     175038
           5  | 38:53.64 |   12:43.20   |      175039      |     232283
           6  | 51:37.09 |   11:05.33   |      232284      |     282191
           7  | 62:42.42 |    6:22.20   |      282192      |     310861
           8  | 69:04.62 |    9:34.08   |      310862      |     353919
    Характеристики диапазона извлечения и сообщения об ошибках
    Выбранный диапазон
         Имя файла F:\Музыка\КЛАССИКА\Johannes Brahms\Staatskapelle Dresden, Christian Thielemann - Brahms, Symphonie N°3\Staatskapelle Dresden, Christian Thielemann - Brahms, Symphonie N°3, 4.wav
         Пиковый уровень 94.9 %
         Скорость извлечения 8.7 X
         Качество диапазона 100.0 %
         CRC теста 65978C96
         CRC копии 65978C96
         Копирование... OK
    Ошибок не произошло
    AccurateRip: сводка
    Трек  1  : извлечено точно (доверие 7)  [6930DB8B]  (AR v2)
    Трек  2  : извлечено точно (доверие 7)  [FAFF1104]  (AR v2)
    Трек  3  : извлечено точно (доверие 7)  [B99BFDFF]  (AR v2)
    Трек  4  : извлечено точно (доверие 8)  [5BD81687]  (AR v2)
    Трек  5  : извлечено точно (доверие 7)  [B845F372]  (AR v2)
    Трек  6  : извлечено точно (доверие 7)  [2D4A7C09]  (AR v2)
    Трек  7  : извлечено точно (доверие 8)  [65DF3969]  (AR v2)
    Трек  8  : извлечено точно (доверие 7)  [58C27E15]  (AR v2)
    Все треки извлечены точно
    Конец отчёта
    ---- CUETools DB Plugin V2.1.3
    [CTDB TOCID: 8jOz6KKpDzobbpDSIOZq.QXRVaY-] found, Submit result: 8jOz6KKpDzobbpDSIOZq.QXRVaY- has been confirmed
    [a471828c] (01/16) Differs in 3 samples @77:53:05
    [2ec3cc02] (14/16) Accurately ripped
    [0d507bef] (01/16) No match
    You can use CUETools to repair this rip.
    ==== Контрольная сумма отчёта DDFDF7950A596F03A5AA44DA3FA78ABFB66CB23B5DFEC49CD16B50BADEA57799 ====


    Содержание индексной карты (.CUE)

    REM GENRE Symphony
    REM DATE 2014
    REM DISCID 7F126E08
    REM COMMENT "ExactAudioCopy v1.0b3"
    PERFORMER "Staatskapelle Dresden, Christian Thielemann"
    TITLE "Brahms, Symphonie N°3, 4"
    FILE "Staatskapelle Dresden, Christian Thielemann - Brahms, Symphonie N°3, 4.flac" WAVE
      TRACK 01 AUDIO
        TITLE "Symphonie N°3 in F major op. 90 - I. Allegro Con Brio"
        PERFORMER "Staatskapelle Dresden, Christian Thielemann"
        INDEX 01 00:00:00
      TRACK 02 AUDIO
        TITLE "Symphonie N°3 in F major op. 90 - II. Andante"
        PERFORMER "Staatskapelle Dresden, Christian Thielemann"
        INDEX 01 13:37:60
      TRACK 03 AUDIO
        TITLE "Symphonie N°3 in F major op. 90 - III. Poco Allegretto"
        PERFORMER "Staatskapelle Dresden, Christian Thielemann"
        INDEX 01 22:36:04
      TRACK 04 AUDIO
        TITLE "Symphonie N°3 in F major op. 90 - IV. Allegro"
        PERFORMER "Staatskapelle Dresden, Christian Thielemann"
        INDEX 01 29:34:36
      TRACK 05 AUDIO
        TITLE "Symphonie N°4 in E minor op. 98 - I. Allegro Non Troppo"
        PERFORMER "Staatskapelle Dresden, Christian Thielemann"
        INDEX 00 38:44:51
        INDEX 01 38:53:64
      TRACK 06 AUDIO
        TITLE "Symphonie N°4 in E minor op. 98 - II. Andante Moderato"
        PERFORMER "Staatskapelle Dresden, Christian Thielemann"
        INDEX 01 51:37:09
      TRACK 07 AUDIO
        TITLE "Symphonie N°4 in E minor op. 98 - III. Allegro Giocoso - Poco meno presto - T..."
        PERFORMER "Staatskapelle Dresden, Christian Thielemann"
        INDEX 01 62:42:42
      TRACK 08 AUDIO
        TITLE "Symphonie N°4 in E minor op. 98  - IV. Allegro Energico E Passionato - Piu Al..."
        PERFORMER "Staatskapelle Dresden, Christian Thielemann"
        INDEX 01 69:04:62


                                                                                           
                           
                           
                           
                           
                           
                                    磁力下载(论坛代下载服务)::
                                                                   
                                           
    付费主题

    已有0人支付


                                                   
  • 1.03 GB
  • 温馨提示

    记得善用社区搜索功能,那里可能会有你想要的资源;论坛站内搜索

    如果你有什么需要的资源可以去资源求档发帖,求助社区的网友,我们会在第一时间给你回复哦;资源求档

    对于本社区网盘链接失效密码错误各种报错请在反馈板块反馈报错发帖,您的支持,是我们发展的最大动力;投诉建议

    回复

    使用道具 举报

    您需要登录后才可以回帖 登录 | 立即注册 微信登录

    本版积分规则

    关注0

    粉丝18

    帖子87653

    发布主题
    阅读排行更多+
    关闭

    站长推荐上一条 /1 下一条

    活动提示

    赞助永久VIP会员送3T硬盘一块 限时活动

    地址:立刻参加

    我知道了
    收藏帖子 返回列表 这是一个自定义按钮
    音乐分享,音乐下载。
    微信公众号
    微信号:hires_
    意见反馈:admin@maomicd.com

    加入我们的官方QQ群和微信群

    Powered by Discuz! X3.4 Archiver|手机版|小黑屋|捌零音乐论坛 ( 苏ICP备20015413号 )|( 苏公网安备 32030502000272号) 繁體

    GMT+8, 2021-9-16 23:46