[古典] (Classical simphonie) Bruckner - Symphony No. 5 (Munchner Philharmoniker, Christian Thielemann) - 2005, FLAC (image+.cue) lossless

[复制链接]
全球采集 发表于 2021-9-10 16:56:52 | 显示全部楼层 |阅读模式 打印 上一主题 下一主题
Bruckner - Symphony No. 5 (Munchner Philharmoniker, Christian Thielemann)
Жанр: Classical simphonie
Страна-производитель диска: Made in the EU
Год издания диска: 2005
Издатель (лейбл): Deutsche Grammophon GmbH, Berlin
Номер по каталогу: 000289 477 53773
Дата записи: 2004
Аудиокодек: FLAC
Тип рипа: image+.cue
Битрейт аудио: lossless
Продолжительность: 01:22:34
Источник: релизер
сайт-источник/ник/другое: Tubarec from Meeting Music; Caterina Sforza - работа с cue, доп. сканы
Наличие сканов в содержимом раздачи: да, полный авторский буклет jpeg, 21 стр.
Треклист:
Symphony No. 5
01 I. Adagio - Allegro [22´24]
02 II. Adagio [20´07]
03. III. Scherzo [14´42]
04. IV. Finale [25´21]
Исполнители

Anton Bruckner (1824-1896)
Symphony No. 5
Münchner Philharmoniker
Christian Thielemann, dir.


Лог создания рипа

Exact Audio Copy V1.5 from 20. February 2020
EAC extraction logfile from 13. August 2020, 14:55
Unknown Artist / Unknown Title
Used drive  : ASUS    DRW-24B1ST   j   Adapter: 1  ID: 0
Read mode               : Secure
Utilize accurate stream : Yes
Defeat audio cache      : Yes
Make use of C2 pointers : No
Read offset correction                      : 6
Overread into Lead-In and Lead-Out          : No
Fill up missing offset samples with silence : Yes
Delete leading and trailing silent blocks   : No
Null samples used in CRC calculations       : Yes
Used interface                              : Native Win32 interface for Win NT & 2000
Used output format              : User Defined Encoder
Selected bitrate                : 896 kBit/s
Quality                         : High
Add ID3 tag                     : No
Command line compressor         : C:\Program Files (x86)\Exact Audio Copy\FLAC\FLAC.EXE
Additional command line options : -6 -V -T "ARTIST=%artist%" -T "TITLE=%title%" -T "ALBUM=%albumtitle%" -T "DATE=%year%" -T "TRACKNUMBER=%tracknr%" -T "GENRE=%genre%" -T "COMMENT=%comment%" -T "BAND=%albuminterpret%" -T "ALBUMARTIST=%albuminterpret%" -T "COMPOSER=%composer%" %haslyrics%--tag-from-file=LYRICS="%lyricsfile%"%haslyrics% -T "DISCNUMBER=%cdnumber%" -T "TOTALDISCS=%totalcds%" -T "TOTALTRACKS=%numtracks%" %hascover%--picture="%coverfile%"%hascover% %source% -o %dest%
TOC of the extracted CD
     Track |   Start  |  Length  | Start sector | End sector
    ---------------------------------------------------------
        1  |  0:00.00 | 22:24.06 |         0    |   100805
        2  | 22:24.06 | 20:06.69 |    100806    |   191324
        3  | 42:31.00 | 14:42.00 |    191325    |   257474
        4  | 57:13.00 | 25:21.00 |    257475    |   371549
Range status and errors
Selected range
     Filename N:\Bruckner - Symphony No. 5 - Thielemann - DG\Bruckner - Symphony No. 5- Thielemann - DG.wav
     Peak level 99.3 %
     Extraction speed 8.6 X
     Range quality 100.0 %
     Test CRC 54B0A577
     Copy CRC 54B0A577
     Copy OK
No errors occurred
AccurateRip summary
Track  1  accurately ripped (confidence 50)  [6F772503]  (AR v2)
Track  2  accurately ripped (confidence 49)  [B4C0D7EA]  (AR v2)
Track  3  accurately ripped (confidence 49)  [D42A3FE5]  (AR v2)
Track  4  accurately ripped (confidence 48)  [F8D91FCF]  (AR v2)
All tracks accurately ripped
End of status report
---- CUETools DB Plugin V2.1.6
[CTDB TOCID: r5Cz5QYG8yUi7JMYYgSZihLlbjU-] found
Submit result: r5Cz5QYG8yUi7JMYYgSZihLlbjU- has been confirmed
Track | CTDB Status
  1   | (101/102) Accurately ripped
  2   | (100/102) Accurately ripped
  3   | (101/102) Accurately ripped
  4   | ( 99/102) Accurately ripped
==== Log checksum 590422C3EA9561AF649C9CE9593E1C5B7E2982051B34D55C477C5AE17F039037 ====
------------------------------------------------------------
Exact Audio Copy V1.5 from 20. February 2020
EAC extraction logfile from 13. August 2020, 14:56
Unknown Artist / Unknown Title
Used drive  : ASUS    DRW-24B1ST   j   Adapter: 1  ID: 0
Read mode               : Secure
Utilize accurate stream : Yes
Defeat audio cache      : Yes
Make use of C2 pointers : No
Read offset correction                      : 6
Overread into Lead-In and Lead-Out          : No
Fill up missing offset samples with silence : Yes
Delete leading and trailing silent blocks   : No
Null samples used in CRC calculations       : Yes
Used interface                              : Native Win32 interface for Win NT & 2000
Used output format              : User Defined Encoder
Selected bitrate                : 896 kBit/s
Quality                         : High
Add ID3 tag                     : No
Command line compressor         : C:\Program Files (x86)\Exact Audio Copy\FLAC\FLAC.EXE
Additional command line options : -6 -V -T "ARTIST=%artist%" -T "TITLE=%title%" -T "ALBUM=%albumtitle%" -T "DATE=%year%" -T "TRACKNUMBER=%tracknr%" -T "GENRE=%genre%" -T "COMMENT=%comment%" -T "BAND=%albuminterpret%" -T "ALBUMARTIST=%albuminterpret%" -T "COMPOSER=%composer%" %haslyrics%--tag-from-file=LYRICS="%lyricsfile%"%haslyrics% -T "DISCNUMBER=%cdnumber%" -T "TOTALDISCS=%totalcds%" -T "TOTALTRACKS=%numtracks%" %hascover%--picture="%coverfile%"%hascover% %source% -o %dest%
TOC of the extracted CD
     Track |   Start  |  Length  | Start sector | End sector
    ---------------------------------------------------------
        1  |  0:00.00 | 22:24.06 |         0    |   100805
        2  | 22:24.06 | 20:06.69 |    100806    |   191324
        3  | 42:31.00 | 14:42.00 |    191325    |   257474
        4  | 57:13.00 | 25:21.00 |    257475    |   371549
Range status and errors
Selected range
     Filename N:\Bruckner - Symphony No. 5 - Thielemann - DG\Bruckner - Symphony No. 5- Thielemann - DG.wav
     Peak level 99.3 %
     Extraction speed 8.6 X
     Range quality 100.0 %
     Test CRC 54B0A577
     Copy CRC 54B0A577
     Copy OK
No errors occurred
AccurateRip summary
Track  1  accurately ripped (confidence 50)  [6F772503]  (AR v2)
Track  2  accurately ripped (confidence 49)  [B4C0D7EA]  (AR v2)
Track  3  accurately ripped (confidence 49)  [D42A3FE5]  (AR v2)
Track  4  accurately ripped (confidence 48)  [F8D91FCF]  (AR v2)
All tracks accurately ripped
End of status report
---- CUETools DB Plugin V2.1.6
[CTDB TOCID: r5Cz5QYG8yUi7JMYYgSZihLlbjU-] found
Submit result: r5Cz5QYG8yUi7JMYYgSZihLlbjU- has been confirmed
Track | CTDB Status
  1   | (101/102) Accurately ripped
  2   | (100/102) Accurately ripped
  3   | (101/102) Accurately ripped
  4   | ( 99/102) Accurately ripped
==== Log checksum 71553A4FE1DFD95CE48F0EB787659B0435575E7307C98AD1E87EE361AD80B2C6 ====


Содержание индексной карты (.CUE)

REM GENRE Classical
REM DATE 2005
REM DISCID 2E135A04
REM COMMENT ExactAudioCopy v1.5
CATALOG 0028947753773
PERFORMER "Münchner Philharmoniker, Christian Thielemann (dir.)"
TITLE "Anton Bruckner - Symphony No. 5"
FILE "Bruckner - Symphony No. 5 - Thielemann - DG.flac" WAVE
  TRACK 01 AUDIO
    TITLE "Symphony No. 5 in B flat major - 1. Introduction: Adagio - Allegro"
    PERFORMER "Münchner Philharmoniker, Christian Thielemann"
    ISRC DEN960401001
    INDEX 01 00:00:00
  TRACK 02 AUDIO
    TITLE "Symphony No. 5 in B flat major - 2. Adagio. Sehr langsam"
    PERFORMER "Münchner Philharmoniker, Christian Thielemann"
    ISRC DEN960401002
    INDEX 01 22:24:06
  TRACK 03 AUDIO
    TITLE "Symphony No. 5 in B flat major - 3. Scherzo. Molto vivace (Schnell) - Trio im gleichen Tempo"
    PERFORMER "Münchner Philharmoniker, Christian Thielemann"
    ISRC DEN960401003
    INDEX 01 42:31:00
  TRACK 04 AUDIO
    TITLE "Symphony No. 5 in B flat major - 4. Finale. Adagio - Allegro moderato"
    PERFORMER "Münchner Philharmoniker, Christian Thielemann"
    ISRC DEN960401004
    INDEX 01 57:13:00

                                                                                       
                       
                       
                       
                       
                       
                                磁力下载(论坛代下载服务)::
                                                               
                                       
付费主题

已有0人支付


                                               
  • 356.8 MB
  • 温馨提示

    记得善用社区搜索功能,那里可能会有你想要的资源;论坛站内搜索

    如果你有什么需要的资源可以去资源求档发帖,求助社区的网友,我们会在第一时间给你回复哦;资源求档

    对于本社区网盘链接失效密码错误各种报错请在反馈板块反馈报错发帖,您的支持,是我们发展的最大动力;投诉建议

    回复

    使用道具 举报

    您需要登录后才可以回帖 登录 | 立即注册 微信登录

    本版积分规则

    关注0

    粉丝19

    帖子87653

    发布主题
    阅读排行更多+
    关闭

    站长推荐上一条 /1 下一条

    活动提示

    赞助永久VIP会员送3T硬盘一块 限时活动

    地址:立刻参加

    我知道了
    收藏帖子 返回列表 这是一个自定义按钮
    音乐分享,音乐下载。
    微信公众号
    微信号:hires_
    意见反馈:admin@maomicd.com

    加入我们的官方QQ群和微信群

    Powered by Discuz! X3.4 Archiver|手机版|小黑屋|捌零音乐论坛 ( 苏ICP备20015413号 )|( 苏公网安备 32030502000272号) 繁體

    GMT+8, 2021-9-22 22:21