[古典] (Classical / Avantgarde) Krzysztof Penderecki / Jonny Greenwood - Threnody for the Victims of Hiroshima, Popcorn Superhet Receiver, Polymorphia, 48 Responses To Polymorphia (AUKSO

[复制链接]
如果有神 发表于 2021-9-10 16:56:52 | 显示全部楼层 |阅读模式 打印 上一主题 下一主题
Krzysztof Penderecki / Jonny Greenwood - Threnody for the Victims of Hiroshima, Popcorn Superhet Receiver, Polymorphia, 48 Responses To Polymorphia
Жанр: Classical / Avantgarde
Страна-производитель диска: U.S.A.
Год издания диска: 2012
Издатель (лейбл): Nonesuch
Номер по каталогу: 7559-79625-1
Дата записи: 2011
Аудиокодек: FLAC
Тип рипа: image+.cue
Битрейт аудио: lossless
Продолжительность: 00:53:05
Источник: собственный рип
Наличие сканов в содержимом раздачи: да
Треклист:
01. Krzysztof Penderecki: Threnody For The Victims Of Hiroshima
Jonny Greenwood - Popcorn Superhet Receiver (*)
02. Part 1
03. Part 2A
04. Part 2B
05. Part 3
06. Krzysztof Penderecki: Polymorphia
Jonny Greenwood - 48 Responses To Polymorphia (*)
07. Es Ist Genug
08. Ranj
09. Overtones
10. Scan
11. Baton Sparks
12. Three Oak Leaves
13. Overhang
14. Bridge
15. Pacay Tree
Исполнители:
AUKSO Orchestra
Krzysztof Penderecki, Conductor
Marek Moś, Conductor (*)
Лог создания рипа

Exact Audio Copy V1.0 beta 3 from 29. August 2011
EAC extraction logfile from 27. June 2012, 23:18
- / Threnody For The Victims Of Hiroshima | Popcorn Superhet Receiver |Polymorphia | 48 Responses To Polymorphia
Used drive  : HL-DT-STDVDRAM GSA-T50N   Adapter: 0  ID: 1
Read mode               : Secure
Utilize accurate stream : Yes
Defeat audio cache      : Yes
Make use of C2 pointers : No
Read offset correction                      : 667
Overread into Lead-In and Lead-Out          : No
Fill up missing offset samples with silence : Yes
Delete leading and trailing silent blocks   : No
Null samples used in CRC calculations       : Yes
Used interface                              : Native Win32 interface for Win NT & 2000
Used output format              : User Defined Encoder
Selected bitrate                : 896 kBit/s
Quality                         : High
Add ID3 tag                     : No
Command line compressor         : C:\Program Files (x86)\Exact Audio Copy\Flac\flac.exe
Additional command line options : -V -8 -T "Date=%year%" -T "Genre=%genre%" %source%
TOC of the extracted CD
     Track |   Start  |  Length  | Start sector | End sector
    ---------------------------------------------------------
        1  |  0:00.00 |  9:16.00 |         0    |    41699
        2  |  9:16.00 |  8:42.13 |     41700    |    80862
        3  | 17:58.13 |  0:48.01 |     80863    |    84463
        4  | 18:46.14 |  1:52.61 |     84464    |    92924
        5  | 20:39.00 |  2:31.54 |     92925    |   104303
        6  | 23:10.54 |  9:18.45 |    104304    |   146198
        7  | 32:29.24 |  1:37.52 |    146199    |   153525
        8  | 34:07.01 |  2:47.15 |    153526    |   166065
        9  | 36:54.16 |  2:33.14 |    166066    |   177554
       10  | 39:27.30 |  1:26.01 |    177555    |   184005
       11  | 40:53.31 |  0:28.68 |    184006    |   186173
       12  | 41:22.24 |  2:15.74 |    186174    |   196372
       13  | 43:38.23 |  4:12.16 |    196373    |   215288
       14  | 47:50.39 |  1:41.47 |    215289    |   222910
       15  | 49:32.11 |  3:32.72 |    222911    |   238882
Range status and errors
Selected range
     Filename E:\seed\Krzysztof Penderecki, Jonny Greenwood (2012)\Krzysztof Penderecki, Jonny Greenwood (2012).wav
     Peak level 98.2 %
     Extraction speed 2.0 X
     Range quality 100.0 %
     Test CRC 9D874FD6
     Copy CRC 9D874FD6
     Copy OK
No errors occurred
AccurateRip summary
Track  1  accurately ripped (confidence 3)  [F914F6D9]  (AR v1)
Track  2  accurately ripped (confidence 3)  [4DEF433D]  (AR v1)
Track  3  accurately ripped (confidence 3)  [384444AF]  (AR v1)
Track  4  accurately ripped (confidence 3)  [8C577FE1]  (AR v1)
Track  5  accurately ripped (confidence 3)  [EC9B84B6]  (AR v1)
Track  6  accurately ripped (confidence 3)  [EFFC8C11]  (AR v1)
Track  7  accurately ripped (confidence 3)  [F2449482]  (AR v1)
Track  8  accurately ripped (confidence 3)  [B6EAA924]  (AR v1)
Track  9  accurately ripped (confidence 3)  [13C4FD8C]  (AR v1)
Track 10  accurately ripped (confidence 3)  [ADD1FBBE]  (AR v1)
Track 11  accurately ripped (confidence 3)  [F28ECD5D]  (AR v1)
Track 12  accurately ripped (confidence 3)  [D3264FFA]  (AR v1)
Track 13  accurately ripped (confidence 2)  [B027BEE3]  (AR v1)
Track 14  accurately ripped (confidence 3)  [C8B3AA58]  (AR v1)
Track 15  accurately ripped (confidence 3)  [EB6BA65E]  (AR v1)
All tracks accurately ripped
End of status report
---- CUETools DB Plugin V2.1.3
[CTDB TOCID: aH0EZ2eUjRSFtvy2NwkH.0qQRAQ-] found, Submit result: aH0EZ2eUjRSFtvy2NwkH.0qQRAQ- has been confirmed
[462f2660] (4/4) Accurately ripped
==== Log checksum C5F0B4495B55E41AF097C8BCEAAEC8BD04551848791577C15A4A007EE863395D ====


Содержание индексной карты (.CUE)

REM GENRE
REM DATE 2012
REM DISCID D30C710F
REM COMMENT ExactAudioCopy v1.0b3
PERFORMER "Krzysztof Penderecki / Jonny Greenwood"
TITLE "Threnody For The Victims Of Hiroshima | Popcorn Superhet Receiver |Polymorphia | 48 Responses To Polymorphia"
FILE "Krzysztof Penderecki, Jonny Greenwood (2012).flac" WAVE
  TRACK 01 AUDIO
    TITLE "Krzysztof Penderecki: Threnody For The Victims Of Hiroshima"
    PERFORMER "Krzysztof Penderecki, Aukso Orchestra"
    FLAGS DCP
    INDEX 01 00:00:00
  TRACK 02 AUDIO
    TITLE "Jonny Greenwood: Popcorn Superhet Receiver Part 1"
    PERFORMER "Marek Moś, Aukso Orchestra"
    FLAGS DCP
    INDEX 00 09:06:57
    INDEX 01 09:16:00
  TRACK 03 AUDIO
    TITLE "Jonny Greenwood: Popcorn Superhet Receiver Part 2A"
    PERFORMER "Marek Moś, Aukso Orchestra"
    FLAGS DCP
    INDEX 01 17:58:13
  TRACK 04 AUDIO
    TITLE "Jonny Greenwood: Popcorn Superhet Receiver Part 2B"
    PERFORMER "Marek Moś, Aukso Orchestra"
    FLAGS DCP
    INDEX 01 18:46:14
  TRACK 05 AUDIO
    TITLE "Jonny Greenwood: Popcorn Superhet Receiver Part 3"
    PERFORMER "Marek Moś, Aukso Orchestra"
    FLAGS DCP
    INDEX 01 20:39:00
  TRACK 06 AUDIO
    TITLE "Krzysztof Penderecki: Polymorphia"
    PERFORMER "Krzysztof Penderecki, Aukso Orchestra"
    FLAGS DCP
    INDEX 00 23:01:08
    INDEX 01 23:10:54
  TRACK 07 AUDIO
    TITLE "Jonny Greenwood: 48 Responses To Polymorphia: Es Ist Genug"
    PERFORMER "Marek Moś, Aukso Orchestra"
    FLAGS DCP
    INDEX 00 32:21:66
    INDEX 01 32:29:24
  TRACK 08 AUDIO
    TITLE "Jonny Greenwood: 48 Responses To Polymorphia: Ranj"
    PERFORMER "Marek Moś, Aukso Orchestra"
    FLAGS DCP
    INDEX 01 34:07:01
  TRACK 09 AUDIO
    TITLE "Jonny Greenwood: 48 Responses To Polymorphia: Overtones"
    PERFORMER "Marek Moś, Aukso Orchestra"
    FLAGS DCP
    INDEX 01 36:54:16
  TRACK 10 AUDIO
    TITLE "Jonny Greenwood: 48 Responses To Polymorphia: Scan"
    PERFORMER "Marek Moś, Aukso Orchestra"
    FLAGS DCP
    INDEX 01 39:27:30
  TRACK 11 AUDIO
    TITLE "Jonny Greenwood: 48 Responses To Polymorphia: Baton Sparks"
    PERFORMER "Marek Moś, Aukso Orchestra"
    FLAGS DCP
    INDEX 01 40:53:31
  TRACK 12 AUDIO
    TITLE "Jonny Greenwood: 48 Responses To Polymorphia: Three Oak Leaves"
    PERFORMER "Marek Moś, Aukso Orchestra"
    FLAGS DCP
    INDEX 01 41:22:24
  TRACK 13 AUDIO
    TITLE "Jonny Greenwood: 48 Responses To Polymorphia: Overhang"
    PERFORMER "Marek Moś, Aukso Orchestra"
    FLAGS DCP
    INDEX 01 43:38:23
  TRACK 14 AUDIO
    TITLE "Jonny Greenwood: 48 Responses To Polymorphia: Bridge"
    PERFORMER "Marek Moś, Aukso Orchestra"
    FLAGS DCP
    INDEX 01 47:50:39
  TRACK 15 AUDIO
    TITLE "Jonny Greenwood: 48 Responses To Polymorphia: Pacay Tree"
    PERFORMER "Marek Moś, Aukso Orchestra"
    FLAGS DCP
    INDEX 01 49:32:11


Скриншот спектра частот


                                                                                       
                       
                       
                       
                       
                       
                                磁力下载(论坛代下载服务)::
                                                               
                                       
付费主题

已有0人支付


                                               
  • 228.5 MB
  • 温馨提示

    记得善用社区搜索功能,那里可能会有你想要的资源;论坛站内搜索

    如果你有什么需要的资源可以去资源求档发帖,求助社区的网友,我们会在第一时间给你回复哦;资源求档

    对于本社区网盘链接失效密码错误各种报错请在反馈板块反馈报错发帖,您的支持,是我们发展的最大动力;投诉建议

    回复

    使用道具 举报

    您需要登录后才可以回帖 登录 | 立即注册 微信登录

    本版积分规则

    发布主题
    阅读排行更多+
    关闭

    站长推荐上一条 /1 下一条

    活动提示

    赞助永久VIP会员送3T硬盘一块 限时活动

    地址:立刻参加

    我知道了
    收藏帖子 返回列表 这是一个自定义按钮
    音乐分享,音乐下载。
    微信公众号
    微信号:hires_
    意见反馈:admin@maomicd.com

    加入我们的官方QQ群和微信群

    Powered by Discuz! X3.4 Archiver|手机版|小黑屋|捌零音乐论坛 ( 苏ICP备20015413号 )|( 苏公网安备 32030502000272号) 繁體

    GMT+8, 2021-9-22 22:01