[古典] (Симфония) L. van Beethoven - Symphonien Nrn.1-9 (Russian National Orchestra - M.Pletnev) \ Л. ван Бетховен - Симфонии №№1-9 (Российский Национальный Оркестр - М.Плетнёв) 5 CD - 20

[复制链接]
tikus75 发表于 2021-9-10 16:56:51 | 显示全部楼层 |阅读模式 打印 上一主题 下一主题
BEETHOVEN - Sämtlische Symphonien
Russian National Orchestra - M.Pletnev
Жанр: Симфония
Год выпуска диска: 2007
Производитель диска: Germany
Аудио кодек: APE
Тип рипа: image+.cue
Битрейт аудио: lossless
Продолжительность: 05:36:22'
Треклист:
CD1
[1-4] Symphony No.1
[5-8] Symphony No.3

EAC
Exact Audio Copy V0.99 prebeta 5 from 4. May 2009
EAC extraction logfile from 14. February 2010, 17:43
Mikhail Pletnev, Russian National Orchestra / Beethoven: The Nine Symphonies (CD 4)
Used drive : MATSHITADVD-RAM UJ880AS Adapter: 0 ID: 1
Read mode : Secure
Utilize accurate stream : Yes
Defeat audio cache : Yes
Make use of C2 pointers : No
Read offset correction : 102
Overread into Lead-In and Lead-Out : No
Fill up missing offset samples with silence : Yes
Delete leading and trailing silent blocks : No
Null samples used in CRC calculations : No
Used interface : Native Win32 interface for Win NT & 2000
Used output format : User Defined Encoder
Selected bitrate : 320 kBit/s
Quality : High
Add ID3 tag : No
Command line compressor : C:\Program Files\Exact Audio Copy\wapet\wapet.exe
Additional command line options : %d -t "Artist=%a" -t "Title=%t" -t "Album=%g" -t "Year=%y" -t "Track=%n" -t "Genre=%m" "C:\Program Files\Monkey's Audio\MAC.exe" %s %d -c2000
TOC of the extracted CD
Track | Start | Length | Start sector | End sector
---------------------------------------------------------
1 | 0:00.00 | 9:32.61 | 0 | 42960
2 | 9:32.61 | 10:08.33 | 42961 | 88593
3 | 19:41.19 | 5:24.18 | 88594 | 112911
4 | 25:05.37 | 3:15.68 | 112912 | 127604
5 | 28:21.30 | 8:46.07 | 127605 | 167061
6 | 37:07.37 | 9:50.07 | 167062 | 211318
7 | 46:57.44 | 4:05.21 | 211319 | 229714
8 | 51:02.65 | 4:32.64 | 229715 | 250178
9 | 55:35.54 | 7:11.09 | 250179 | 282512
Range status and errors
Selected range
Filename E:\Uploads\BEETHOVEN The 9 Symphonies - Pletnev\BEETHOVEN The 9 Symphonies Pletnev cd 4\Mikhail Pletnev, Russian National Orchestra - Beethoven The Nine Symphonies (CD 4).wav
Peak level 99.2 %
Range quality 100.0 %
Copy CRC 66169E2D
Copy OK
No errors occurred
AccurateRip summary
Track 1 accurately ripped (confidence 8) [BDA9F936]
Track 2 accurately ripped (confidence 7) [5AACE4A0]
Track 3 accurately ripped (confidence 8) [155CCD9A]
Track 4 accurately ripped (confidence 8) [34EFC64C]
Track 5 accurately ripped (confidence 8) [ED326C07]
Track 6 accurately ripped (confidence 8) [5C49364B]
Track 7 accurately ripped (confidence 8) [DF856998]
Track 8 accurately ripped (confidence 8) [2DDDDFD1]
Track 9 accurately ripped (confidence 8) [3B9EAA92]
All tracks accurately ripped
End of status report


CD2
[1-4] Symphony No.2
[5-8] Symphony No.4

EAC
Exact Audio Copy V0.99 prebeta 5 from 4. May 2009
EAC extraction logfile from 13. February 2010, 13:59
Mikhail Pletnev, Russian National Orchestra / Beethoven: The Nine Symphonies (CD 2)
Used drive : MATSHITADVD-RAM UJ880AS Adapter: 0 ID: 1
Read mode : Secure
Utilize accurate stream : Yes
Defeat audio cache : Yes
Make use of C2 pointers : No
Read offset correction : 102
Overread into Lead-In and Lead-Out : No
Fill up missing offset samples with silence : Yes
Delete leading and trailing silent blocks : No
Null samples used in CRC calculations : No
Used interface : Native Win32 interface for Win NT & 2000
Used output format : User Defined Encoder
Selected bitrate : 320 kBit/s
Quality : High
Add ID3 tag : No
Command line compressor : C:\Program Files\Exact Audio Copy\wapet\wapet.exe
Additional command line options : %d -t "Artist=%a" -t "Title=%t" -t "Album=%g" -t "Year=%y" -t "Track=%n" -t "Genre=%m" "C:\Program Files\Monkey's Audio\MAC.exe" %s %d -c2000
TOC of the extracted CD
Track | Start | Length | Start sector | End sector
---------------------------------------------------------
1 | 0:00.00 | 8:07.37 | 0 | 36561
2 | 8:07.37 | 10:26.21 | 36562 | 83532
3 | 18:33.58 | 4:43.74 | 83533 | 104831
4 | 23:17.57 | 8:02.42 | 104832 | 141023
5 | 31:20.24 | 12:24.71 | 141024 | 196894
6 | 43:45.20 | 8:35.31 | 196895 | 235550
7 | 52:20.51 | 9:49.07 | 235551 | 279732
8 | 62:09.58 | 8:05.66 | 279733 | 316173
Range status and errors
Selected range
Filename E:\Uploads\BEETHOVEN The 9 Symphonies - Pletnev\BEETHOVEN The 9 Symphonies Pletnev cd 2\Mikhail Pletnev, Russian National Orchestra - Beethoven The Nine Symphonies (CD 2).wav
Peak level 99.4 %
Range quality 100.0 %
Copy CRC 80820781
Copy OK
No errors occurred
AccurateRip summary
Track 1 accurately ripped (confidence 7) [FC1424BF]
Track 2 accurately ripped (confidence 6) [23477B16]
Track 3 accurately ripped (confidence 7) [4CC392CC]
Track 4 accurately ripped (confidence 7) [12029471]
Track 5 accurately ripped (confidence 7) [04DA719B]
Track 6 accurately ripped (confidence 7) [ADD95F4E]
Track 7 accurately ripped (confidence 7) [9F2DBF7E]
Track 8 accurately ripped (confidence 7) [CC3376A0]
All tracks accurately ripped
End of status report


CD3
[1-4] Symphony No.5
[5-8] Symphony No.7

EAC
Exact Audio Copy V0.99 prebeta 5 from 4. May 2009
EAC extraction logfile from 13. February 2010, 18:43
Mikhail Pletnev, Russian National Orchestra / Beethoven: The Nine Symphonies (CD 3)
Used drive : MATSHITADVD-RAM UJ880AS Adapter: 0 ID: 1
Read mode : Secure
Utilize accurate stream : Yes
Defeat audio cache : Yes
Make use of C2 pointers : No
Read offset correction : 102
Overread into Lead-In and Lead-Out : No
Fill up missing offset samples with silence : Yes
Delete leading and trailing silent blocks : No
Null samples used in CRC calculations : No
Used interface : Native Win32 interface for Win NT & 2000
Used output format : User Defined Encoder
Selected bitrate : 320 kBit/s
Quality : High
Add ID3 tag : No
Command line compressor : C:\Program Files\Exact Audio Copy\wapet\wapet.exe
Additional command line options : %d -t "Artist=%a" -t "Title=%t" -t "Album=%g" -t "Year=%y" -t "Track=%n" -t "Genre=%m" "C:\Program Files\Monkey's Audio\MAC.exe" %s %d -c2000
TOC of the extracted CD
Track | Start | Length | Start sector | End sector
---------------------------------------------------------
1 | 0:00.00 | 11:11.34 | 0 | 50358
2 | 11:11.34 | 10:28.32 | 50359 | 97490
3 | 21:39.66 | 3:34.01 | 97491 | 113541
4 | 25:13.67 | 5:56.41 | 113542 | 140282
5 | 31:10.33 | 11:29.04 | 140283 | 191961
6 | 42:39.37 | 9:36.05 | 191962 | 235166
7 | 52:15.42 | 5:40.42 | 235167 | 260708
8 | 57:56.09 | 6:19.22 | 260709 | 289155
Range status and errors
Selected range
Filename E:\Uploads\BEETHOVEN The 9 Symphonies - Pletnev\BEETHOVEN The 9 Symphonies Pletnev cd 3\Mikhail Pletnev - Beethoven The Nine Symphonies (CD 3).wav
Peak level 99.2 %
Range quality 100.0 %
Copy CRC B26E6B7A
Copy OK
No errors occurred
AccurateRip summary
Track 1 accurately ripped (confidence 8) [49AB14A9]
Track 2 accurately ripped (confidence 8) [1A02C4A1]
Track 3 accurately ripped (confidence 8) [2E84F479]
Track 4 accurately ripped (confidence 8) [EE4C9B93]
Track 5 accurately ripped (confidence 8) [4A4087B0]
Track 6 accurately ripped (confidence 8) [E4493746]
Track 7 accurately ripped (confidence 8) [07F8A3E3]
Track 8 accurately ripped (confidence 8) [4D699449]
All tracks accurately ripped
End of status report


CD4
[1-5] Symphony No.6
[6-9] Symphony No.8

EAC
Exact Audio Copy V0.99 prebeta 5 from 4. May 2009
EAC extraction logfile from 14. February 2010, 17:43
Mikhail Pletnev, Russian National Orchestra / Beethoven: The Nine Symphonies (CD 4)
Used drive : MATSHITADVD-RAM UJ880AS Adapter: 0 ID: 1
Read mode : Secure
Utilize accurate stream : Yes
Defeat audio cache : Yes
Make use of C2 pointers : No
Read offset correction : 102
Overread into Lead-In and Lead-Out : No
Fill up missing offset samples with silence : Yes
Delete leading and trailing silent blocks : No
Null samples used in CRC calculations : No
Used interface : Native Win32 interface for Win NT & 2000
Used output format : User Defined Encoder
Selected bitrate : 320 kBit/s
Quality : High
Add ID3 tag : No
Command line compressor : C:\Program Files\Exact Audio Copy\wapet\wapet.exe
Additional command line options : %d -t "Artist=%a" -t "Title=%t" -t "Album=%g" -t "Year=%y" -t "Track=%n" -t "Genre=%m" "C:\Program Files\Monkey's Audio\MAC.exe" %s %d -c2000
TOC of the extracted CD
Track | Start | Length | Start sector | End sector
---------------------------------------------------------
1 | 0:00.00 | 9:32.61 | 0 | 42960
2 | 9:32.61 | 10:08.33 | 42961 | 88593
3 | 19:41.19 | 5:24.18 | 88594 | 112911
4 | 25:05.37 | 3:15.68 | 112912 | 127604
5 | 28:21.30 | 8:46.07 | 127605 | 167061
6 | 37:07.37 | 9:50.07 | 167062 | 211318
7 | 46:57.44 | 4:05.21 | 211319 | 229714
8 | 51:02.65 | 4:32.64 | 229715 | 250178
9 | 55:35.54 | 7:11.09 | 250179 | 282512
Range status and errors
Selected range
Filename E:\Uploads\BEETHOVEN The 9 Symphonies - Pletnev\BEETHOVEN The 9 Symphonies Pletnev cd 4\Mikhail Pletnev, Russian National Orchestra - Beethoven The Nine Symphonies (CD 4).wav
Peak level 99.2 %
Range quality 100.0 %
Copy CRC 66169E2D
Copy OK
No errors occurred
AccurateRip summary
Track 1 accurately ripped (confidence 8) [BDA9F936]
Track 2 accurately ripped (confidence 7) [5AACE4A0]
Track 3 accurately ripped (confidence 8) [155CCD9A]
Track 4 accurately ripped (confidence 8) [34EFC64C]
Track 5 accurately ripped (confidence 8) [ED326C07]
Track 6 accurately ripped (confidence 8) [5C49364B]
Track 7 accurately ripped (confidence 8) [DF856998]
Track 8 accurately ripped (confidence 8) [2DDDDFD1]
Track 9 accurately ripped (confidence 8) [3B9EAA92]
All tracks accurately ripped
End of status report


CD5
[1-5] Symphony No.9
Angela Denoke, soprano
Marianna Tarasova, mezzo-soprano
Endrik Wottrich, tenor
Matthias Goerne, baritone
The Moscow State Chamber Choir
Vladimir Minin
EAC
Exact Audio Copy V0.99 prebeta 5 from 4. May 2009
EAC extraction logfile from 13. February 2010, 12:58
Mikhail Pletnev, Russian National Orchestra / Beethoven: The Nine Symphonies (CD 5)
Used drive : MATSHITADVD-RAM UJ880AS Adapter: 0 ID: 1
Read mode : Secure
Utilize accurate stream : Yes
Defeat audio cache : Yes
Make use of C2 pointers : No
Read offset correction : 102
Overread into Lead-In and Lead-Out : No
Fill up missing offset samples with silence : Yes
Delete leading and trailing silent blocks : No
Null samples used in CRC calculations : No
Used interface : Native Win32 interface for Win NT & 2000
Used output format : User Defined Encoder
Selected bitrate : 320 kBit/s
Quality : High
Add ID3 tag : No
Command line compressor : C:\Program Files\Exact Audio Copy\wapet\wapet.exe
Additional command line options : %d -t "Artist=%a" -t "Title=%t" -t "Album=%g" -t "Year=%y" -t "Track=%n" -t "Genre=%m" "C:\Program Files\Monkey's Audio\MAC.exe" %s %d -c2000
TOC of the extracted CD
Track | Start | Length | Start sector | End sector
---------------------------------------------------------
1 | 0:00.00 | 14:24.40 | 0 | 64839
2 | 14:24.40 | 12:24.55 | 64840 | 120694
3 | 26:49.20 | 11:43.08 | 120695 | 173427
4 | 38:32.28 | 6:35.06 | 173428 | 203058
5 | 45:07.34 | 17:19.15 | 203059 | 280998
Range status and errors
Selected range
Filename E:\Uploads\BEETHOVEN The 9 Symphonies - Pletnev\cd 5\Mikhail Pletnev, Russian National Orchestra - Beethoven The Nine Symphonies (CD 5).wav
Peak level 99.9 %
Range quality 99.9 %
Copy CRC 13F54B4F
Copy OK
No errors occurred
AccurateRip summary
Track 1 accurately ripped (confidence 8) [C819570B]
Track 2 accurately ripped (confidence 8) [88B3566D]
Track 3 accurately ripped (confidence 7) [BA5583E1]
Track 4 accurately ripped (confidence 8) [A8DE5E8A]
Track 5 accurately ripped (confidence 8) [3EEB9CD1]
All tracks accurately ripped
End of status report

                                                                                       
                       
                       
                       
                       
                       
                                磁力下载(论坛代下载服务)::
                                                               
                                       
付费主题

已有0人支付


                                               
  • 1.25 GB
  • 温馨提示

    记得善用社区搜索功能,那里可能会有你想要的资源;论坛站内搜索

    如果你有什么需要的资源可以去资源求档发帖,求助社区的网友,我们会在第一时间给你回复哦;资源求档

    对于本社区网盘链接失效密码错误各种报错请在反馈板块反馈报错发帖,您的支持,是我们发展的最大动力;投诉建议

    回复

    使用道具 举报

    您需要登录后才可以回帖 登录 | 立即注册 微信登录

    本版积分规则

    关注0

    粉丝1

    帖子31533

    发布主题
    阅读排行更多+
    关闭

    站长推荐上一条 /1 下一条

    活动提示

    赞助永久VIP会员送3T硬盘一块 限时活动

    地址:立刻参加

    我知道了
    收藏帖子 返回列表 这是一个自定义按钮
    音乐分享,音乐下载。
    微信公众号
    微信号:hires_
    意见反馈:admin@maomicd.com

    加入我们的官方QQ群和微信群

    Powered by Discuz! X3.4 Archiver|手机版|小黑屋|捌零音乐论坛 ( 苏ICP备20015413号 )|( 苏公网安备 32030502000272号) 繁體

    GMT+8, 2021-9-25 04:42